#TITLE:ANOTHER NIGHT;
#SUBTITLE:(DJ Tora Vocal Mix);
#ARTIST:MORGANA;
#TITLETRANSLIT:;
#SUBTITLETRANSLIT:;
#ARTISTTRANSLIT:;
#GENRE:TRANCE;
#CREDIT:YonabearCWY;
#BANNER:ANOTHER NIGHT (DJ Tora Vocal Mix).png;
#BACKGROUND:ANOTHER NIGHT (DJ Tora Vocal Mix)-bg.png;
#LYRICSPATH:;
#CDTITLE:HIME TRANCE.png;
#MUSIC:ANOTHER NIGHT (DJ Tora Vocal Mix).ogg;
#OFFSET:-0.025000;
#SAMPLESTART:103.900002;
#SAMPLELENGTH:15.000000;
#SELECTABLE:YES;
#BPMS:0.000000=140.000000
;
#STOPS:
;
#BGCHANGES:16.000=night1.mp4=1.000=1=0=1===CrossFade==,
32.000=blizzard1.mp4=1.000=0=0=1=====,
48.000=amoeba1.mp4=0.800=0=0=1=====,
55.500=lady6.mp4=0.800=0=0=1=====,
64.000=amoeba1.mp4=0.800=0=1=1=StretchRewind====,
72.000=lady5.mp4=0.700=0=0=1=====,
80.000=wheel1.mp4=1.000=0=0=1=====,
87.500=lady4.mp4=0.700=0=0=1=====,
96.000=amoeba1.mp4=1.000=0=1=1=StretchRewind====,
103.500=lady6.mp4=0.900=0=1=1=StretchRewind====,
112.000=heart2.mp4=1.000=0=0=1=====,
120.000=light4.mp4=1.000=0=0=1=====,
128.000=heart2.mp4=1.000=0=0=1=====,
136.000=light4.mp4=1.000=0=0=1=====,
144.000=night1.mp4=1.000=0=1=1=StretchRewind====,
152.000=wheel1.mp4=1.000=0=1=1=StretchRewind====,
160.000=blizzard1.mp4=1.000=0=1=1=StretchRewind====,
168.000=night1.mp4=1.000=0=0=1=====,
171.500=lady5.mp4=1.400=0=1=1=StretchRewind====,
176.000=lady3.mp4=1.600=0=0=1=====,
184.000=light2.mp4=1.200=0=0=1=====,
192.000=light3.mp4=1.200=0=0=1=====,
196.000=light3.mp4=2.000=0=0=1=====,
204.000=lady4.mp4=1.000=0=1=1=StretchRewind====,
209.750=lady4r.mp4=1.000=0=0=1=====,
212.000=heart2.mp4=1.000=0=0=1=====,
220.000=light4.mp4=1.000=0=0=1=====,
228.000=heart2.mp4=1.000=0=0=1=====,
234.500=night1.mp4=1.000=0=0=1=====,
244.000=heart2.mp4=1.000=0=0=1=====,
252.000=light4.mp4=1.000=0=0=1=====,
260.000=heart2.mp4=1.000=0=0=1=====,
266.500=night1.mp4=1.000=0=0=1=====,
275.500=wheel1.mp4=1.000=0=1=1=StretchRewind====,
283.500=lady6.mp4=1.000=0=1=1=StretchRewind====,
291.500=wheel1.mp4=1.000=0=0=1=====,
299.500=lady6.mp4=1.000=0=1=1=StretchRewind====,
303.500=lady5.mp4=1.400=0=1=1=StretchRewind====,
308.000=ANOTHER NIGHT (DJ Tora Vocal Mix)-bg.png=1.000=0=0=1=====,
99999.000=-nosongbg-=1.000=0=0=0=StretchNoLoop====,
99999=-nosongbg-=1.000=0=0=0 // don't automatically add -songbackground-
;
#KEYSOUNDS:;
#ATTACKS:;

//---------------dance-single - ----------------
#NOTES:
     dance-single:
     BEGINNER:
     Beginner:
     2:
     0.126444,0.200451,0.029752,0.007438,0.000000,119.000000,115.000000,4.000000,1.000000,0.000000,0.000000,0.126444,0.200451,0.029752,0.007438,0.000000,119.000000,115.000000,4.000000,1.000000,0.000000,0.000000:
0000
0000
0000
0000
,
0000
0000
0000
0000
,
0000
0000
0000
0000
,
0000
0000
0000
0000
,
1000
0000
0000
0000
,
1000
0000
0000
0000
,
1000
0000
0000
0000
,
1000
0000
0000
0000
,
0001
0000
0000
0000
,
0001
0000
0000
0000
,
0001
0000
0000
0000
,
0001
0000
0000
0000
,
1001
0010
0010
0000
,
0100
0000
0100
0000
,
0100
0000
0000
0000
,
0010
0000
0000
0000
,
1001
0100
0100
0000
,
0010
0000
0000
0000
,
0100
0000
0000
0000
,
0010
0000
0000
0000
,
1000
0000
1000
0000
,
1000
0000
0000
0000
,
0010
0000
0010
0000
,
0010
0000
0000
0000
,
0100
0000
0100
0000
,
0100
0000
0000
0000
,
0001
0000
0001
0000
,
0001
0000
0000
0000
,
1000
0000
1000
0000
,
1000
0000
0000
0000
,
1000
0000
1000
0000
,
1000
0000
0000
0000
,
0001
0000
0001
0000
,
0001
0000
0000
0000
,
0001
0000
0001
0000
,
0001
0000
0000
0000
,
0001
0000
0000
0000
,
0001
0000
0000
0000
,
0001
0000
0000
0000
,
0001
0000
0000
0000
,
1000
0000
0000
0000
,
1000
0000
0000
0000
,
1000
0000
0000
0000
,
1001
0000
0000
0000
,
0010
0010
0010
0000
,
0010
0010
0010
0000
,
0100
0100
0100
0000
,
0100
0100
0100
0000
,
0100
0000
0010
0000
,
0200
0000
0000
0000
,
0000
0000
0000
0000
,
0300
0000
0000
0000
,
0000
0000
0000
0000
,
0001
0000
0001
0000
,
0001
0100
0001
0000
,
1000
0000
1000
0000
,
1000
0010
1000
0000
,
0010
0000
0010
0000
,
0010
0100
0010
0000
,
0100
0000
0000
0000
,
0010
0000
0000
0000
,
0100
0000
0100
0000
,
0100
0001
0100
0000
,
0001
0000
0001
0000
,
0001
1000
0001
0000
,
1000
0000
1000
0000
,
1000
0001
1000
0000
,
0010
0000
0000
0000
,
0100
0000
0000
0000
,
0010
0000
0010
0000
,
0010
0000
0000
0000
,
1000
0000
1000
0000
,
1000
0000
0000
0000
,
0100
0000
0100
0000
,
0100
0000
0000
0000
,
1000
0000
1000
0000
,
1000
0000
0000
0000
,
1001
0000
0000
0000
;

//---------------dance-single - ----------------
#NOTES:
     dance-single:
     BASIC:
     Easy:
     6:
     0.312391,0.400901,0.394207,0.074379,0.000000,294.000000,241.000000,53.000000,10.000000,0.000000,0.000000,0.312391,0.400901,0.394207,0.074379,0.000000,294.000000,241.000000,53.000000,10.000000,0.000000,0.000000:
0000
0000
0000
0000
,
0000
0000
0000
0000
,
0000
0000
0000
0000
,
0000
0000
0000
0000
,
1000
0010
1000
0000
,
0001
0100
0001
1001
,
1000
0100
1000
0000
,
0001
0010
0001
0101
,
0100
0010
0100
0000
,
0010
0100
0010
1010
,
1000
0100
0001
0000
,
0001
0100
1000
1001
,
2000
0010
3010
0000
,
0200
0300
0200
0300
,
0101
0001
1001
0001
,
0011
0001
0202
0303
,
0002
0010
0013
0000
,
2000
3000
2000
3000
,
1001
1000
1010
1000
,
1100
1000
1001
0001
,
0101
0001
0010
0000
,
0001
0100
0010
0000
,
1000
1010
1000
1001
,
0001
0101
1001
0000
,
0110
0010
1000
0000
,
1000
0001
0100
0000
,
0101
0001
0011
0001
,
1001
1010
1001
0000
,
0000
0001
0000
0001
0000
0001
0000
0000
,
1000
1000
1000
1001
,
0000
0100
0000
0100
0000
0100
0000
0000
,
0010
0010
0010
0110
,
0000
1000
0000
1000
0000
1000
0000
0000
,
0001
0001
0001
0101
,
0000
0010
0000
0010
0000
0010
0000
0000
,
0001
1000
0001
1001
,
1000
0010
0010
1000
,
0010
0100
0100
0001
,
0100
0001
0001
1000
,
0001
1000
1000
0010
,
1000
0100
0100
1000
,
0001
0100
0100
0001
,
0010
0001
0001
1000
,
1001
0000
0100
1001
,
0010
0100
0010
1010
,
1001
0100
0001
0011
,
1001
0000
1001
0000
,
1001
0000
1001
0000
,
0001
1000
0001
1000
,
0020
0000
0000
0000
,
0230
0000
0000
0000
,
0310
0000
0000
0000
,
0000
0000
0000
0000
,
1000
0010
1000
0010
,
1010
1100
1001
0001
,
0100
0001
0100
0001
,
0011
1001
0101
0100
,
0001
1000
0001
1000
,
1010
0110
1010
1000
,
0001
0000
0001
0000
,
1000
1000
1000
0000
,
1100
1000
0010
0110
,
0010
1000
0001
0100
,
0101
0001
1000
1001
,
0001
0100
0010
1000
,
1100
1000
0010
0100
,
0101
0001
1000
1001
,
0100
0000
0010
0010
,
0010
0000
0001
0001
,
0001
0000
0001
0000
,
0001
0100
0001
0000
,
1000
0001
1000
0000
,
0010
1000
0010
0000
,
1000
0000
1000
0000
,
1000
0010
1000
0000
,
0001
0100
0001
1000
,
0001
0010
0001
1000
,
1001
0000
0000
0000
;

//---------------dance-single - ----------------
#NOTES:
     dance-single:
     DIFFICULT:
     Medium:
     9:
     0.442022,0.486809,0.394207,0.074379,0.007438,416.000000,363.000000,53.000000,10.000000,0.000000,0.000000,0.442022,0.486809,0.394207,0.074379,0.007438,416.000000,363.000000,53.000000,10.000000,0.000000,0.000000:
0000
0000
0000
0000
,
0000
0000
0000
0000
,
0000
0000
0000
0000
,
0000
0000
0000
0000
,
1000
0100
1000
0000
0001
0000
0100
0001
,
0100
0001
0010
0001
,
1000
0001
1000
0000
0010
0000
1000
0100
,
1000
0001
0010
0100
,
1000
0001
1000
0000
0010
0000
0100
0001
,
0100
0001
1000
0001
,
1000
0001
1000
0000
0001
0000
0010
0001
,
0010
0001
0100
0010
,
2010
0000
0100
3100
0000
1000
0001
0000
,
0102
1000
0010
1003
,
0101
1000
1010
0001
,
0001
0100
0010
2000
0000
0000
3000
0000
,
0012
0000
0100
0100
0003
0001
1000
0000
,
1010
1000
0001
0100
,
0101
0001
1000
0001
,
1000
0100
0010
0001
0000
1000
0001
1000
,
0001
0010
0001
0000
0010
0001
0010
0000
,
0001
0100
0010
1000
0000
1000
0100
1000
,
0000
0010
1000
0010
0000
1000
0100
0000
,
1010
0100
1001
0100
,
1000
0010
1000
0000
0010
1000
0010
0000
,
1000
0100
0010
0001
0000
0100
0001
0100
,
0000
0001
0010
0001
0000
0001
0100
0000
,
0101
1000
1001
0010
,
0010
0100
0010
0000
0100
0001
0100
0000
,
0010
1000
0001
1001
,
1000
0100
1000
0000
0010
1000
0010
0000
,
1000
1001
0001
0101
,
0100
0010
0100
0000
0001
0100
0001
0000
,
0010
0011
0001
1001
,
1000
0100
0001
0000
0001
0100
1000
0000
,
1001
0000
0110
0000
0001
1000
0010
0000
,
0100
0001
0100
0000
0001
0100
0010
0000
,
0010
1000
0010
0100
0010
1000
0010
0000
,
1000
0001
1000
0000
0001
1000
0100
0000
,
1000
0010
1000
0001
1000
0100
1000
0000
,
0010
1000
0010
0000
1000
0001
1000
0000
,
0001
0100
0001
0010
0001
1000
0001
0000
,
0100
0001
0100
0000
0001
0010
0001
0000
,
1001
0000
1000
0010
0100
0000
0110
0000
,
2001
0000
0000
0001
0000
0000
3001
0000
0100
0000
0000
0000
0110
0000
0000
0000
,
1020
0000
0000
1000
0000
0000
1030
0000
0100
0000
0000
0000
1001
0000
0000
0000
,
0100
0001
0010
0001
,
1001
1100
1010
0110
,
0010
1000
0010
0100
0010
1000
0010
1000
,
0002
0000
0000
0000
,
2000
0000
0003
0000
,
3001
0000
0000
0000
,
0000
0000
0000
0000
,
0001
0100
0001
0000
1000
0001
1000
0000
,
1010
1100
1001
0010
,
0001
0010
0100
0000
1000
0001
0100
0000
,
0101
0011
1001
0100
,
1000
0010
0100
0000
0001
1000
0100
0000
,
1001
0000
0101
0000
0011
0001
0100
0001
,
0000
0001
0000
1000
0000
0010
0000
1000
,
0000
0100
0000
1000
0000
0010
1000
0000
,
1100
0000
1000
0100
0001
0000
0001
0100
,
1000
0000
1100
0000
1001
0000
0001
0100
,
0010
0000
0010
1000
0001
0000
0001
0100
,
0000
0100
0001
0000
1001
0000
0110
0000
,
0001
0010
1000
0000
1000
0010
0001
0000
,
0011
0000
0101
0000
1001
1000
0010
1000
,
0000
0100
0000
1000
0000
0010
0000
1000
,
0000
0001
0000
1001
0000
0100
0001
0100
,
0000
0001
0100
0001
0000
0010
0001
0020
,
0000
0001
0000
0031
0000
0001
0100
0000
,
0101
0001
1001
1000
,
1010
0000
0010
0000
0010
1000
0010
1000
,
0000
0010
1000
0010
0000
1000
0001
0200
,
0000
0010
0000
0310
0000
0010
0100
0000
,
1001
0100
1010
0100
,
0101
0000
0001
0000
0001
1000
0010
0000
,
1001
0000
0000
0000
;

//---------------dance-single - ----------------
#NOTES:
     dance-single:
     EXPERT:
     Hard:
     13:
     0.604593,0.715895,0.297515,0.133882,0.252888,569.000000,529.000000,40.000000,18.000000,0.000000,0.000000,0.604593,0.715895,0.297515,0.133882,0.252888,569.000000,529.000000,40.000000,18.000000,0.000000,0.000000:
// measure 0
0000
0000
0000
0000
,  // measure 1
0000
0000
0000
0000
,  // measure 2
0000
0000
0000
0000
,  // measure 3
0000
0000
0000
0000
,  // measure 4
1000
0000
0010
0000
1000
0001
0000
0010
0000
0001
1000
0000
0001
0000
0010
0000
,  // measure 5
0001
0000
0100
0000
0001
1000
0000
0100
0000
1000
0001
0000
0100
0000
0001
0000
,  // measure 6
1000
0000
0100
0000
1000
0001
0000
0100
0000
0001
1000
0000
0001
0000
0100
0000
,  // measure 7
0001
0000
0010
0000
0001
1000
0000
0010
0000
1000
0001
0000
0010
0000
0001
0000
,  // measure 8
0100
0000
0001
0000
0010
0001
0000
1000
0000
0001
0100
0000
0001
0000
1000
0000
,  // measure 9
0010
0000
1000
0000
0100
1000
0000
0100
0000
1000
0010
0000
1000
0000
0001
0000
,  // measure 10
1000
0000
0100
0000
1000
0010
0000
0100
0000
0001
1000
0000
0001
0000
0100
0000
,  // measure 11
0001
0000
0010
0000
0001
0100
0000
0010
0000
1000
0001
0000
0100
0000
0001
0000
,  // measure 12
2001
0000
0100
3100
0000
1000
0010
0000
,  // measure 13
0102
0000
1000
0000
0013
0001
0100
0101
,  // measure 14
0000
1000
0010
1010
0000
0010
1000
0001
,  // measure 15
0200
0001
0001
0002
0000
0000
0303
0000
,  // measure 16
1002
0000
0010
0013
0000
0001
0100
0000
,  // measure 17
1002
0100
0010
0103
,  // measure 18
2001
0100
0010
3100
,  // measure 19
0010
0010
0010
0010
0000
1000
0001
1000
,  // measure 20
1100
0000
0000
1000
0002
0000
0000
0000
0010
0000
0010
0000
0013
0000
0000
0000
,  // measure 21
0001
0100
0010
1000
0000
0001
0100
0101
,  // measure 22
0000
1000
0010
1010
0000
0001
0010
0100
,  // measure 23
1000
1000
1000
1000
0000
1000
0010
0100
,  // measure 24
0101
0000
0000
0001
2000
0000
0000
0000
0100
0000
0100
0000
3100
0000
0000
0000
,  // measure 25
1000
0001
0100
0001
0000
0001
1000
1100
,  // measure 26
0000
1000
0001
0011
0000
0001
0100
0010
,  // measure 27
0100
0100
0100
0100
0000
0001
1000
0100
,  // measure 28
0010
0001
0000
1000
0100
0001
0000
0001
,  // measure 29
0100
0000
1000
0000
0010
0000
0100
0000
0001
1000
0000
0001
0100
0000
0010
0000
,  // measure 30
0000
1000
0010
0001
0000
0001
0010
1000
,  // measure 31
0100
0000
0010
0000
0001
0000
1000
0000
0001
0100
0000
0010
1000
0000
0100
0000
,  // measure 32
0000
1000
0001
0010
0000
0001
1000
0100
,  // measure 33
0010
0000
0001
0000
1000
0000
0001
0000
0010
0000
0100
1000
0100
0000
0001
0000
,  // measure 34
0000
0100
1000
0010
0000
0100
0001
1000
,  // measure 35
0010
0001
0010
0100
0001
1000
1001
0000
,  // measure 36
0010
0000
1000
0000
0010
0000
0000
0100
0000
0001
1000
0000
0100
0000
0010
0000
,  // measure 37
0001
0000
0100
0000
1000
0000
0100
0010
0000
0010
1000
0000
0001
0000
0100
0000
,  // measure 38
0001
0000
1000
0000
0001
0000
0000
0010
0000
0001
0100
0000
0010
0000
1000
0000
,  // measure 39
0100
0000
0001
0000
0100
0000
0010
0001
0000
0001
1000
0000
0001
0000
0010
0000
,  // measure 40
0100
0000
1000
0000
0001
1000
0001
0000
1000
0000
0100
0000
0010
0000
1000
0000
,  // measure 41
0010
0000
0100
0000
1000
0000
0001
0010
0001
0000
1000
0000
0100
0000
0001
0000
,  // measure 42
0100
0000
1000
0000
0001
0100
0001
0000
1000
0000
0001
0000
0100
0000
0010
1000
,  // measure 43
0001
0010
0100
1000
0001
0000
0110
0000
,  // measure 44
1001
0000
0000
0000
0010
0000
0100
0000
1000
0000
0000
0001
0100
0000
0010
0000
,  // measure 45
1010
0000
0000
0000
0100
0000
0010
0000
0001
0000
0000
1000
0100
0000
0010
0000
,  // measure 46
0011
0000
0000
1000
0001
0000
0010
0000
0100
0000
0000
0000
1010
0000
0000
0000
,  // measure 47
0101
0000
0000
0010
1000
0000
0100
0000
0010
0000
0000
0000
0110
0000
0000
0000
,  // measure 48
1000
0001
0001
0010
0100
0100
1000
0000
,  // measure 49
0001
0001
0001
0001
0001
0001
0001
0001
,  // measure 50
0100
0010
0100
0010
0100
0010
0100
0010
0100
0010
0100
0010
0100
0010
0100
0010
,  // measure 51
1000
0000
0000
0000
,  // measure 52
0000
0000
0000
0000
0000
1000
0100
0010
,  // measure 53
0021
0000
0031
1000
2100
0000
3001
0100
,  // measure 54
0102
0000
0010
0000
0010
0000
0013
0000
0100
1000
0100
0000
1000
0000
0001
0000
,  // measure 55
0010
0001
0001
0001
1000
0010
0100
0001
,  // measure 56
0010
0000
0100
1000
0100
0000
1000
0000
0001
0000
0010
0000
0100
0000
1000
0000
,  // measure 57
2001
0000
3010
0100
0102
0000
0103
0010
,  // measure 58
2010
0001
0001
3001
1000
0001
0010
0100
,  // measure 59
0000
1010
0000
0101
0000
0010
1000
0100
,  // measure 60
0000
0000
0011
0000
0001
0000
0010
0000
0100
0000
1000
0001
1000
0000
0010
0000
,  // measure 61
0110
0000
0000
1000
0001
0000
0010
0000
0001
0000
0000
0010
0100
0000
0010
0000
,  // measure 62
0001
0000
0000
0000
1000
0000
0100
0000
0001
0000
0100
0010
0100
0000
1000
0000
,  // measure 63
0001
0000
0000
0010
0100
0000
1000
0000
0100
0000
0010
0000
0010
0000
0010
0000
,  // measure 64
0001
0000
1000
0000
0100
0000
0001
0000
0100
0000
1000
0010
1000
0000
0001
0000
,  // measure 65
0010
0000
0000
0001
0100
0000
0010
0000
1000
0000
0000
0100
0010
0000
0001
0000
,  // measure 66
1000
0000
0001
0000
0010
0000
0100
0000
1000
0000
0001
0010
0001
0000
0010
0000
,  // measure 67
0100
1000
0000
0101
0000
1010
1000
0100
,  // measure 68
0010
0000
0001
0000
0001
0000
0001
0000
0010
0000
0100
0000
1000
0000
0001
0010
,  // measure 69
0001
0100
0000
1010
0000
0100
0010
0001
,  // measure 70
1000
0001
0000
0010
0100
0100
0100
0100
,  // measure 71
0000
1010
0000
0101
0000
0001
0010
1000
,  // measure 72
0000
0000
0011
0000
0000
0000
1010
0000
1000
0000
0001
0000
0010
0000
0100
0010
,  // measure 73
0100
2000
0000
3001
0100
0020
0000
1030
,  // measure 74
0100
0002
0000
0103
1000
0010
0100
0010
,  // measure 75
0100
0001
1000
0100
0010
0100
0010
0001
,  // measure 76
1000
0001
0010
0100
1000
0000
0110
0000
,  // measure 77
1001
0000
0000
0000
;

//---------------dance-double - ----------------
#NOTES:
     dance-double:
     :
     Easy:
     5:
     0.259263,0.286358,0.096692,0.089254,0.000000,244.000000,231.000000,13.000000,12.000000,0.000000,0.000000,0.259263,0.286358,0.096692,0.089254,0.000000,244.000000,231.000000,13.000000,12.000000,0.000000,0.000000:
00000000
00000000
00000000
00000000
,
00000000
00000000
00000000
00000000
,
00000000
00000000
00000000
00000000
,
00000000
00000000
00000000
00000000
,
00010000
00010000
10000000
00000000
,
01000000
01000000
00010000
01000000
,
10000000
00010000
00010000
00000000
,
00100000
00001000
00001000
00010000
,
00000010
00000010
00000100
00000000
,
00000001
00000001
00000100
00001000
,
00000100
00000100
00000001
00000000
,
00000001
00000001
00001000
00000100
,
00010100
00000000
00010000
00000000
,
00010000
00000000
00001000
00000000
,
00001000
00000000
00010000
00000000
,
00001000
00000000
00100000
00000000
,
00010000
00000000
10000000
00000000
,
00010000
00000000
10000000
10000000
,
01000000
01000000
10000000
10000000
,
00010000
00010000
00100000
00100000
,
00001000
00010000
00000010
00000000
,
00000010
00000000
00000010
00001000
,
00001100
00000000
00010100
00000000
,
00010000
00010000
00001000
00001000
,
00100000
00010000
10000000
00000000
,
01000000
10000000
00100000
00010000
,
00100000
10000000
00100000
01000000
,
00010000
00010000
02010000
00000000
,
03001000
01000000
00001000
00010000
,
00001000
00010000
00000010
00000100
,
00000001
00001000
00000100
00010000
,
00001000
00010000
00001000
00100000
,
00010000
10000000
01000000
00010000
,
01000000
10000000
00100000
01000000
,
00010000
01000000
00001000
00100000
,
00010000
00100000
00001000
00010000
,
00000010
00000000
00000010
00000010
,
00000100
00000000
00000100
00000100
,
00000001
00000000
00000001
00000001
,
00001000
00000000
00000010
00000010
,
00010000
00000000
00001000
00001000
,
00100000
00000000
00010000
00010000
,
01000000
00000000
00100000
00000000
,
10000000
00010000
10000000
10010000
,
00010000
00000000
00010000
01000000
,
00001000
00000000
00010000
00000010
,
00000100
00000100
00000001
00000001
,
00001000
00001000
00000100
00000100
,
00010000
00000000
00001000
00000000
,
00201000
00000000
00000000
00000000
,
00000000
00000000
00000000
00000000
,
00310000
00000000
00000000
00000000
,
00000000
00000000
00000000
00000000
,
10000000
01000000
00010000
01000000
,
10000000
10000000
00010000
00010000
,
00100000
00000000
00101000
00000000
,
00001000
00010000
00000100
00000010
,
00000001
00000000
00000001
00000000
,
00001000
00001000
00000100
00000100
,
00010000
00000000
00011000
00000000
,
00001000
00000000
00001000
00100000
,
00010000
10000000
01000000
00010000
,
01000000
10000000
00010000
01000000
,
00001000
00010000
00001000
00100000
,
00001000
00010000
00000100
00000010
,
00000001
00000010
00001000
00000010
,
00000001
00000100
00000010
00000100
,
00000001
00000000
00001000
00000000
,
00000100
00010000
00001000
00100000
,
00110000
00000000
10010000
00000000
,
11000000
00000000
10010000
00100000
,
00020000
10030000
20000000
31000000
,
02000000
03100000
00200000
00310000
,
00020000
00030000
00200000
00300000
,
00002000
00003000
00020000
00030100
,
00002000
00003010
00000020
00000130
,
00000100
00000001
00000100
00000010
,
00001010
00000000
00000000
00000000
;

//---------------dance-double - ----------------
#NOTES:
     dance-double:
     :
     Medium:
     8:
     0.388895,0.429537,0.245450,0.148758,0.000000,366.000000,333.000000,33.000000,20.000000,0.000000,0.000000,0.388895,0.429537,0.245450,0.148758,0.000000,366.000000,333.000000,33.000000,20.000000,0.000000,0.000000:
00000000
00000000
00000000
00000000
,
00000000
00000000
00000000
00000000
,
00000000
00000000
00000000
00000000
,
00000000
00000000
00000000
00000000
,
10000000
01000000
00010000
00000000
01000000
00000000
00100000
00000000
,
00001000
00100000
00010000
00000000
00100000
00010000
00010000
00100000
,
00001000
00010000
00000010
00000000
00000100
00000000
00000001
00000000
,
00000010
00000001
00001000
00000000
00000100
00010000
00010000
00001000
,
00100000
01000000
10000000
00000000
01000000
00000000
10000000
00000000
,
00100000
10000000
00010000
00000000
01000000
00001000
00100000
00000000
,
00010000
00100000
00001000
00000000
00010000
00000000
00000100
00000000
,
00001000
00000010
00000001
00000000
00000010
00001000
00000100
00000000
,
00020100
00000000
00000000
00001000
00000000
00000000
00031000
00000000
,
00010000
00001000
00100000
00010000
,
10010000
00000000
01100000
00000000
,
10000000
10000000
00100000
00100000
,
02010000
00000000
00000000
00100000
00000000
00000000
03100000
00000000
,
02000000
00001000
03001000
00020000
,
00000100
00030100
00010000
00001000
,
00010000
00000010
00000100
00000001
,
00001001
00000001
00000101
00000001
,
00001001
00000000
00000001
00000100
00000010
00000000
00000010
00010000
,
00002000
00010000
00013000
00002000
,
00100000
00000000
00103000
00020000
00000000
00000000
00030000
00000000
,
10010000
10000000
10100000
10000000
,
10010000
00000000
10000000
01000000
00100000
00000000
00001000
00100000
,
00020000
01000000
01030000
02000000
,
00001000
00000000
03001000
00020000
00000000
00000000
00030000
00000000
,
00000100
00010000
00001000
00010000
,
00000010
00001000
00000100
00001000
00000001
00000000
00001001
00000000
,
00000001
00001000
00000100
00010000
,
00001000
00100000
00010000
00100000
00001000
00000000
00011000
00000000
,
00001000
01000000
00100000
10000000
,
00010000
10000000
01000000
00100000
00010000
00000000
01010000
00000000
,
01000000
00001000
00010000
00001000
,
00010000
00000010
00001000
00000010
00000100
00000000
00000101
00000000
,
00000001
00000000
00000001
00001000
00000100
00000000
00000100
00001000
,
00000000
00000010
00000000
00000010
00001000
00000000
00000010
00010000
,
00001000
00000000
00001000
00100000
00001000
00000000
00100000
00010000
,
00000000
00010000
00000000
00010000
10000000
01000000
00100000
00010000
,
00100000
00000000
00001000
00100000
00001000
00000000
00100000
00010000
,
00000000
00100000
00000000
00100000
00001000
00000000
00001000
00010000
,
00000010
00000000
00000010
00000100
00000010
00000000
00000100
00000001
,
00000100
00000001
00001000
00001001
,
00000002
00000003
00000200
00000300
,
00000020
00000030
00002000
00003000
,
00000100
00010100
00010000
00011000
,
00001000
01001000
01000000
01100000
,
10010000
10000000
01000000
00100000
,
00002000
00000000
00000000
00000000
,
00023000
00000000
00000000
00000000
,
00031000
00000000
00000000
00000000
,
00000000
00000000
00000000
00000000
,
00010000
00000010
00000100
00000001
00000010
00000000
00000010
00000001
,
00000000
00001000
00000000
00000001
00000100
00000000
00000010
00000000
,
00010010
00000000
00001000
00000000
00010000
00000000
00001000
00100000
,
00000000
00010000
10000000
01000000
00000000
01000000
10000000
00000000
,
00100000
10000000
01000000
00010000
01000000
00000000
01000000
10000000
,
00000000
00010000
00000000
10000000
00100000
00000000
01000000
00000000
,
01010000
01000000
01001000
00001000
,
00011000
00000000
00010000
00000000
00010010
00000000
00000010
00000100
,
00000001
00000000
00000001
00001000
00000100
00000000
00000100
00001000
,
00000001
00000010
00000001
00001000
00000100
00010000
00001000
00000000
,
00001000
01000000
00001000
00000000
01000000
00100000
01000000
00000000
,
00100000
10000000
00100000
01000000
00010000
01000000
00010000
00000000
,
01000000
00010000
01000000
00000000
00010000
00100000
00001000
00000000
,
00001000
00010000
00001000
00010000
00000010
00000100
00000010
00000000
,
00000110
00000100
00000101
00000001
,
00001001
00000000
00001000
00000000
00001010
00000000
00000010
00020000
,
00000000
00030000
00010000
00002000
00000000
00003000
00001000
00000000
,
00100000
00000000
00010000
00000000
00100000
00000000
00010000
01000000
,
00000000
00100000
00000000
10000000
00000000
00100000
00000000
01000000
,
00000000
00010000
00000000
01010000
00000000
01000000
00001000
00010000
,
00000200
00000300
00002000
00003000
,
00000010
00000010
00000100
00000100
,
00000001
00000010
00000100
00001000
,
00001100
00000000
00010100
00000000
00010000
00001000
01000000
00000000
,
01100000
00000000
00000000
00000000
;

//---------------dance-double - ----------------
#NOTES:
     dance-double:
     :
     Hard:
     13:
     0.585467,0.830439,0.178509,0.081817,0.308672,551.000000,527.000000,24.000000,11.000000,0.000000,0.000000,0.585467,0.830439,0.178509,0.081817,0.308672,551.000000,527.000000,24.000000,11.000000,0.000000,0.000000:
00000000
00000000
00000000
00000000
,
00000000
00000000
00000000
00000000
,
00000000
00000000
00000000
00000000
,
00000000
00000000
00000000
00000000
,
10000000
00000000
00010000
00000000
01000000
00000000
00001000
00010000
00000000
00000000
00000100
00000000
00001000
00000000
00000010
00000000
,
00000100
00000000
00000001
00000000
00000010
00000000
00001000
00000010
00000000
00000001
00000010
00000000
00000100
00000000
00001000
00000000
,
00010000
00000000
00100000
00000000
00010000
00000000
10000000
00010000
00000000
00000000
00010000
00000000
01000000
00000000
00100000
00000000
,
10000000
00000000
01000000
00000000
00010000
00000000
00001000
00010000
00000000
00010000
00000100
00000000
00001000
00000000
00000010
00000000
,
00000100
00000000
00000001
00000000
00000010
00000000
00000001
00001000
00000000
00000000
00000100
00000000
00010000
00000000
00001000
00000000
,
00100000
00000000
01000000
00000000
10000000
00000000
00010000
01000000
00000000
00010000
10000000
00000000
00100000
00000000
01000000
00000000
,
00001000
00000000
00010000
00000000
00000100
00000000
00001000
00000010
00000000
00000000
00000010
00000000
00000100
00000000
00000001
00000000
,
00000010
00000000
00001000
00000000
00000010
00000000
00000100
00000010
00000000
00000001
00000100
00000000
00000010
00000000
00010000
00000000
,
00002000
00000000
00000000
00000000
00100000
00000000
00000000
00000000
00103000
00000000
00000000
00100000
00001000
00100000
00001000
00000000
,
00020000
00000000
00000100
00000000
00030100
00000000
00001000
00010000
,
01000000
00000000
10000000
00010000
00100000
00000000
00010000
10000000
,
01000000
01000000
01000000
01000000
00000000
10000000
10010000
00000000
,
00110000
00000000
00000000
00001000
00100000
00010000
02000000
00000000
00000000
00000000
00010000
00000000
03010000
00000000
00000000
00000000
,
00200000
00001000
00010000
00301000
,
00100000
00001000
00010000
00000000
00010000
00000100
00000010
00000000
,
00000001
00000001
00000001
00000001
00000000
00000010
00000001
00001000
,
00000100
00010000
00000100
00000000
00010000
00000100
00010000
00000000
,
00001000
00001000
00001000
00001000
00000000
00010000
00001000
00100000
,
00000000
00000000
00010000
00000000
10000000
00000000
01000000
00000000
00000000
01000000
10000000
00000000
00100000
00000000
01000000
00000000
,
00001000
00000000
00001000
00000000
00001000
00000000
00001000
00100000
00000000
00100000
00001000
00000000
00010000
00000000
00000100
00000000
,
00000010
00000100
00000010
00000000
00000100
00000010
00000100
00000000
,
00001000
00001000
00001000
00001000
00000000
00001000
00000010
00010000
,
00000000
00001000
00100000
00010000
00000000
00100000
01000000
10000000
,
00010000
00000000
00010000
00000000
00010000
00000000
00010000
10000000
00000000
10000000
00010000
00000000
01000000
00000000
00001000
00000000
,
00010000
00001000
00000000
00010000
00001000
00001000
00010000
00000100
,
00001000
00000000
00000010
00000000
00000100
00000000
00000001
00000000
00000020
00000000
00000000
00000031
00000100
00000000
00000001
00000000
,
00001000
00010000
00000000
00001000
00000100
00000100
00001000
00000010
,
00000100
00000000
00010000
00000000
00100000
00000000
00001000
00000000
00020000
00000000
00000000
00031000
00010000
00000000
00001000
00000000
,
00100000
00010000
00000000
00100000
01000000
01000000
00100000
00010000
,
00100000
00000000
00001000
00000000
00010000
00000000
00000010
00000000
00020000
00000000
00000000
00030100
00010000
00000000
00001000
00010000
,
00001000
00100000
00000000
00001000
00010000
00010000
00001000
00100000
,
10000000
00000000
00100000
00000000
00010000
00000000
00100000
00000000
20000000
00000000
00000000
30100000
00010000
00000000
00100000
00000000
,
00001000
00000000
00010000
00000000
00000100
00010000
00000000
00000100
00000000
00001000
00000010
00000000
00000100
00000000
00000001
00000000
,
00000010
00000000
00000100
00000000
00001000
00000000
00010000
00001000
00000000
00001000
00010000
00000000
00001000
00000000
00100000
00000000
,
01000000
00000000
10000000
00000000
00100000
10000000
00000000
01000000
00000000
10000000
00010000
00000000
00100000
00000000
00001000
00000000
,
00010000
00000000
00000100
00000000
00010000
00000000
00000010
00001000
00000000
00000001
00000010
00000000
00000001
00000000
00000100
00000000
,
00001000
00000000
00000100
00000000
00000001
00000010
00000000
00000001
00000000
00001000
00000100
00000000
00010000
00000000
00001000
00000000
,
00100000
00000000
01000000
00000000
00100000
00000000
00010000
00100000
00000000
00010000
10000000
00000000
01000000
00000000
00010000
00000000
,
00001000
00000000
00000010
00000000
00000001
00000100
00000000
00000001
00000000
00001000
00000001
00000000
00000010
00000000
00000100
00000010
,
00000100
00000000
00000010
00000001
00000000
00000000
00000001
00000000
00001000
00000000
00000000
00000000
00000110
00000000
00000000
00000000
,
00002010
00000000
00000000
00000010
00000000
00000000
00003010
00000000
00000010
00010000
00000000
00000100
00000000
00010000
00001000
00000000
,
00102000
00000000
00000000
00100000
00000000
00000000
00103000
00000000
00100000
00010000
00000000
00100000
00000000
00010000
10000000
00000000
,
10010000
00000000
00000000
10000000
01000000
00000000
00000000
00000000
01010000
00000000
00000000
00010000
00100000
00000000
00000000
00000000
,
00101000
00000000
00000000
00001000
00010000
00000000
00000000
00000000
00010010
00000000
00000000
00010000
00001000
00000000
00100000
00000000
,
00010000
00000000
10000000
01000000
10000000
00000000
01000000
00100000
01000000
00000000
00010000
01000000
00010000
00000000
10000000
01000000
,
10000000
01000000
10000000
01000000
10000000
01000000
10000000
01000000
10000000
01000000
10000000
01000000
10000000
01000000
10000000
01000000
,
00200000
00000000
00000000
00000000
,
00310000
00000000
00000000
00000000
,
00000000
00000000
00000000
00000000
00000000
00100000
00010000
00100000
,
00001000
00000100
00001000
00010000
00001000
00000000
00001000
00100000
,
00000000
00110000
00000000
10010000
00000000
10000000
01000000
00010000
,
00001000
00001000
00010000
00000100
00001000
00001000
00001000
00001000
,
00000000
00000010
00000100
00000001
00000000
00000010
00000010
00000010
,
00000010
00000001
00000100
00000010
00001000
00000000
00001000
00000100
,
00000000
00010100
00000000
00011000
00000000
00001000
00100000
00010000
,
00000000
00010000
10000000
01000000
00000000
10000000
01000000
00010000
,
00000000
00010000
01000000
10000000
00000000
10000000
00100000
01000000
,
00010000
00010000
00100000
00010000
00001000
00001000
00000100
00000010
,
00000010
00000001
00000100
00000001
00000001
00000000
00000010
00010000
,
00001000
00001000
00100000
00010000
10000000
10000000
00010000
01000000
,
01000000
00010000
00100000
00001000
00001000
00010000
00000100
00000010
,
00000001
00000001
00001000
00000100
00010000
00010000
00001000
00100000
,
00100000
00010000
10000000
01000000
01000000
10000000
00100000
01000000
,
00000000
01010000
00000000
00110000
00000000
00100000
00001000
00010000
,
00000000
00000000
00011000
00000000
00000000
00000000
00010010
00000000
00000000
00000000
00000010
00000000
00000100
00000000
00000001
00000100
,
00000000
00000001
00000100
00001000
00000000
00001000
00000100
00000001
,
00000000
00000000
00001001
00000000
00000000
00000000
00000110
00000000
00000000
00000000
00000010
00000000
00001000
00000000
00000100
00001000
,
00000000
00000000
00001000
00000100
00000000
00000000
00000100
00010000
00000000
00000000
00010000
00001000
00000000
00000000
00001000
00100000
,
00000000
00000000
00100000
00010000
00000000
00000000
00010000
10000000
00000000
00000000
10000000
00000000
00100000
00000000
00010000
00000000
,
00000000
00010000
00100000
10000000
00000000
10000000
01000000
00100000
,
00000000
00000000
00110000
00000000
00000000
00000000
00101000
00000000
00000000
00000000
00001000
00000000
00010000
00000000
00000100
00010000
,
00000000
00000000
00010000
00001000
00000000
00000000
00001000
00010000
00000000
00000000
00010000
00000010
00000000
00000000
00000010
00001000
,
00000000
00001001
00000000
00000110
00000000
00000010
00001000
00000100
,
00010100
00000000
00000000
00000000
;
