#VERSION:0.83;
#TITLE:悪魔城ドラキュラMEDLEY;
#SUBTITLE:;
#ARTIST:矩形波倶楽部;
#TITLETRANSLIT:AKUMAJO DRACULA MEDLEY;
#SUBTITLETRANSLIT:;
#ARTISTTRANSLIT:KUKEIHAKURABU;
#GENRE:;
#ORIGIN:;
#TAGS:;
#CREDIT:;
#BANNER:AKUMAJO DRACULA MEDLEY.png;
#BACKGROUND:AKUMAJO DRACULA MEDLEY-bg.png;
#PREVIEWVID:;
#JACKET:AKUMAJO DRACULA MEDLEY-jacket.png;
#CDIMAGE:;
#DISCIMAGE:;
#LYRICSPATH:;
#CDTITLE:Keyboardmania.png;
#MUSIC:AKUMAJO DRACULA MEDLEY.ogg;
#OFFSET:0.000000;
#SAMPLESTART:22.559999;
#SAMPLELENGTH:15.000000;
#SELECTABLE:YES;
#DISPLAYBPM:102.000000:248.000000;
#BPMS:0.000000=142.000000
,24.000000=132.000000
,25.000000=122.000000
,26.000000=112.000000
,27.000000=102.000000
,28.000000=220.000000
,156.000000=124.000000
,172.000000=248.000000
,268.000000=124.000000
;
#STOPS:27.750000=1.640000
;
#DELAYS:;
#WARPS:;
#TIMESIGNATURES:0.000000=4=4
;
#TICKCOUNTS:0.000000=4
;
#COMBOS:0.000000=1
;
#SPEEDS:0.000000=1.000000=0.000000=0
;
#SCROLLS:0.000000=1.000000
;
#LABELS:0.000000=Song Start
;
#BGCHANGES:20.000=bubble1.mp4=1.000=1=0=1===CrossFade==,
24.000=bubble1.mp4=0.800=0=0=1=====,
25.000=bubble1.mp4=0.600=0=0=1=====,
26.000=bubble1.mp4=0.400=0=0=1=====,
27.000=bubble1.mp4=0.200=0=0=1=====,
27.750=demon3.mp4=1.000=0=0=1=====,
28.000=taiqi1.mp4=1.000=1=0=1===CrossFade==,
44.000=taiqi3.mp4=1.000=1=0=1===CrossFade==,
56.000=mask1.mp4=1.400=0=0=1=====,
60.000=symbols2.mp4=1.000=0=0=1=====,
76.000=symbols3.mp4=1.000=0=0=1=====,
92.000=piston1.mp4=1.600=0=0=1=====,
108.000=piranha1.mp4=1.400=0=0=1=====,
124.000=symbols1.mp4=1.000=0=0=1=====,
140.000=mask1.mp4=1.000=0=1=1=StretchRewind====,
148.000=bubble1.mp4=1.000=0=1=1=StretchRewind====,
156.000=demon3.mp4=1.000=0=1=1=StretchRewind====,
164.000=demon4.mp4=1.000=0=0=1=====,
172.000=pills2.mp4=1.000=0=0=1=====,
188.000=piranha1.mp4=1.400=0=1=1=StretchRewind====,
204.000=pills1.mp4=1.000=0=0=1=====,
220.000=piston1.mp4=1.600=0=1=1=StretchRewind====,
236.000=amoeba4.mp4=1.200=0=0=1=====,
252.000=fire4.mp4=1.400=0=0=1=====,
268.000=bubble1.mp4=1.000=0=1=1=StretchRewind====,
275.000=AKUMAJO DRACULA MEDLEY-bg.png=1.000=0=0=1=====,
99999=-nosongbg-=1.000=0=0=0 // don't automatically add -songbackground-
;
#KEYSOUNDS:;
#ATTACKS:
;

//---------------dance-single - ----------------
#NOTEDATA:;
#CHARTNAME:BEGINNER;
#CHARTHASH:509994778;
#STEPSTYPE:dance-single;
#BANNER:;
#DESCRIPTION:;
#CHARTSTYLE:;
#DIFFICULTY:Beginner;
#METER:5;
#METERF:0.000000;
#LASTSECONDHINT:85.050560;
#RADARVALUES:0.170059,0.301932,0.140685,0.021644,0.000000,110.000000,97.000000,13.000000,2.000000,0.000000,0.000000,0.000000,0.000000,0.000000,0.170059,0.301932,0.140685,0.021644,0.000000,110.000000,97.000000,13.000000,2.000000,0.000000,0.000000,0.000000,0.000000,0.000000;
#CREDIT:YonabearCWY;
#DISPLAYBPM:102.000000:248.000000;
#NOTES:
0000
0000
0000
0000
,
0000
0000
0000
0000
,
0000
0000
0000
0000
,
0000
0000
0000
0000
,
0000
0000
0000
0000
,
1000
0000
0001
0000
,
1000
0001
0010
0100
,
1000
0000
0000
0000
,
0000
0000
0000
0000
,
1000
0000
0000
0000
,
0000
0000
0000
0000
,
0001
0000
0000
0000
,
0000
0000
0000
0000
,
0001
0000
0000
0000
,
1000
0000
1000
0000
,
1000
0000
0000
0000
,
1000
0000
0000
0000
,
1000
0000
0000
0000
,
1000
0000
1000
0000
,
0001
0000
0000
0000
,
0001
0000
0000
0000
,
0001
0000
0000
0000
,
0001
0000
0001
0000
,
0100
0000
0000
0000
,
0100
0000
0000
0000
,
0100
0000
0000
0000
,
0100
0000
0100
0000
,
0010
0000
0000
0000
,
0010
0000
0000
0000
,
0010
0000
0000
0000
,
0010
0000
0010
0000
,
1001
0000
0000
0000
,
0000
0000
0100
0000
,
1001
0000
0000
0000
,
0000
0000
0010
0000
,
1001
0000
0000
0000
,
0100
0000
0100
0000
,
1001
0000
0000
0000
,
0010
0000
0010
0000
,
1001
0000
0100
1000
,
0100
0000
1000
0001
,
1000
0000
0001
0010
,
0001
0000
0100
0010
,
0100
0000
0100
0000
,
0100
0000
0100
0000
,
0100
0000
0000
0000
,
0010
0000
0010
0000
,
1000
0000
1000
0000
,
1000
0000
1000
0000
,
1000
0000
0000
0000
,
1000
0000
1000
0000
,
0001
0000
0001
0000
,
0001
0000
0001
0000
,
0001
0000
0000
0000
,
0100
0000
0100
0000
,
0010
0000
0010
0000
,
0010
0000
0010
0000
,
0010
0000
0000
0000
,
1000
0000
1000
0000
,
1001
0000
0000
0000
,
1001
0000
0000
0000
,
1001
0000
0000
0000
,
0010
0000
0010
0000
,
0110
0000
0000
0000
,
0110
0000
0000
0000
,
0110
0000
0000
0000
,
0100
0000
0100
0000
,
1001
0000
0010
0000
,
0100
0000
0001
2002
,
0000
0000
0000
3003
;

//---------------dance-single - ----------------
#NOTEDATA:;
#CHARTNAME:BASIC;
#CHARTHASH:869936206;
#STEPSTYPE:dance-single;
#BANNER:;
#DESCRIPTION:;
#CHARTSTYLE:;
#DIFFICULTY:Easy;
#METER:7;
#METERF:7.000000;
#LASTSECONDHINT:85.050560;
#RADARVALUES:0.259726,0.377415,0.129863,0.162329,0.000000,168.000000,156.000000,12.000000,15.000000,0.000000,0.000000,0.000000,0.000000,0.000000,0.259726,0.377415,0.129863,0.162329,0.000000,168.000000,156.000000,12.000000,15.000000,0.000000,0.000000,0.000000,0.000000,0.000000;
#CREDIT:YonabearCWY;
#DISPLAYBPM:102.000000:248.000000;
#NOTES:
0000
0000
0000
0000
,
0000
0000
0000
0000
,
0000
0000
0000
0000
,
0000
0000
0000
0000
,
0000
0000
0000
0000
,
1001
0001
0100
0010
,
1000
0100
0010
0002
,
2003
0000
0000
3000
,
0010
1000
0010
0100
,
0002
0000
0000
0003
,
0010
0000
0000
0001
0000
0000
1000
0000
,
0200
0000
0000
0300
,
1000
0100
0010
0001
,
2000
0000
0000
3000
,
1001
0000
0110
0000
,
1001
0000
0001
0000
,
0100
0100
0010
0000
,
1010
0000
1000
0000
,
0001
0001
0100
0000
,
0110
0000
0100
0000
,
0010
0010
1000
0000
,
1001
0000
1000
0000
,
0001
0000
0100
0000
,
0110
0010
0010
0000
,
0010
0010
0010
0000
,
0110
0100
0100
0000
,
0100
0100
0100
0000
,
0010
0000
0010
0000
,
1000
0000
1000
0000
,
0100
0000
0100
0000
,
1000
0000
1000
0000
,
0002
0000
0000
0003
,
0200
0000
0000
0300
,
0020
0000
0000
0030
,
2000
0000
0000
3000
,
0100
0000
2200
0000
,
0000
0000
3300
0000
,
0100
0000
0202
0000
,
0000
0000
0303
0000
,
0001
1000
0010
0100
,
0001
1000
0010
0100
,
0001
1000
0100
0010
,
0001
1000
0001
0010
,
0100
1000
0100
0000
,
1000
0000
1000
0000
,
0001
0010
0001
0000
,
0010
0000
0010
0000
,
0001
1000
0001
0000
,
0100
0000
0100
0000
,
0010
1000
0010
0000
,
0100
0100
0100
0000
,
0001
1000
0001
0000
,
1000
0000
1000
0000
,
0010
0100
0001
0000
,
0010
0000
0010
0000
,
0001
1000
0100
0000
,
1000
0000
1000
0000
,
0001
1000
0010
0000
,
0100
0100
0100
0000
,
0010
0000
0000
0010
0000
0000
0000
0000
,
0100
0000
0000
0100
0000
0000
0000
0000
,
0010
0000
0000
0010
0000
0000
0000
0000
,
1000
0000
0001
0000
,
1000
0000
0000
1000
0000
0000
0000
0000
,
0001
0000
0000
0001
0000
0000
0000
0000
,
1000
0000
0000
1000
0000
0000
0000
0000
,
0001
0010
0100
1000
,
0001
1000
0010
0100
,
0001
1000
0001
2002
,
0000
0000
0000
3003
;

//---------------dance-single - ----------------
#NOTEDATA:;
#CHARTNAME:DIFFICULT;
#CHARTHASH:2505024503;
#STEPSTYPE:dance-single;
#BANNER:;
#DESCRIPTION:;
#CHARTSTYLE:;
#DIFFICULTY:Medium;
#METER:11;
#METERF:11.000000;
#LASTSECONDHINT:85.050560;
#RADARVALUES:0.426693,0.641605,0.411233,0.097397,0.000000,276.000000,238.000000,38.000000,9.000000,0.000000,0.000000,0.000000,0.000000,0.000000,0.426693,0.641605,0.411233,0.097397,0.000000,276.000000,238.000000,38.000000,9.000000,0.000000,0.000000,0.000000,0.000000,0.000000;
#CREDIT:YonabearCWY;
#DISPLAYBPM:102.000000:248.000000;
#NOTES:
0000
0000
0000
0000
,
0000
0000
0000
0000
,
0000
0000
0000
0000
,
0000
0000
0000
0000
,
0000
0000
0000
0000
,
1001
0000
0001
0000
0100
0000
0010
1000
,
0010
1100
1001
0210
,
0301
0100
0001
1000
,
0010
1000
0100
1000
,
0001
0100
0001
0010
,
0001
1000
0100
0010
,
1001
0010
1000
0100
,
1000
0010
0100
0001
,
1001
0100
0010
1000
,
0010
0000
0010
0000
0100
0000
0001
1000
,
0001
0000
0000
1000
0000
0000
0010
0000
,
1000
0100
1000
0001
,
0100
0001
0010
0001
,
1001
1001
0110
0000
,
1000
0000
0000
0001
0000
0000
0010
0000
,
0001
0100
0010
1000
,
0100
1000
0010
0100
,
0110
0110
1001
0000
,
0021
0001
0031
0000
,
0100
0001
1000
0100
,
0120
0100
0130
0000
,
0100
1000
0001
1000
,
1001
0000
0000
1001
0000
0000
0001
0000
,
0100
0010
1000
0100
,
0011
0000
0000
0011
0000
0000
0001
0000
,
0100
0010
1000
0100
,
0020
0000
0001
0000
,
0000
0000
0001
0000
,
0032
0000
1000
0000
,
0000
0000
1000
0000
,
1003
0010
2010
0000
,
0001
0000
0000
0100
0000
0000
3001
0000
,
0100
0001
2001
0000
,
3010
0000
0000
1001
0000
1001
0000
0000
,
0010
0001
0010
0000
0001
0100
0001
0000
,
1000
0010
1000
0000
0010
0100
0010
0001
,
0010
0100
0010
0000
1000
0100
1000
0000
,
0001
0100
0001
0000
1000
0001
1000
0010
,
0100
0000
0000
0001
0000
0000
1000
0000
,
0010
0100
0001
0010
,
1000
0000
0000
0010
0000
0000
0001
0000
,
0100
0010
1000
0100
,
0010
0000
0000
0100
0000
0000
1000
0000
,
0001
0100
0010
1000
,
0100
0000
0000
1100
0000
0000
1000
0000
,
0001
0010
0001
0100
,
0010
0000
1000
0010
0000
0000
0100
0000
,
0001
0010
0001
1000
,
0010
0000
0100
0010
0000
0000
0100
0000
,
0010
1000
0100
0010
,
0100
0000
1000
0001
0000
0000
0001
0000
,
0010
0001
1000
0001
,
0100
0000
0001
0010
0000
0000
0100
0000
,
1000
0100
1000
0001
,
0101
0000
0000
0101
0000
0000
0000
0000
,
1001
0000
0000
1001
0000
0000
0000
0000
,
0110
0000
0000
0110
0000
0000
0000
0000
,
0010
1010
0010
0110
,
0101
0000
0000
0101
0000
0000
0000
0000
,
1001
0000
0000
1001
0000
0000
0000
0000
,
1100
0000
0000
1100
0000
0000
0000
0000
,
1000
0000
0010
0000
0100
0010
0100
0000
,
0001
1000
0100
0010
0001
0100
0010
1000
,
0001
0100
0010
1000
0001
1000
2002
0000
,
0000
0000
0000
3003
;

//---------------dance-single - ----------------
#NOTEDATA:;
#CHARTNAME:EXPERT;
#CHARTHASH:4006151682;
#STEPSTYPE:dance-single;
#BANNER:;
#DESCRIPTION:;
#CHARTSTYLE:;
#DIFFICULTY:Hard;
#METER:13;
#METERF:13.000000;
#LASTSECONDHINT:85.050560;
#RADARVALUES:0.579746,0.868054,0.324658,0.162329,0.091986,375.000000,345.000000,30.000000,15.000000,0.000000,0.000000,0.000000,0.000000,0.000000,0.579746,0.868054,0.324658,0.162329,0.091986,375.000000,345.000000,30.000000,15.000000,0.000000,0.000000,0.000000,0.000000,0.000000;
#CREDIT:YonabearCWY;
#DISPLAYBPM:112.000000:248.000000;
#NOTES:
0000
0000
0000
0000
,
0000
0000
0000
0000
,
0000
0000
0000
0000
,
0000
0000
0000
0000
,
0000
0000
0000
0000
,
0102
0000
0000
0000
0000
0000
1003
0000
0001
0000
1000
0000
0001
0000
0000
0000
0000
0000
0010
0000
0000
0001
0000
0000
,
1001
1100
0110
0012
,
1003
0000
0100
0000
1000
0010
1000
0001
,
0100
0001
0010
0001
,
1000
0000
0100
0010
0001
0010
0100
0000
,
0101
0000
0000
1100
0000
1000
0001
0000
,
1000
0000
0001
0000
0010
0001
0010
1000
,
0010
0001
0100
0001
,
1000
0000
0001
1000
0100
1000
0001
0000
,
0001
0000
0010
0000
0001
0000
0000
0000
1000
0000
0001
0000
1000
0000
0001
1000
,
0010
0000
0100
0010
0000
0010
1000
0000
,
1000
0100
0010
0100
1000
0001
0100
0000
,
0001
0000
0010
0002
0000
0000
0013
0000
,
0101
0000
1001
0000
0100
0001
0000
0001
,
1000
0000
0100
0000
1000
0010
1000
0000
,
0001
0000
0100
0001
0000
0000
0010
0000
,
0001
1000
0001
2000
0000
0000
3100
0000
,
1100
0000
1001
0000
0001
0010
0000
0000
,
0001
0000
0100
0000
0010
0100
0000
0100
,
0001
0000
0001
1000
0000
1000
0100
0000
,
1000
0000
0010
0000
0100
0001
0000
0001
,
0010
0000
0010
0100
0000
0100
1000
0000
,
0001
0000
1000
0001
1000
0010
0000
0010
,
0100
0000
0100
0001
0000
0001
0010
0000
,
0100
0000
1000
0000
0010
1000
0000
0100
,
1000
0000
1001
0000
0100
0001
0100
0000
,
0120
0000
0000
1000
2030
0000
0000
0000
,
3002
0000
0000
0203
0000
0000
0301
0000
,
1002
0000
0000
0010
0023
0000
0000
0000
,
0230
0000
0000
1300
0100
0010
0001
0000
,
0001
0100
0001
0100
0002
0000
0003
0000
,
1001
0000
0000
1010
0000
0010
0100
0000
,
0010
1000
0010
1000
0020
0000
0030
0000
,
1001
0000
0000
0101
0000
1001
0000
0000
,
1000
0000
0010
0100
0010
0000
1000
0000
0010
0000
0100
0000
0001
0100
0001
0000
,
1000
0000
0001
1000
0001
0000
0100
0000
0010
0000
1000
0010
0100
1000
0100
0000
,
0001
0000
0010
0001
0010
0000
0001
0000
1000
0000
0100
1000
0100
0000
1000
0000
,
0010
0000
0100
0000
0001
0010
0001
0000
1000
0000
0001
1000
0100
0010
0100
0000
,
1000
0000
0001
0010
0000
0001
1000
0000
,
0100
0010
0100
1000
,
0001
0000
0010
0001
0000
1000
0000
0001
,
0100
0010
1000
0100
,
1000
0000
0001
1000
0000
0010
0100
0000
,
0010
1000
0100
0001
,
0100
0000
0000
1000
0000
0001
0100
0000
,
0001
0010
0001
0010
0001
1000
0001
0000
,
1000
0000
0010
0100
0000
0001
0010
0000
,
0100
1000
0100
0010
,
0100
0000
0000
1000
0000
0001
1000
0000
,
0100
1000
0100
1000
0010
1000
0010
0000
,
0100
0000
0001
1000
0000
0010
0100
0000
,
0010
0000
1000
0010
1000
0000
0010
0000
,
0100
0000
0001
0010
0001
1000
0100
0000
,
1000
0100
1000
0100
0010
0001
0010
0001
,
1001
0000
0000
1001
0000
0001
0100
0000
,
0110
0000
0000
0110
0000
0010
1000
0000
,
1100
0000
1000
0010
0000
0100
0001
0000
,
0010
0001
1000
0100
,
1100
0000
0000
1100
0000
1000
0010
0000
,
0101
0000
0000
0101
0000
0001
1000
0000
,
0110
0000
1000
0001
0000
0010
0100
0000
,
1000
0000
0100
0000
1000
0001
1000
0001
,
0010
0000
0001
1000
0001
0000
1000
0000
0100
1000
0100
0000
1000
0000
0010
0000
,
1000
0100
1000
0000
0010
0000
0100
0001
0100
0000
0001
0000
2002
0000
0000
0000
,
0000
0000
0000
3003
;

//---------------dance-single - ----------------
#NOTEDATA:;
#CHARTNAME:CHALLENGE;
#CHARTHASH:3298870983;
#STEPSTYPE:dance-single;
#BANNER:;
#DESCRIPTION:;
#CHARTSTYLE:;
#DIFFICULTY:Challenge;
#METER:15;
#METERF:15.000000;
#LASTSECONDHINT:85.050560;
#RADARVALUES:0.759081,1.320951,0.357124,0.162329,0.346302,491.000000,458.000000,33.000000,15.000000,0.000000,0.000000,0.000000,0.000000,0.000000,0.759081,1.320951,0.357124,0.162329,0.346302,491.000000,458.000000,33.000000,15.000000,0.000000,0.000000,0.000000,0.000000,0.000000;
#CREDIT:YonabearCWY & forcednature;
#DISPLAYBPM:102.000000:248.000000;
#NOTES:
// measure 0
0000
0000
0000
0000
,  // measure 1
0000
0000
0000
0000
,  // measure 2
0000
0000
0000
0000
,  // measure 3
0000
0000
0000
0000
,  // measure 4
0000
0000
0000
0000
,  // measure 5
1002
0000
0000
0000
0000
0000
0000
0000
0000
0000
0000
0000
1003
0000
0000
0000
0100
0000
0000
0000
0010
0000
0000
0000
0001
0000
0000
0000
0000
0000
0000
0000
0000
0001
0000
0000
0100
0000
0000
0000
0000
0000
0001
0000
0000
0000
0000
0000
,  // measure 6
0011
0000
0001
0000
0010
0000
0100
0000
1000
0000
0100
0000
0010
0000
0001
2000
,  // measure 7
3100
1000
0100
0000
1000
0100
1000
0000
,  // measure 8
0010
0100
0010
0001
0010
1000
0010
0100
,  // measure 9
0001
1000
0001
0000
1000
0001
1000
0000
,  // measure 10
0101
0000
0000
1001
0000
1000
0100
0010
,  // measure 11
0001
0010
0001
0000
1000
0100
1000
0000
,  // measure 12
0010
0100
0010
1000
0100
0001
0100
1000
,  // measure 13
0010
1000
0010
0000
0100
0001
0100
0000
,  // measure 14
0001
0000
0000
0000
1001
0000
0000
0000
1010
0000
0000
0000
0010
0100
0010
0100
,  // measure 15
0010
0000
1000
0010
0000
0010
0100
0000
,  // measure 16
0001
0000
0100
0001
0100
0000
0001
1000
,  // measure 17
0010
0000
1000
0010
0000
0010
0100
0000
,  // measure 18
0101
0000
1001
0000
1000
0010
0000
0010
,  // measure 19
0001
0000
0010
1000
0000
1000
0100
0000
,  // measure 20
1001
0000
1000
0100
1000
0100
0010
0000
,  // measure 21
0001
0000
0010
0001
0000
0001
1000
0100
,  // measure 22
0010
0000
1100
0000
1000
0001
0000
0000
,  // measure 23
0021
0000
1000
0000
0031
0010
0000
0001
,  // measure 24
1000
0000
0100
0010
0000
0100
1000
0000
,  // measure 25
2001
0000
0010
0000
3100
1000
0000
0001
,  // measure 26
0100
0000
1000
0100
0000
0100
0001
0000
,  // measure 27
0012
0000
1000
0000
0103
0001
0000
0001
,  // measure 28
1000
0000
1000
0010
0000
0010
0100
0000
,  // measure 29
1001
0000
0000
1010
0000
1000
0100
0000
,  // measure 30
0010
0001
0010
0001
0010
0000
0001
0000
1000
0000
0100
0000
0001
0000
0100
0000
,  // measure 31
1000
0100
1000
0100
0010
0001
0010
0001
,  // measure 32
1000
0010
0100
0001
0010
0100
1000
0100
,  // measure 33
0010
0100
1000
0010
1000
0010
0100
0001
,  // measure 34
0100
0001
1000
0001
1000
0001
0010
0001
,  // measure 35
0010
0001
1000
0020
0002
0000
0033
0000
,  // measure 36
0011
0000
0000
1010
0000
0000
1100
0000
,  // measure 37
0100
1000
0001
0200
2000
0000
3300
0000
,  // measure 38
0101
0000
0100
0110
0000
1001
0000
0000
,  // measure 39
1000
0100
1000
0100
0010
0001
0010
0001
1000
0100
1000
0100
0010
0001
0010
0001
,  // measure 40
1000
0001
0100
0010
1000
0100
0010
0001
1000
0001
0100
0010
1000
0100
0010
0001
,  // measure 41
1000
0100
1000
0100
0001
0100
0001
0100
1000
0100
1000
0100
0001
0100
0001
0100
,  // measure 42
1000
0010
1000
0010
0001
0010
0001
0010
1000
0010
1000
0010
0001
0010
0001
0010
,  // measure 43
1000
0000
0100
1000
0000
1000
0001
0000
,  // measure 44
0010
0001
0010
0000
0100
1000
0001
0000
,  // measure 45
0010
0000
0001
0100
0000
0100
0010
0000
,  // measure 46
1000
0100
0010
0001
0100
0010
1000
0000
,  // measure 47
0001
0000
0100
0001
0000
0001
1000
0000
,  // measure 48
0010
1000
0010
0000
0100
0001
0010
0000
,  // measure 49
0100
0000
1000
0100
0000
0100
0001
0000
,  // measure 50
0100
1000
0100
1000
0010
0100
0010
0100
,  // measure 51
0001
0000
1000
0100
0000
0100
0010
0000
,  // measure 52
0100
1000
0100
1000
0001
0010
0001
0000
,  // measure 53
1000
0000
0001
0010
0000
0010
0100
0000
,  // measure 54
1000
0100
1000
0000
0001
1000
0001
1000
,  // measure 55
0100
0000
1000
0001
0000
0001
0010
0000
,  // measure 56
0001
0100
0001
0000
0100
0010
0100
0000
,  // measure 57
0010
0000
1000
0100
0000
0100
0001
0000
,  // measure 58
0100
1000
0100
0001
0100
0010
0001
1000
,  // measure 59
1010
0000
0010
0110
0000
0100
1000
0100
,  // measure 60
0101
0000
0001
0011
0000
0010
0100
1000
,  // measure 61
1010
0000
0010
0110
0000
0100
0001
0010
,  // measure 62
0200
0000
0302
0000
2003
0000
3020
0030
,  // measure 63
0011
0000
0001
0101
0100
0010
1000
0100
,  // measure 64
1100
0000
0001
0011
0010
0100
1000
0010
,  // measure 65
0011
0000
0010
1010
1000
0100
0001
0100
,  // measure 66
0020
0000
2030
0000
3001
0100
0000
0100
,  // measure 67
1000
0010
1000
0100
0001
0100
1000
0010
0100
0001
0010
1000
0010
0001
0100
0010
,  // measure 68
1000
0000
0000
0100
0000
0000
0010
0000
0000
0001
0000
0000
0100
0000
0000
0010
0000
0000
1000
0001
1000
0001
1000
0001
,  // measure 69
1000
0001
1000
0001
1000
0001
1000
0001
1000
0001
1000
0001
1000
0001
1000
0001
1000
0001
1000
0000
0000
0000
0000
0000
;

//---------------dance-double - ----------------
#NOTEDATA:;
#CHARTNAME:BASIC;
#CHARTHASH:2243707827;
#STEPSTYPE:dance-double;
#BANNER:;
#DESCRIPTION:;
#CHARTSTYLE:;
#DIFFICULTY:Easy;
#METER:7;
#METERF:7.000000;
#LASTSECONDHINT:85.050560;
#RADARVALUES:0.262818,0.377415,0.054110,0.075753,0.000000,170.000000,165.000000,5.000000,7.000000,0.000000,0.000000,0.000000,0.000000,0.000000,0.262818,0.377415,0.054110,0.075753,0.000000,170.000000,165.000000,5.000000,7.000000,0.000000,0.000000,0.000000,0.000000,0.000000;
#CREDIT:YonabearCWY;
#DISPLAYBPM:102.000000:248.000000;
#NOTES:
00000000
00000000
00000000
00000000
,
00000000
00000000
00000000
00000000
,
00000000
00000000
00000000
00000000
,
00000000
00000000
00000000
00000000
,
00000000
00000000
00000000
00000000
,
10000000
00000000
10000000
00000000
,
00010000
00100000
00001000
00020000
,
00030010
00000000
00000010
00000000
,
00010000
00000000
00010000
00000000
,
00000100
00000000
00000100
00000000
,
00001000
00000100
00000010
00000001
,
00001000
00000000
00001000
00000000
,
00000100
00000000
00000100
00000000
,
00010000
00000000
00010000
00000000
,
00001000
01000000
00100000
10000000
,
01000000
00000000
01000000
00000000
,
01000000
00000000
10000000
01000000
,
00100000
00000000
00100000
00000000
,
00100000
00100000
00010000
00000000
,
00100000
00000000
00100000
00000000
,
00100000
00000000
00001000
00010000
,
00000010
00000000
00000010
00000000
,
00000010
00000010
00001000
00000000
,
00001000
00000000
00000100
00000000
,
00010000
00001000
00010000
00000000
,
00001000
00000000
01000000
00000000
,
00100000
01000000
00100000
00000000
,
10000000
00000000
00010000
00000000
,
10000000
00010000
01000000
00000000
,
00010000
00000000
00100000
00000000
,
00001000
00010000
00000010
00000000
,
00000200
00000000
00000301
00000000
,
00000000
00000000
00000011
00000000
,
00002000
00000000
00003100
00000000
,
00000000
00000000
00010100
00000000
,
00010000
00001000
00020000
00000000
,
00000000
00030000
00000000
00000000
,
00010000
01000000
00020000
00000000
,
00000000
00000000
00030000
00000000
,
10000000
00100000
10000000
00100000
,
01000000
00010000
01000000
00010000
,
00001000
00010000
00001000
00010000
,
00100000
00010000
00100000
00001000
,
00010000
00001000
00010000
00000000
,
00000010
00010000
00000010
00000000
,
00000100
00000000
00000100
00000000
,
00000001
00000000
00000001
00000000
,
00001000
00000001
00001000
00000000
,
00000010
00001000
00000010
00000000
,
00001000
00000000
00001000
00000000
,
00000100
00000000
00000100
00000000
,
00010000
00001000
00010000
00000000
,
00001000
00010000
00001000
00000000
,
00010000
00000000
00010000
00000000
,
00001000
01000000
00100000
10000000
,
01000000
10000000
01000000
00000000
,
10000000
00100000
10000000
00000000
,
00100000
00000000
00100000
00000000
,
01000000
00100000
01000000
00010000
,
00100000
00000000
00000000
00100000
00000000
00000000
00000000
00000000
,
00001000
00000000
00000000
00001000
00000000
00000000
00000000
00000000
,
00100000
00000000
00000000
00100000
00000000
00000000
00000000
00000000
,
00001000
00010000
00000010
00000100
,
00000001
00000000
00000000
00000001
00000000
00000000
00000000
00000000
,
00000100
00000000
00000000
00000100
00000000
00000000
00000000
00000000
,
00000001
00000000
00000000
00000001
00000000
00000000
00000000
00000000
,
00001000
00000100
00010100
00000000
,
00011000
00001000
01000000
00100000
,
10000000
00010000
01000000
02002000
,
00000000
00000000
00000000
03003000
;

//---------------dance-double - ----------------
#NOTEDATA:;
#CHARTNAME:DIFFICULT;
#CHARTHASH:3291394605;
#STEPSTYPE:dance-double;
#BANNER:;
#DESCRIPTION:;
#CHARTSTYLE:;
#DIFFICULTY:Medium;
#METER:11;
#METERF:11.000000;
#LASTSECONDHINT:85.050560;
#RADARVALUES:0.417417,0.717088,0.270548,0.151507,0.000000,270.000000,245.000000,25.000000,14.000000,0.000000,0.000000,0.000000,0.000000,0.000000,0.417417,0.717088,0.270548,0.151507,0.000000,270.000000,245.000000,25.000000,14.000000,0.000000,0.000000,0.000000,0.000000,0.000000;
#CREDIT:YonabearCWY;
#DISPLAYBPM:102.000000:248.000000;
#NOTES:
00000000
00000000
00000000
00000000
,
00000000
00000000
00000000
00000000
,
00000000
00000000
00000000
00000000
,
00000000
00000000
00000000
00000000
,
00000000
00000000
00000000
00000000
,
10010000
00000000
00010000
00000000
01010000
00000000
01000000
00010000
,
00001000
00000010
00000100
00000102
,
00001003
00000100
00010000
00001000
,
00010000
00001000
01000000
00100000
,
01000000
00000000
00100000
10000000
,
10100000
00000000
00000000
10010000
00000000
00000000
01010000
00000000
,
00010000
00100000
00001000
00010000
,
00000010
00000100
00000010
00000100
,
00000001
00001000
00000100
00010000
,
00000100
00000000
00001000
00000000
00000100
00000000
00010000
00001000
,
00010000
00000000
00000000
00001000
00000000
00000000
01000000
00000000
,
00100000
10000000
01000000
00100000
,
00010000
00000000
00000000
00100000
00000000
00000000
00001000
00000000
,
00011000
00000000
00011000
00000000
00010000
00000010
00000000
00000000
,
00000010
00000000
00000000
00000100
00000000
00000000
00000001
00000000
,
00000010
00000001
00001000
00000100
,
00010000
00000000
00000000
00001000
00000000
00001000
01000000
00000000
,
01100000
00000000
01100000
00000000
00100000
10000000
00000000
00000000
,
01000000
10000000
01000000
00100000
,
01000000
10000000
10020000
00000000
,
00130000
00010000
00100000
00001000
,
00010000
00001000
00021000
00000000
,
00030010
00001000
00000001
00000100
,
00000001
00000000
00000010
00000000
00000001
00001000
00000001
00000000
,
00000100
00000000
00000010
00000000
00001000
00000100
00001000
00000000
,
00010100
00020100
00000000
00000000
,
00032000
00000000
02003000
00000000
,
00000000
00000000
03200000
00000000
,
20300000
00000000
32000000
00000000
,
00000000
00000000
23000000
00000000
,
30010000
01000000
00010000
01000000
00020000
00000000
00000000
00000000
,
00000000
00000000
00030000
00000000
,
00010000
00000010
00010000
00000010
00020000
00000000
00000000
00000000
,
00000000
00000000
00030000
00000000
,
00011000
00001000
00100000
00010000
10000000
01000000
00100000
00010000
,
00100000
01000000
00100000
00001000
00010000
00001000
00000100
00001000
,
00010000
00000010
00010000
00000100
00001000
00000010
00000100
00000001
,
00000010
00000100
00001000
00000100
00010000
00001000
01000000
01100000
,
10010000
10000000
00100000
00000000
,
00100000
10000000
00100000
00000000
,
01000000
01000000
00010000
00010000
,
00100000
00001000
00010000
00000000
,
00010000
00001000
00010000
00000000
,
00000010
00010000
00000010
00000000
,
00000100
00000100
00000001
00000001
,
00001000
00000100
00010000
00001000
,
00100000
00010000
00100000
00000000
,
00010000
00100000
00010000
00000000
,
10000000
10000000
00010000
00010000
,
01000000
01000000
00010000
00100000
,
00001000
00010000
00001000
00000000
,
00010000
00001000
00010000
00000000
,
00000010
00000010
00000100
00000100
,
00000001
00000000
00001000
00000000
00000100
00001000
00000100
00001000
,
00000100
00000000
00000000
00010100
00000000
00000000
00000000
00000000
,
00010000
00000000
00000000
00011000
00000000
00000000
00000000
00000000
,
00001000
00000000
00000000
01001000
00000000
00000000
00000000
00000000
,
00100000
00010000
10000000
01000000
,
10100000
00000000
00000000
00100000
00000000
01000000
00010000
00000000
,
00110000
00000000
00000000
00001000
00000000
00100000
00001000
00000000
,
00011000
00000000
00000000
00000010
00000000
00001000
00000100
00000000
,
00001000
00000000
00000001
00000000
00001000
00000001
00000000
00000000
,
00000011
00000001
00001000
00000100
00010000
00001000
00010000
01000000
,
10000000
01000000
00100000
01000000
10000000
00010000
20020000
00000000
,
00000000
00000000
00000000
30030000
;

//---------------dance-double - ----------------
#NOTEDATA:;
#CHARTNAME:EXPERT;
#CHARTHASH:409472282;
#STEPSTYPE:dance-double;
#BANNER:;
#DESCRIPTION:;
#CHARTSTYLE:;
#DIFFICULTY:Hard;
#METER:13;
#METERF:13.000000;
#LASTSECONDHINT:85.050560;
#RADARVALUES:0.559648,0.905795,0.292192,0.162329,0.081164,362.000000,335.000000,27.000000,15.000000,0.000000,0.000000,0.000000,0.000000,0.000000,0.559648,0.905795,0.292192,0.162329,0.081164,362.000000,335.000000,27.000000,15.000000,0.000000,0.000000,0.000000,0.000000,0.000000;
#CREDIT:YonabearCWY;
#DISPLAYBPM:102.000000:248.000000;
#NOTES:
00000000
00000000
00000000
00000000
,
00000000
00000000
00000000
00000000
,
00000000
00000000
00000000
00000000
,
00000000
00000000
00000000
00000000
,
00000000
00000000
00000000
00000000
,
10010000
00000000
00000000
00000000
00000000
00000000
00000000
00000000
00000000
00000000
00000000
00000000
00010000
00000000
00000000
00000000
00100000
00000000
00000000
00000000
00010000
00000000
00000000
00000000
00100000
00000000
00000000
00000000
00000000
00000000
00000000
00000000
00000000
00100000
00000000
00000000
00001000
00000000
00000000
00000000
00000000
00000000
00010000
00000000
00000000
00000000
00000000
00000000
,
00010010
00000110
00000101
00002001
,
00003100
00000000
00001000
00000000
00000100
00010000
00000100
00000000
,
00010000
00001000
00000000
00001000
01000000
00000000
01000000
00100000
,
01000000
00000000
00100000
00000000
10000000
01000000
10000000
00000000
,
00100000
00000000
10000000
00100000
00000000
00100000
01000000
00010000
,
00100000
00000000
00001000
00100000
00001000
00100000
00001000
00000000
,
00010000
00000100
00001000
00000010
,
00000100
00000000
00000001
00001000
00000001
00001000
00000001
00000000
,
00000100
00000100
00000010
00001010
,
00001000
00000000
00000100
00010000
00000000
00001000
00010000
00000000
,
00001000
00000000
01000000
00000000
00100000
10000000
00100000
00000000
,
10000000
00000000
00010000
10000000
00000000
01000000
00100000
00000000
,
11000000
00000000
10010000
00000000
00010000
00100000
00000000
00000000
,
00100000
00000000
00001000
00010000
00000000
00000010
00010000
00000000
,
00001000
00000000
00010000
00000000
00000100
00001000
00000100
00000000
,
00001000
00000000
00000001
00000010
00000000
00000001
00001000
00000000
,
00001100
00000000
00010100
00000000
00010000
00001000
00000000
00000000
,
00001000
00000000
01000000
00100000
10000000
01000000
00000000
01000000
,
10000000
00000000
10000000
00010000
00000000
00000000
00100000
00000000
,
00001000
00000000
00001000
00010000
00000010
00000100
00000000
00000001
,
00000100
00000000
00000010
00001000
00000000
00000000
00000100
00000000
,
00010000
00000000
00001000
00010000
00001000
00100000
00010000
00000000
,
00100000
00000000
00010000
10000000
00010000
00000000
10000000
00000000
,
01000000
00000000
10000000
01000000
00100000
01000000
10000000
00000000
,
00010000
00010000
00100000
00001000
,
00021000
00000000
00030200
00000000
,
00010000
00000000
00000000
00001000
00001300
00000000
00000100
00000000
,
00001002
00000000
00000023
00000000
,
00000230
00000000
00000000
00000001
00000301
00000100
00001000
00000000
,
00000100
00010000
00000100
00010000
00000200
00000000
00000000
00000000
,
00010300
00000000
00000000
00011000
00000000
00000000
01001000
00000000
,
01000000
00100000
01000000
00100000
02000000
00000000
00000000
00000000
,
03010000
00000000
00000000
10010000
00000000
10010000
00000000
00000000
,
10000000
00000000
00100000
00000000
01000000
00001000
01000000
00000000
00010000
00000000
00001000
00010000
00001000
00000000
00010000
00000000
,
00000010
00000100
00000010
00000000
00001000
00000000
00000100
00000000
00000010
00000000
00000001
00000010
00000001
00000010
00000001
00000000
,
00000100
00000000
00000001
00000000
00001000
00000010
00001000
00000000
00000100
00000000
00010000
00001000
00010000
00000000
00001000
00000000
,
01000000
00000000
00100000
10000000
00100000
10000000
00100000
00000000
10000000
00000000
00010000
10000000
01000000
10000000
01000000
00100000
,
00010000
00000000
00100000
00001000
00000000
00001000
00010000
00000000
,
00001000
00010000
00000010
00000100
,
00000001
00000000
00000100
00000001
00000000
00000001
00001000
00000000
,
00000100
00001000
00000100
00010000
00001000
00010000
00001000
00000000
,
00010000
00000000
00001000
01000000
00000000
01000000
00100000
00000000
,
10000000
01000000
00100000
00010000
,
00100000
00001000
00010000
00000010
,
00000100
00000100
00000001
00000001
,
00001001
00000000
00001000
00000010
00000000
00000010
00010000
00000000
,
00001000
00000000
00100000
00000000
00010000
10000000
00010000
00000000
,
10000000
01000000
00010000
01000000
,
10000000
00000000
00100000
00000000
01000000
00010000
01000000
00000000
,
00110000
00000000
00010000
00100000
00000000
00100000
00001000
00000000
,
00010000
00000000
00000010
00000000
00000100
00000010
00000100
00000000
,
00000001
00000000
00001000
00000100
00001000
00000100
00010000
00000000
,
00011000
00000000
00011000
00000000
00001000
01000000
00100000
01000000
,
02100000
00000000
00000000
03010000
00000000
00010000
10000000
00000000
,
12000000
00000000
00000000
13000000
00000000
10000000
00010000
00000000
,
00210000
00000000
00000000
00301000
00000000
00001000
00100000
00000000
,
00001000
00010000
00000010
00000100
,
00000201
00000000
00000000
00001000
00000000
00000301
00000100
00000000
,
00002010
00000000
00000000
00010000
00000000
00003010
00001000
00000000
,
00001100
00000000
00000100
00010000
00000000
00010000
00001000
00000000
,
00001000
01000000
00100000
01000000
00100000
10000000
00000000
00000000
,
10000000
10000000
00100000
01000000
00010000
00010000
00100000
00001000
,
00001000
00010000
00001000
00010000
00010000
00000010
00000220
00000000
,
00000000
00000000
00000000
00000330
;

//---------------dance-double - ----------------
#NOTEDATA:;
#CHARTNAME:CHALLENGE;
#CHARTHASH:1248237243;
#STEPSTYPE:dance-double;
#BANNER:;
#DESCRIPTION:;
#CHARTSTYLE:;
#DIFFICULTY:Challenge;
#METER:16;
#METERF:16.000000;
#LASTSECONDHINT:85.050560;
#RADARVALUES:0.791547,1.547400,0.465343,0.064932,0.378767,512.000000,469.000000,43.000000,6.000000,0.000000,0.000000,0.000000,0.000000,0.000000,0.791547,1.547400,0.465343,0.064932,0.378767,512.000000,469.000000,43.000000,6.000000,0.000000,0.000000,0.000000,0.000000,0.000000;
#CREDIT:YonabearCWY;
#DISPLAYBPM:102.000000:248.000000;
#NOTES:
00000000
00000000
00000000
00000000
,
00000000
00000000
00000000
00000000
,
00000000
00000000
00000000
00000000
,
00000000
00000000
00000000
00000000
,
00000000
00000000
00000000
00000000
,
10100000
00000000
00000000
00000000
00000000
00000000
00000000
00000000
00000000
00000000
00000000
00000000
00100000
00000000
00000000
00000000
01000000
00000000
00000000
00000000
00100000
00000000
00000000
00000000
01000000
00000000
00000000
00000000
00000000
00000000
00000000
00000000
00000000
01000000
00000000
00000000
00010000
00000000
00000000
00000000
00000000
00000000
00000100
00000000
00000000
00000000
00000000
00000000
,
00000010
00000000
00001000
00000000
00000001
00000000
00000100
00000000
00000010
00000000
00020000
00000000
00002000
00000000
00000000
00030000
,
00013000
00000000
00001000
01000000
00001000
01000000
00100000
01000000
,
00100000
10000000
01000000
10000000
01000000
00010000
01000000
00010000
,
01000000
00000000
10000000
01000000
00100000
00010000
00000100
00000010
,
00001010
00000000
00000000
00001100
00000000
00001000
00000001
00000010
,
00000110
00000100
00001000
00000100
00010000
00001000
00010000
00001000
,
01000000
00100000
10000000
01000000
00100000
01000000
10000000
00010000
,
00110000
00000000
00010000
10000000
01000000
00100000
01000000
00000000
,
10010000
00000000
00000000
00000000
00110000
00000000
00000000
00000000
00101000
00000000
00000000
00000000
00001000
00010000
00001000
00010000
,
00001000
00000000
00010000
00000100
00000000
00001000
00000010
00000000
,
00000100
00000001
00000100
00000010
00001000
00000100
00010000
00000000
,
00001000
00000000
00001000
01000000
00000000
00100000
00010000
00000000
,
10100000
00000000
01010000
00000000
10000000
00100000
00000000
01000000
,
00001000
00000000
00001000
00010000
00001000
00000000
00010000
00000000
,
00000010
00000100
00000010
00001000
00000100
00001000
00000001
00000000
,
00000100
00000001
00000100
00000001
00001000
00000100
00001000
00000100
,
00010100
00000000
00011000
00000000
00001000
01000000
00000000
00000000
,
01100000
00000000
00100000
00000000
10000000
01000000
00000000
01000000
,
00010000
00000000
01000000
10000000
00000000
00010000
01000000
00000000
,
01010000
00000000
00010000
00000000
00100000
00001000
00000000
00001000
,
00010000
00000000
00001000
00000100
00000000
00001000
00010000
00000000
,
00011000
00000000
00001000
00000000
00010000
00000010
00000000
00000010
,
00000100
00000000
00000001
00000100
00000000
00000100
00000010
00000000
,
00001010
00000000
00001000
00000100
00010000
00000100
00001000
00000000
,
00000100
00010000
00000100
00010000
00000100
00000000
00010000
00000000
00001000
00000000
01000000
00000000
10000000
00000000
01000000
00000000
,
00100000
01000000
00100000
01000000
00010000
01000000
00010000
10000000
,
00100000
10000000
00100000
01000000
00010000
01000000
00010000
00100000
,
00010000
00001000
00000010
00000001
00000010
00001000
00000100
00001000
,
00000010
00000100
00000001
00001000
00000100
00010000
01000000
10000000
,
01000000
00100000
01000000
20000000
02000000
00000000
30000000
00000000
,
13000000
00000000
00000000
10100000
00000000
00000000
10010000
00000000
,
00010000
00100000
00010000
00200000
00002000
00000000
00300000
00000000
,
00010000
00000000
00013000
00010100
00000000
00001100
00000000
00000000
,
00001000
00000010
00001000
00000010
00000100
00000010
00000100
00000001
00000100
00000001
00001000
00000100
00001000
00000100
00010000
00001000
,
00010000
00001000
01000000
00010000
01000000
00010000
10000000
00010000
10000000
00010000
00100000
00010000
00100000
00010000
10000000
01000000
,
00100000
01000000
10000000
00100000
01000000
00100000
10000000
00010000
01000000
00010000
10000000
00100000
01000000
00010000
00000100
00001000
,
00000100
00001000
00000100
00000001
00000100
00000001
00000100
00000010
00000100
00000010
00001000
00000100
00010000
01000000
00100000
00010000
,
10010000
00000000
00010000
00100000
00000000
00100000
00001000
00000000
,
00010000
00001000
00010000
00000000
00001000
00010000
00001000
00000000
,
00010010
00000000
00000010
00000100
00000000
00000100
00000001
00000000
,
00000001
00000010
00000100
00001000
00000100
00000010
00000100
00000000
,
00001100
00000000
00000100
00010000
00000000
00010000
00001000
00000000
,
00001000
01000000
00100000
10000000
01000000
00100000
01000000
00000000
,
11000000
00000000
10000000
00010000
00000000
00100000
00010000
00000000
,
00100000
00001000
00100000
00000000
00001000
00100000
00001000
00000000
,
00011000
00000000
00010000
00000010
00000000
00000010
00001010
00000000
,
00001000
00000100
00001000
00000000
00000100
00010000
00000100
00000000
,
00011000
00000000
00001000
01000000
00000000
00100000
10000000
01000000
,
00100000
01000000
10000000
00000000
10000000
00010000
00110000
00000000
,
00101000
00000000
00001000
00010000
00000000
00010000
00010010
00000000
,
00000010
00000100
00000010
00000000
00000100
00000001
00000100
00000000
,
00000001
00001000
00000100
00001000
00000100
00010000
00001000
00000000
,
00010000
00001000
00010000
00001000
01000000
00100000
01000000
00100000
,
10100000
00000000
00000000
10010000
00000000
00010000
00100000
01000000
,
11000000
00000000
00000000
10010000
00000000
00010000
01000000
00001000
,
00101000
00000000
00000000
00011000
00000000
00010000
00000010
00000100
,
00000101
00000001
00001000
00000100
00001000
00000010
00000100
00000010
,
00001010
00000000
00001000
00001100
00000000
00000100
00010000
00000000
,
00011000
00000000
00001000
01001000
00000000
01000000
00100000
00000000
,
10100000
00000000
10000000
10010000
00000000
00010000
01000000
00100000
,
10000000
00000000
01000000
10000000
01000000
00100000
00000000
01000000
,
10000000
01000000
00100000
00010000
00100000
01000000
00010000
00001000
00010000
00000010
00000100
00000001
00000100
00000010
00001000
00000100
,
00000010
00000000
00000000
00000100
00000000
00000000
00001000
00000000
00000000
00000001
00000000
00000000
00001000
00000000
00000000
00000100
00000000
00000000
00010000
00000000
00000000
00001000
00000000
00000000
00010000
00000000
00000000
00000100
00000000
00000000
00010000
00000000
00000000
00001000
00000000
00000000
00010000
00000000
00001000
00000000
00010000
00000000
00001000
00000000
00010000
00000000
00001000
00000000
,
00010000
00001000
00010000
00001000
00010000
00001000
00010000
00001000
00010000
00001000
00010000
00001000
00010000
00001000
00010000
00001000
00010000
00001000
00010000
00000000
00000000
00000000
00000000
00000000
;
