#TITLE:AKATSUKI;
#SUBTITLE:;
#ARTIST:L.E.D. vs GUHROOVY;
#TITLETRANSLIT:;
#SUBTITLETRANSLIT:;
#ARTISTTRANSLIT:;
#GENRE:FUNKY KOTA;
#CREDIT:YonabearCWY;
#BANNER:AKATSUKI.png;
#BACKGROUND:AKATSUKI-bg.png;
#LYRICSPATH:;
#CDTITLE:pop'n music.png;
#MUSIC:AKATSUKI.ogg;
#OFFSET:-0.140000;
#SAMPLESTART:71.918770;
#SAMPLELENGTH:15.000000;
#SELECTABLE:YES;
#BPMS:0.000000=187.220001
,136.000000=93.610001
,140.000000=187.220001
,148.000000=93.610001
,164.000000=187.220001
;
#STOPS:196.000000=0.965000
;
#BGCHANGES:8.000=circle4.mp4=1.000=1=0=1===CrossFade==,
24.000=circle10.mp4=1.000=0=0=1=====,
32.000=text12.mp4=1.400=0=0=1=====,
40.000=fire4.mp4=1.600=0=0=1=====,
56.000=bluey1.mp4=1.400=0=0=1=====,
68.000=circle1.mp4=1.000=0=0=1=====,
72.000=wave2.mp4=1.000=0=0=1=====,
88.000=ribbon1.mp4=1.400=0=0=1=====,
104.000=ring13.mp4=1.000=0=0=1=====,
120.000=text14.mp4=1.400=0=0=1=====,
136.000=bubble1.mp4=0.500=0=0=1=====,
140.000=bubble1.mp4=1.000=0=0=1=====,
144.000=bubble1.mp4=2.000=0=0=1=====,
148.000=sakura1.mp4=1.000=0=0=1=====,
164.000=ring13.mp4=1.000=0=1=1=StretchRewind====,
180.000=bluey1.mp4=1.400=0=1=1=StretchRewind====,
196.000=circle1.mp4=1.000=0=0=1=====,
201.000=ribbon1.mp4=1.400=0=1=1=StretchRewind====,
217.000=wave2.mp4=1.000=0=1=1=StretchRewind====,
233.000=fire4.mp4=1.600=0=1=1=StretchRewind====,
249.000=text12.mp4=1.400=0=1=1=StretchRewind====,
265.000=sakura1.mp4=1.000=0=1=1=StretchRewind====,
281.000=circle4.mp4=1.000=0=1=1=StretchRewind====,
297.000=circle10.mp4=1.000=0=1=1=StretchRewind====,
305.000=AKATSUKI-bg.png=1.000=0=0=1=====,
99999.000=-nosongbg-=1.000=0=0=0=StretchNoLoop====,
99999=-nosongbg-=1.000=0=0=0 // don't automatically add -songbackground-
;
#KEYSOUNDS:;
#ATTACKS:;

//---------------dance-single - ----------------
#NOTES:
     dance-single:
     BEGINNER:
     Beginner:
     4:
     0.173959,0.285055,0.046125,0.036900,0.000000,132.000000,127.000000,5.000000,4.000000,0.000000,0.000000,0.173959,0.285055,0.046125,0.036900,0.000000,132.000000,127.000000,5.000000,4.000000,0.000000,0.000000:
// measure 0
0000
0000
0000
0000
,  // measure 1
0000
0000
0000
0000
,  // measure 2
1000
0000
0000
0000
,  // measure 3
1000
0000
0000
0000
,  // measure 4
1000
0000
0000
0000
,  // measure 5
0001
0001
0001
0000
,  // measure 6
1000
0000
0000
0000
,  // measure 7
1000
0000
0000
0000
,  // measure 8
1000
0000
0000
0000
,  // measure 9
0001
0001
0001
0000
,  // measure 10
1000
0000
0001
0000
,  // measure 11
1000
0000
0000
0000
,  // measure 12
0010
0000
0100
0000
,  // measure 13
0010
0000
0000
0000
,  // measure 14
1000
0000
0100
0000
,  // measure 15
1000
0000
0000
0000
,  // measure 16
0001
0000
0010
0000
,  // measure 17
0001
0000
0000
0000
,  // measure 18
0000
0100
0000
0100
,  // measure 19
0000
0100
0000
0100
,  // measure 20
0000
0010
0000
0010
,  // measure 21
0000
0010
0000
0010
,  // measure 22
0000
1000
0000
1000
,  // measure 23
0000
1000
0000
1000
,  // measure 24
0000
0001
0000
0001
,  // measure 25
0000
0001
0000
0001
,  // measure 26
1000
0000
0000
0000
,  // measure 27
1000
1000
1000
0000
,  // measure 28
0001
0000
0000
0000
,  // measure 29
0001
0001
0001
0000
,  // measure 30
1000
0000
0000
0000
,  // measure 31
1000
1000
1000
0000
,  // measure 32
0001
0000
0000
0000
,  // measure 33
0001
0001
0001
0000
,  // measure 34
2002
0000
0000
0000
,  // measure 35
3003
0000
0000
0000
,  // measure 36
0000
0000
0000
0000
,  // measure 37
0010
0010
0010
0000
,  // measure 38
0100
0100
0100
0000
,  // measure 39
0010
0010
0010
0000
,  // measure 40
0100
0100
0100
0000
,  // measure 41
1001
0000
0000
0000
,  // measure 42
0100
0000
0000
0000
,  // measure 43
0010
0010
0010
0010
,  // measure 44
0010
0000
0000
0000
,  // measure 45
1001
0000
0000
0000
,  // measure 46
0010
0000
0000
0000
,  // measure 47
0100
0100
0100
0100
,  // measure 48
0100
0000
0000
0000
,  // measure 49
1001
0000
0000
0000
,  // measure 50
0000
1000
0000
1000
,  // measure 51
0000
1000
0000
0000
,  // measure 52
0000
0010
0000
0010
,  // measure 53
0000
0010
0000
0000
,  // measure 54
0000
0100
0000
0100
,  // measure 55
0000
0100
0000
0000
,  // measure 56
0000
0001
0000
0001
,  // measure 57
0000
0001
0000
0000
,  // measure 58
0000
1000
0000
1000
,  // measure 59
0000
1000
0000
0000
,  // measure 60
0000
0100
0000
0100
,  // measure 61
0000
0100
0000
0000
,  // measure 62
0000
0010
0000
0010
,  // measure 63
0000
0010
0000
0000
,  // measure 64
0000
0001
0000
0001
,  // measure 65
0000
0001
0000
0000
,  // measure 66
0000
0000
1000
0000
,  // measure 67
1000
0000
1000
0000
,  // measure 68
0000
0000
0001
0000
,  // measure 69
0001
0000
0001
0000
,  // measure 70
0000
0000
1000
0000
,  // measure 71
1000
0000
1000
0000
,  // measure 72
0000
0000
0010
0000
,  // measure 73
0010
0000
0010
0000
,  // measure 74
0000
0100
0000
0010
,  // measure 75
0000
0100
0100
0100
,  // measure 76
0100
2002
0000
0000
,  // measure 77
0000
3003
0000
0000
;

//---------------dance-single - ----------------
#NOTES:
     dance-single:
     BASIC:
     Easy:
     8:
     0.421719,0.498847,0.516605,0.064576,0.000000,320.000000,264.000000,56.000000,7.000000,0.000000,0.000000,0.421719,0.498847,0.516605,0.064576,0.000000,320.000000,264.000000,56.000000,7.000000,0.000000,0.000000:
0000
0000
0000
0000
,
0000
0000
0000
0000
,
1000
1000
1000
0000
,
1000
1000
1000
0000
,
0001
0001
0001
0000
,
0001
0001
0001
0000
,
0100
0100
0100
0000
,
0100
0100
0100
0000
,
0010
0010
0010
0000
,
0010
0010
0010
0000
,
1000
0000
0001
0010
,
1000
0000
1000
0010
,
0001
0000
0100
0010
,
0100
0000
0010
0100
,
0010
0000
1000
0100
,
0001
0000
0001
0100
,
1000
0000
0001
1000
,
0001
0001
1000
1001
,
0110
1010
0010
0011
,
0010
0110
0100
0010
,
0100
0101
0100
1100
,
0100
0110
0010
1000
,
0001
1001
1000
1001
,
0001
0011
0001
1000
,
0100
1100
1000
1010
,
0010
0110
0100
0001
,
1000
1000
0100
0100
,
0010
0011
0001
1001
,
1000
1000
0001
0001
,
0100
0110
0010
1010
,
1000
1000
0100
0100
,
0010
0011
0001
1001
,
0100
0100
0010
0010
,
1000
0101
0001
1010
,
2002
0000
0000
3003
,
2000
0000
0000
0000
,
3002
0000
0000
0000
,
1003
0000
0001
0010
0001
0000
1000
0010
,
0100
0001
0100
0010
1000
0000
0100
0010
,
0100
0000
1000
0001
1000
0000
0010
0100
,
0010
0100
0001
1000
0100
0000
0010
0001
,
1000
0000
0000
0010
1000
0000
0010
0000
,
1000
0000
0000
0001
0100
0000
0001
0000
,
1001
1000
1010
0010
,
0110
0000
0000
0100
0001
0000
1000
0000
,
0010
0000
0000
0010
0100
0000
0001
0000
,
1000
0000
0000
0100
0001
0000
0100
0000
,
1000
1010
0010
0110
,
0102
0000
0000
0000
,
1003
0000
1001
0000
0000
0110
0000
0000
,
1001
0110
0000
0010
,
1000
0010
0000
0100
,
0001
1000
0000
0001
,
1000
0001
0000
1000
,
0010
0001
0000
0001
,
0010
1000
0000
1000
,
0100
0010
0000
0010
,
0100
1000
0001
1000
,
0010
0100
0000
0001
,
0100
1000
0000
1000
,
0100
0001
0000
0001
,
0010
0100
0000
0100
,
0010
0001
0000
1000
,
0001
0010
0000
0001
,
1000
0010
0000
1000
,
0100
0010
0001
0010
,
0100
1000
1100
0001
,
0101
1000
1010
0001
,
0011
0100
0110
0010
,
0110
1000
1001
0001
,
1001
1000
1100
0100
,
0110
0010
0011
0001
,
0101
0100
0110
0010
,
1010
1000
1001
0001
,
1001
0110
0000
0110
,
0000
0110
0110
1001
,
1001
2002
0000
0000
,
0000
3003
0000
0000
;

//---------------dance-single - ----------------
#NOTES:
     dance-single:
     DIFFICULT:
     Medium:
     11:
     0.593042,0.819534,0.322878,0.378229,0.055351,450.000000,415.000000,35.000000,41.000000,0.000000,0.000000,0.593042,0.819534,0.322878,0.378229,0.055351,450.000000,415.000000,35.000000,41.000000,0.000000,0.000000:
0000
0000
0000
0000
,
0000
0000
0000
0000
,
2001
0000
0000
0001
0000
0001
0000
3001
,
0010
0000
0001
1000
0000
0000
0100
0000
,
1002
0000
0000
1000
0000
1000
0000
1003
,
0010
0000
0100
0001
0000
0001
1000
0000
,
0120
0000
0000
1000
0000
1000
0000
1030
,
0001
0000
0100
0010
0100
0000
0001
0000
,
0210
0000
0000
0001
0000
0001
0000
0301
,
1000
0000
0010
0000
0100
0001
0100
0000
,
0001
0010
0000
0001
1000
0000
0100
1000
,
0100
1000
0000
0010
0100
0001
0100
0000
,
0001
1000
0000
1000
0100
1000
0001
0000
,
0100
0000
0010
0000
0000
0000
0010
0000
0100
0000
0000
0001
0000
1000
0000
0000
,
0001
0100
0000
0001
1000
0010
1000
0000
,
0010
0000
0100
0000
0000
0000
0001
0000
0100
0000
0000
0001
0000
0000
1000
0000
,
0100
1000
0000
0010
0100
0000
0100
0001
,
0100
0010
0100
0000
0010
0000
1001
0000
,
1000
0100
0001
0000
0001
0100
1000
0000
,
0010
0100
0000
0010
0000
0100
0010
0000
,
1000
0010
0001
0000
0001
0010
1000
0000
,
0001
1000
0000
0100
0000
1000
0001
0000
,
0001
0010
1000
0000
1000
0010
0001
0000
,
0100
0010
0000
0100
0000
0010
0100
0000
,
0001
0100
1000
0000
1000
0100
0001
0000
,
0100
0000
0000
0100
0000
0000
0100
0000
0000
0000
0010
0000
1000
0000
0001
0000
,
1001
0000
0001
0010
0100
1000
0100
0000
,
1000
1000
1000
0100
0010
0001
1000
0000
,
1001
0000
1000
0100
0010
0100
1000
0000
,
0001
0010
0010
0010
0001
1000
0001
0000
,
0110
0000
0010
1000
0010
0100
0001
0000
,
0001
1000
1000
1000
0100
0010
0001
0000
,
0110
0000
0010
1000
0100
1000
0001
0000
,
0100
0010
0010
0010
1000
0001
0100
0001
,
2002
0000
0000
3003
,
2000
0000
0000
0000
,
3002
0000
0000
0000
,
1003
0000
0000
0001
0100
0000
0001
0000
0100
0000
0000
0100
0010
0000
0100
0000
,
0110
0000
0010
0000
1010
0000
1000
0000
1001
0000
0000
0001
1000
0000
0100
0000
,
0010
0000
0000
0010
0001
0000
0010
0000
1000
0000
0000
1000
0010
0000
0001
0000
,
0011
0000
0001
0000
1001
0000
1000
0000
1010
0000
0010
0100
0010
0100
0001
0000
,
1002
0000
0000
1003
0100
0000
1000
0000
,
2001
0000
0000
3001
0010
0000
0001
0000
,
0201
0310
1020
0130
,
2001
0000
0000
3010
0100
0001
0100
0000
,
0120
0000
0000
1030
0100
0010
0001
0000
,
0210
0000
0000
0301
0010
0100
1000
0000
,
1200
1300
1020
1030
,
2001
3001
0201
0301
,
2002
0003
0000
0000
0000
0000
0000
0000
0000
0000
0000
0000
0000
0000
0000
0000
0000
0000
0000
0000
0000
0000
0000
0000
0000
0000
0000
0000
0000
0000
0000
0000
0000
0000
0000
0000
0000
0000
0000
0000
0000
0000
0000
0000
0000
0000
0000
0000
3001
0000
0000
0000
0000
0000
0000
0000
0000
0000
0000
0000
0000
0000
0000
0000
0000
0000
0000
0000
0000
0000
0000
0000
1000
0000
0000
0000
0000
0000
0000
0000
0000
0000
0000
0000
0000
0000
0000
0000
0000
0000
0000
0000
0000
0000
0000
0000
1000
0000
0000
0000
0000
0000
0000
0000
0000
0000
0000
0000
0000
0000
0000
0000
0000
0000
0000
0000
0000
0000
0000
0000
0001
0000
0000
0000
0000
0000
0000
0000
0000
0000
0000
0000
0000
0000
0000
0000
0000
0000
0000
0000
0000
0000
0000
0000
1000
0000
0000
0000
0000
0000
0000
0000
0000
0000
0000
0000
0000
0000
0000
0000
0000
0000
0000
0000
0000
0000
0000
0000
1000
0000
0000
0000
0000
0000
0000
0000
0000
0000
0000
0000
0000
0000
0000
0000
0000
0000
0000
0000
0000
0000
0000
0000
,
0001
0000
0110
0000
1000
0010
0001
0000
,
0010
0000
1000
0000
0100
0000
1000
0100
,
0001
0100
1000
0000
0001
0010
1000
0000
,
0010
0000
0001
0000
0100
0000
0010
1000
,
0100
0010
0100
0000
1000
0010
0001
0000
,
0010
0000
0100
0000
0010
0000
1000
0100
,
0001
0100
0010
0000
0001
0010
1000
0000
,
0010
0000
0001
0010
0100
1000
0100
0010
,
0100
1000
1001
0000
0001
0200
1000
0000
,
1300
0000
0100
0000
0001
0000
0001
1000
,
0001
0010
0001
0000
1000
0200
0001
0000
,
0301
0000
0100
0000
1000
0000
0010
0100
,
0010
1000
0001
0000
1000
0020
0001
0000
,
0031
0000
0010
0000
1000
0000
0100
0010
,
0100
1000
0100
0000
1000
0020
0001
0000
,
0031
0000
0010
1000
1000
0100
0010
0010
,
0001
1000
0001
0100
0002
0000
1003
0010
,
2000
0000
3010
0100
0020
0000
1030
0010
,
0100
0001
0100
0010
0200
0000
0301
0100
,
0002
0000
1003
0001
2000
0000
3010
0100
,
0010
0001
0010
1000
0020
0000
1030
0001
,
2000
0000
3001
0010
0002
0000
0103
0010
,
0100
1000
0100
0001
0200
0000
0310
1000
,
0020
0000
1030
0001
2000
0000
3001
0010
,
0100
1000
1020
0000
0000
1030
2100
0000
,
0000
3001
0011
0000
1001
0000
1000
0100
,
0010
0001
2002
0000
0000
0000
0000
0000
,
0000
3003
0000
0000
;

//---------------dance-single - ----------------
#NOTES:
     dance-single:
     EXPERT:
     Hard:
     17:
     0.810490,0.997694,0.590406,0.645756,0.415129,615.000000,551.000000,64.000000,70.000000,0.000000,0.000000,0.810490,0.997694,0.590406,0.645756,0.415129,615.000000,551.000000,64.000000,70.000000,0.000000,0.000000:
0000
0000
0000
0000
,
0000
0000
0000
0000
,
2000
0001
0000
0010
0000
0001
0000
3001
,
0200
0010
0000
1000
0000
0301
0010
0100
,
2000
0001
0000
0010
0000
0001
0000
3010
,
1000
0200
0000
1300
0100
0010
0021
0000
,
0032
1000
0000
0100
0000
0013
0001
0010
,
0002
1000
0000
0100
0000
1003
0100
0010
,
0200
1000
0000
0001
0000
1300
0100
0010
,
2002
0000
0000
3003
,
0001
0010
0000
0001
1000
1000
1000
0100
,
1000
0001
0000
0010
0001
0001
0001
0010
,
0100
1100
0000
1000
0001
0001
0001
0100
,
0010
0000
0110
0000
0000
0000
1000
0000
1001
0000
0000
0001
0000
1000
0000
0010
,
0100
0010
0000
1000
0010
0010
0010
0100
,
0001
0000
0011
0000
0000
0000
0001
0000
1001
0000
0000
1000
0000
0010
1000
0000
,
0001
0000
0100
0000
0000
0000
0010
0000
1000
0000
0100
0000
0010
0000
0001
1000
,
0001
1000
0001
0000
0010
0000
0010
0000
1001
0000
0000
0000
0110
0000
0000
0000
,
0010
1000
1200
0000
0310
0001
0201
0000
,
0301
1000
0000
1001
0000
0100
0010
0000
,
0010
1000
0101
0000
0010
0001
1010
0000
,
0011
0000
0001
1001
0000
0100
0110
0000
,
1000
0010
0210
0000
0301
0100
0120
0000
,
1030
0001
0000
0110
0000
0001
0100
0010
,
1000
0100
0101
0000
0100
1000
1001
0000
,
0011
0000
0000
1001
0000
0000
0110
0000
0000
0000
0100
0000
0001
0000
1000
0010
,
2000
0000
0000
3001
0010
0000
0001
0000
1000
0000
0100
0000
1000
0000
0010
0000
,
0100
0000
0001
1000
0001
0000
0100
0000
0100
0000
0100
0000
0010
0000
1000
0000
,
1200
0000
0000
1300
0001
0000
0010
0000
0001
0000
0010
0000
1000
0000
0010
0000
,
0001
0000
0100
0010
0100
0000
0010
0000
0010
0000
0010
0000
1000
0000
0100
0000
,
0120
0000
0000
0031
0010
0000
0001
0000
1000
0000
0100
0000
0010
0000
0100
0000
,
1000
0000
0001
0010
0001
0010
0001
0000
0100
0000
0010
0000
1000
0000
0001
0000
,
0021
0000
0000
0031
1000
0000
0100
0000
0001
0000
0100
0000
0010
0000
0100
0000
,
1000
0001
1000
0000
0010
0000
0100
0010
0100
0010
0100
0000
0010
0000
1000
0000
,
2002
0000
0000
3000
,
1003
0100
0010
0001
0010
0100
1000
0100
,
0010
0001
0010
0001
0010
0001
0010
0001
1000
0001
1000
0001
1000
0001
1000
0001
,
1000
0000
0010
0100
0010
0000
1000
0000
0001
0100
0000
0010
1000
0000
0100
0000
,
1100
0000
0100
0000
0101
0000
0100
0000
0100
1000
0000
1000
0100
0010
0001
0000
,
1001
0000
0001
0010
0001
0000
0100
0000
0010
0100
0000
0100
0001
1000
0010
0000
,
1010
0000
0010
0000
0011
0000
0010
0000
0010
0100
0010
1000
0100
0010
0001
0000
,
2000
0001
0000
3001
0010
0001
2000
0000
,
3200
0010
0000
0301
0100
0010
0002
0000
,
1003
0001
0000
0000
0001
0010
0000
0000
0010
0100
0000
0000
0100
1000
0000
0000
,
2000
0010
0000
3100
0001
0100
0020
0000
,
0032
1000
0000
0103
1000
0100
0020
0000
,
0230
0001
0000
0310
1000
0100
0020
0000
,
0031
0010
0000
0000
0010
0001
0000
0000
0001
1000
0000
0000
1000
0100
0000
0000
,
0100
1000
0100
1000
0100
1000
0100
1000
0001
1000
0001
1000
0001
1000
0001
1000
,
2002
3000
0000
0000
0000
0000
0000
0000
0000
0000
0000
0000
0000
0000
0000
0000
0000
0000
0000
0000
0000
0000
0000
0000
0000
0000
0000
0000
0000
0000
0000
0000
0000
0000
0000
0000
0000
0000
0000
0000
0000
0000
0000
0000
0000
0000
0000
0000
1003
0000
0000
0000
0000
0000
0000
0000
0000
0000
0000
0000
0000
0000
0000
0000
0000
0000
0000
0000
0000
0000
0000
0000
0010
0000
0000
0000
0000
0000
0000
0000
0000
0000
0000
0000
0100
0000
0000
0000
0000
0000
0000
0000
0000
0000
0000
0000
0010
0000
0000
0000
0000
0000
0000
0000
0000
0000
0000
0000
0000
0000
0000
0000
0000
0000
0000
0000
0000
0000
0000
0000
0100
0000
0000
0000
0000
0000
0000
0000
0000
0000
0000
0000
0000
0000
0000
0000
0000
0000
0000
0000
0000
0000
0000
0000
0001
0000
0000
0000
0000
0000
0000
0000
0000
0000
0000
0000
1000
0000
0000
0000
0000
0000
0000
0000
0000
0000
0000
0000
0001
0000
0000
0000
0000
0000
0000
0000
0000
0000
0000
0000
0000
0000
0000
0000
0000
0000
0000
0000
0000
0000
0000
0000
,
0100
0000
0000
0000
2001
0000
0000
0000
3001
0000
1000
0100
0020
0000
0000
0000
,
0001
0000
1000
0000
0032
0000
0013
0001
,
1000
0000
0100
0000
0120
0000
0000
0000
0031
0000
1000
0100
0002
0000
0000
0000
,
0100
0000
0000
0000
1000
0000
0000
0000
0203
0000
0000
0000
1300
0000
0001
0100
,
0010
0000
1000
0000
2001
0000
0000
0000
3010
0000
0100
0001
2000
0000
0000
0000
,
0010
0000
0000
0000
0100
0000
0000
0000
3002
0000
0000
0000
0013
0000
0001
0010
,
1000
0000
0010
0000
0012
0000
0000
0000
1003
0000
0010
0100
0002
0000
0000
0000
,
1000
0000
0000
0000
0010
0000
0000
0000
0203
0000
0010
0000
0310
0000
0100
0001
,
1000
0000
0010
0000
2010
0000
0000
3001
0100
0000
0010
1000
0200
0000
0000
0000
,
1300
0001
0012
0000
1000
0000
0013
0001
,
1000
0000
0001
0000
0210
0000
0000
0310
1000
0000
0100
1000
0002
0000
0000
0000
,
1003
0000
0010
0000
0210
0000
0000
0000
0001
0000
0000
0000
1300
0000
0100
0010
,
1000
0000
0001
0000
0201
0000
0000
0301
0010
0000
0001
1000
0100
0000
0010
0000
,
0012
0000
0000
0000
2003
0000
0000
0000
0010
0000
3010
0000
1000
0000
0001
0100
,
1000
0000
0100
0000
0102
0000
0000
1003
0100
0000
1000
0001
0010
0000
0001
0000
,
0201
0000
0000
0000
0320
0000
1000
0000
1000
0000
1030
0000
0010
0000
0100
0001
,
0100
0001
0100
0001
1000
0000
0001
0000
0021
0000
0000
0000
0031
0000
1000
0000
,
1200
0000
1300
0001
0210
0000
0301
0100
,
0010
1000
0100
0010
0012
0000
1003
0100
,
0210
0000
0000
0000
1300
0000
0001
0000
1002
0000
0000
0000
1003
0000
0001
0010
,
0001
0010
0001
0000
0100
0000
0010
0000
1020
0000
0000
0000
0130
0000
0001
0000
,
0201
0000
0000
0000
0310
0000
1000
0000
2001
0000
0000
0000
3001
0000
1000
0001
,
0100
0010
0100
1000
0201
0000
0301
0010
,
2001
0000
0000
0000
3001
0000
0100
0000
0002
0000
1000
0000
1003
0000
0001
0010
,
0001
0010
0001
0000
0110
0000
1000
0001
1000
0000
0110
0000
1001
0000
0001
1000
,
0001
0000
0110
0000
1001
0000
1000
0100
1000
0000
0001
0100
0001
0000
0100
0010
,
0100
0001
2002
0000
0000
0000
0000
0000
,
0000
3003
0000
0000
;
