#TITLE:ACELERA;
#SUBTITLE:(Void Remix);
#ARTIST:SKAZI;
#TITLETRANSLIT:;
#SUBTITLETRANSLIT:;
#ARTISTTRANSLIT:;
#GENRE:INDUSTRIAL HOUSE;
#CREDIT:YonabearCWY;
#BANNER:ACELERA (Void Remix).png;
#BACKGROUND:ACELERA (Void Remix)-bg.png;
#LYRICSPATH:;
#CDTITLE:Dance Mania presents Summer Story 2007.png;
#MUSIC:ACELERA (Void Remix).ogg;
#OFFSET:0.000000;
#SAMPLESTART:72.804665;
#SAMPLELENGTH:15.000000;
#SELECTABLE:YES;
#BPMS:0.000000=145.070007
,125.000000=72.535004
,149.000000=145.070007
,178.000000=72.535004
,180.000000=145.070007
;
#STOPS:28.000000=1.240000,
149.000000=1.240000
;
#BGCHANGES:16.000=blizzard2.mp4=0.800=1=0=1===CrossFade==,
24.000=blizzard5.mp4=1.000=0=0=1=====,
28.000=blizzard3.mp4=1.400=0=0=1=====,
29.000=amoeba3.mp4=1.400=0=0=1=====,
37.000=blizzard6.mp4=1.000=0=0=1=====,
45.000=amoeba3.mp4=1.400=0=0=1=====,
53.000=blizzard6.mp4=1.000=0=0=1=====,
57.000=demon3.mp4=1.400=0=0=1=====,
59.000=circle4.mp4=1.400=0=0=1=====,
61.000=symbols2.mp4=1.400=0=0=1=====,
69.000=symbols3.mp4=1.400=0=0=1=====,
77.000=symbols2.mp4=1.400=0=0=1=====,
85.000=symbols3.mp4=1.400=0=0=1=====,
89.000=blizzard3.mp4=1.400=0=1=1=StretchRewind====,
93.000=blizzard6.mp4=1.000=0=1=1=StretchRewind====,
101.000=blizzard5.mp4=1.000=0=1=1=StretchRewind====,
109.000=blizzard6.mp4=1.000=0=0=1=====,
117.000=blizzard5.mp4=1.000=0=0=1=====,
121.000=blizzard2.mp4=1.500=0=1=1=StretchRewind====,
125.000=circle9.mp4=0.700=0=0=1=====,
133.000=circle4.mp4=1.000=0=1=1=StretchRewind====,
141.000=blizzard2.mp4=0.800=0=1=1=StretchRewind====,
145.000=blizzard5.mp4=1.000=0=1=1=StretchRewind====,
149.000=blizzard3.mp4=1.400=0=1=1=StretchRewind====,
150.000=fusion1.mp4=1.400=0=0=1=====,
158.000=symbols2.mp4=1.400=0=0=1=====,
166.000=fusion2.mp4=1.600=0=0=1=====,
178.000=blizzard3.mp4=1.300=0=1=1=StretchRewind====,
180.000=fusion1.mp4=1.400=0=1=1=StretchRewind====,
188.000=symbols3.mp4=1.400=0=0=1=====,
196.000=fusion2.mp4=1.600=0=1=1=StretchRewind====,
212.000=ACELERA (Void Remix)-bg.png=1.000=0=0=1=====,
99999.000=-nosongbg-=1.000=0=0=0=StretchNoLoop====,
99999=-nosongbg-=1.000=0=0=0 // don't automatically add -songbackground-
;
#KEYSOUNDS:;
#ATTACKS:;

//---------------dance-single - ----------------
#NOTES:
     dance-single:
     BEGINNER:
     Beginner:
     4:
     0.150150,0.202703,0.028153,0.018769,0.000000,112.000000,109.000000,3.000000,2.000000,0.000000,0.000000,0.150150,0.202703,0.028153,0.018769,0.000000,112.000000,109.000000,3.000000,2.000000,0.000000,0.000000:
0000
0000
0000
0000
,
0000
0000
0000
0000
,
0000
0000
0000
0000
,
0000
0000
0000
0000
,
1000
0000
1000
0000
,
0001
0000
0001
0000
,
1000
0000
1000
0000
,
0000
0010
0000
0010
,
0000
0100
0100
0100
,
0000
0010
0000
0010
,
0000
0100
0100
0100
,
0000
0001
0000
0001
,
0000
1000
1000
1000
,
0000
0001
0000
0001
,
0000
1000
0000
0001
,
0000
1000
0000
1000
,
0000
0001
0000
0000
,
0000
0001
0000
0001
,
0000
1000
0000
0000
,
0000
0010
0000
0010
,
0000
0100
0000
0000
,
0000
0100
0000
0100
,
0000
0010
0000
0000
,
0000
1000
0000
1000
,
0000
1000
0000
1000
,
0000
0001
0000
0001
,
0000
0001
0000
0001
,
0000
0100
0000
0100
,
0000
0000
0100
0000
,
0100
0010
0000
0010
,
0000
0000
0010
0000
,
0100
1001
0000
0000
,
0000
0100
0000
0000
,
0000
0010
0000
0000
,
0000
0100
0000
0000
,
0000
0010
0000
0100
,
0000
0001
0010
1000
,
0010
0000
0001
0010
,
0001
0010
0001
0000
,
1000
0000
0100
1000
,
0100
1000
0100
0000
,
0010
0000
0001
0000
,
1000
0000
0001
1000
,
0001
1000
0001
0000
,
0100
0000
0110
0000
,
1000
1000
1000
1000
,
1000
0000
0001
0000
,
1000
1000
1000
1000
,
1000
0000
0001
0000
,
0100
0100
0100
0100
,
0100
0000
0010
0000
,
0100
0100
0100
0100
,
0100
0000
0010
0000
,
2002
0000
0000
0000
,
3003
0000
0000
0000
;

//---------------dance-single - ----------------
#NOTES:
     dance-single:
     BASIC:
     Easy:
     6:
     0.219863,0.304054,0.131381,0.112613,0.000000,164.000000,150.000000,14.000000,12.000000,0.000000,0.000000,0.219863,0.304054,0.131381,0.112613,0.000000,164.000000,150.000000,14.000000,12.000000,0.000000,0.000000:
0000
0000
0000
0000
,
0000
0000
0000
0000
,
0000
0000
0000
0000
,
0000
0000
0000
0000
,
1000
0000
0001
0000
,
1000
1000
1000
0000
,
0001
0010
0100
1000
,
0000
1000
1000
1000
,
0010
0100
0001
0000
,
0001
0100
0100
0100
,
0010
1000
0001
0000
,
0001
1000
1000
1000
,
0100
0010
0001
0000
,
0100
0010
0010
0010
,
0100
1001
0000
0010
,
0000
1001
0000
0100
,
0000
0010
0010
0010
,
0000
1000
0100
0010
,
0001
1000
1000
1000
,
0000
0110
0000
1000
,
0000
0010
0010
0010
,
0000
0100
0001
1000
,
0100
0011
1100
0022
,
0033
1000
0000
1000
,
0000
0001
0000
0001
,
0000
0100
0000
0100
,
0000
0010
0000
0010
,
0000
1000
0100
0010
,
0001
1000
0000
1000
,
0000
0001
0000
0001
,
0000
0100
0000
0100
,
0000
2002
0000
0000
,
3003
0220
0000
0000
,
0330
0002
0000
0000
,
0003
2000
0000
0000
,
3000
0010
0100
0010
,
0100
0000
0001
0010
0100
1000
0001
0100
,
0010
1000
0000
0000
0001
0000
0000
0000
,
0001
0000
1000
1000
,
1000
0000
0001
1000
,
0100
0010
0001
0100
,
0010
1000
0001
0000
,
0001
0000
1000
1000
,
1000
0000
0010
0100
,
0010
0000
0001
0000
0220
0000
0000
0330
,
1000
0000
0000
0001
0100
0000
0000
0001
,
1000
0000
0010
0000
0100
0000
0000
0010
,
1000
0010
0100
0001
,
1000
0100
0010
1001
,
0110
0000
0000
0001
1000
0000
0000
0100
,
0010
0000
0001
0000
1000
0000
0000
0001
,
0100
0010
1000
0100
,
0010
0001
1001
0110
,
2002
0000
0000
0000
,
3003
0000
0000
0000
;

//---------------dance-single - ----------------
#NOTES:
     dance-single:
     DIFFICULT:
     Medium:
     10:
     0.398166,0.506757,0.253378,0.272147,0.037538,297.000000,270.000000,27.000000,29.000000,0.000000,0.000000,0.398166,0.506757,0.253378,0.272147,0.037538,297.000000,270.000000,27.000000,29.000000,0.000000,0.000000:
0000
0000
0000
0000
,
0000
0000
0000
0000
,
0000
0000
0000
0000
,
0000
0000
0000
0000
,
2100
0000
0000
3001
0020
0000
0000
1030
,
0010
0000
0001
0000
0010
0000
0001
1000
,
0100
0000
1000
0001
0010
0000
0100
1000
,
0000
0000
1000
0001
0000
0010
0001
0010
,
0000
0001
0100
0001
0000
1000
0010
1000
,
0001
0000
0100
0010
0000
1000
0001
1000
,
0000
0010
1000
0010
0000
1000
0100
0000
,
1001
0000
0010
0001
0000
0100
0001
0100
,
0000
0001
1000
0001
0000
0100
0010
0100
,
1000
0000
0100
0001
0100
1000
0100
0010
,
0100
0001
2000
0000
0000
3001
0020
0000
,
0000
0130
0020
0000
0031
1000
0200
0000
,
1300
0001
0010
0000
0101
0000
0001
0000
,
1000
0001
0020
0000
0031
1000
0200
0000
,
0310
0001
1000
0000
0100
0000
1001
0000
,
1000
0100
0010
0001
0010
0001
1000
0100
,
1000
0100
0020
0000
0031
1000
0200
0000
,
1300
0001
0020
0000
1000
0000
0031
0000
,
0010
0001
1001
0000
0110
0000
2002
0000
,
3003
0000
1000
0010
0000
0000
1000
0001
,
0000
0100
0001
0100
0000
0001
0010
0000
,
1001
0000
0100
0010
0000
0000
1000
0001
,
0000
0100
1000
0100
0000
0001
1000
0100
,
0010
0000
0001
0100
0001
0000
0100
0001
,
0100
0001
0010
0100
,
1000
0000
0100
1000
0100
0000
1000
0100
,
1000
0010
0100
0001
,
1001
0220
0000
0000
,
0330
2002
0000
0000
,
3003
0000
1000
0100
1000
0000
0001
0100
,
0001
0000
0100
0010
0100
0000
0001
1000
,
0001
0000
0000
0000
1000
0000
0000
0001
0100
0000
0000
0010
1000
0000
0000
0100
,
0010
0000
0000
0001
1000
0000
0001
0100
0001
0000
1000
0010
1000
0000
0010
0100
,
0010
0000
1000
0001
0000
0000
0000
0000
2100
0000
0000
0000
0000
0000
3001
0000
,
0200
0000
0310
1000
0100
0000
0011
0000
,
1100
0000
0011
0000
0100
0001
1000
0001
,
0010
0001
1000
0001
0100
0000
0010
1000
,
0100
0000
1001
0000
0012
0000
0000
1003
,
0200
0000
0310
0001
1000
0000
0110
0000
,
1001
0000
0110
0000
1000
0010
0100
0001
,
0100
0010
1000
0001
2002
0000
0000
3003
,
1000
0100
0010
0001
0100
0010
0100
0000
,
0001
0000
1000
0010
0100
0000
1001
0000
,
0001
0010
0100
1000
0010
0100
0010
1000
,
0100
0011
2200
3300
,
0010
0100
0001
0100
0010
1000
0100
0010
,
0001
1100
0022
0033
,
0001
1000
0100
0001
0100
1000
0010
0100
,
0010
0000
1000
0010
0001
0010
1000
0000
,
2002
0000
0000
0000
,
3003
0000
0000
0000
;

//---------------dance-single - ----------------
#NOTES:
     dance-single:
     EXPERT:
     Hard:
     13:
     0.546976,0.633446,0.225225,0.262763,0.267455,408.000000,384.000000,24.000000,28.000000,0.000000,0.000000,0.546976,0.633446,0.225225,0.262763,0.267455,408.000000,384.000000,24.000000,28.000000,0.000000,0.000000:
0000
0000
0000
0000
,
0000
0000
0000
0000
,
0000
0000
0000
0000
,
0000
0000
0000
0000
,
1000
0001
0010
0100
1000
0010
0100
0001
,
1000
0100
0010
0001
0100
0010
1000
0001
,
0100
0010
0100
0010
0100
0010
0100
0010
0100
0010
0100
0010
0100
0010
0100
0010
,
0000
0000
0000
0000
0001
0000
1000
0000
0000
1000
0100
0000
0000
1000
0001
0000
,
0010
0000
0100
0000
1000
0000
0010
0000
0100
0000
0100
0000
0000
0001
1000
0100
,
1000
0000
0000
1000
0010
0000
0100
0000
0000
0001
1000
0000
0000
0010
0100
0000
,
0001
0000
1000
0000
0100
0000
0001
0000
0100
0000
1000
0001
0000
0100
0010
0100
,
0001
0000
1000
0000
0010
0000
0100
0000
0001
0000
0010
0000
0000
0100
1000
0000
,
0100
0000
0010
0000
0001
0000
1000
0000
0010
0000
0100
0000
0001
1000
0001
0000
,
0100
0000
0000
0010
1000
0000
0001
0000
0100
0000
0010
0000
1000
0000
0100
0000
,
0010
0001
2001
0000
0000
3100
0020
0000
,
0000
0031
1000
0001
0100
1000
0100
0001
,
1000
0010
1100
0000
1001
0000
0101
0001
,
1001
0000
0100
0010
1000
0100
0001
0100
,
1000
0010
0100
0010
1000
0100
0001
0001
,
0001
0100
1000
0001
0010
0001
1000
0010
,
0001
0010
1001
0000
0110
0000
1001
1000
,
1100
0000
0001
0100
0010
1000
0100
0010
,
0001
0000
1000
0000
0010
0000
0010
0000
0010
0000
0100
0010
0100
0000
0010
0000
,
0020
0000
1030
0200
0000
0000
1300
0002
,
0000
0013
0001
2000
0000
0010
3010
0100
,
0102
0000
1003
0002
0000
0000
0013
0200
,
0000
1300
0100
0020
0000
0000
0031
1000
,
0100
0010
0001
1000
0200
0000
1300
0001
,
0010
0000
0000
0001
0100
0000
0020
0000
0000
0000
1030
0000
0001
0000
0010
0000
,
2100
0000
3001
1000
0100
0010
0001
0100
,
0010
1000
0001
0001
1000
0010
0010
0100
,
0001
0000
1000
0001
2000
0000
0000
0000
3020
0000
0000
0000
0230
0000
0000
0000
,
0302
0000
0000
1000
2003
0000
0000
0000
3200
0000
0000
0000
0320
0000
0000
0000
,
0032
0000
0000
1000
1003
0000
0100
0000
2000
0000
0000
0000
3001
0000
0010
0000
,
0002
0000
0103
0010
2000
0000
3001
0100
,
0020
0000
0000
0000
1030
0100
0001
0000
0001
0100
1000
0000
1000
0010
0001
0000
,
0001
0010
1000
0000
1000
0100
0010
0000
0001
0010
0100
0000
1000
0010
0100
0000
,
0001
0100
0010
1000
0000
0000
0000
0000
1001
0000
1000
0000
0100
0000
0010
0000
,
0001
0100
0001
0000
1000
0000
0100
0000
0011
0000
0000
0000
1100
0000
1000
0000
,
1001
0000
0001
0000
0100
0000
0010
0000
1010
0000
0000
1000
0001
0000
0010
0000
,
0100
0000
0010
0000
0001
1000
0001
0000
0100
0000
0000
0010
1000
0010
0100
0000
,
0001
1000
0100
0010
1001
0001
0010
1000
,
0010
0001
0010
0000
0001
0000
0100
0000
1010
0000
0000
0000
0101
0000
0100
0000
,
0110
0010
1000
0001
0011
0001
1000
0100
,
1000
0010
0010
0100
0002
0000
0000
1003
,
0001
0000
0010
0000
0000
0100
1000
0000
0000
0001
0100
0001
0100
0000
0010
0000
,
1000
0000
0100
0000
0010
0000
0001
0000
0100
0000
0010
0000
1000
0001
0000
0000
,
0100
0000
0010
0000
0000
1000
0001
0000
0000
0100
0010
0100
0010
0000
1000
0000
,
0000
0001
0010
0100
1000
0000
0010
0000
0100
0001
0000
0100
0010
0000
0100
0000
,
0001
0000
1000
0000
0100
0000
0001
0000
0100
1000
0100
0000
0000
1000
0001
0000
,
0010
0000
0001
0000
0100
0000
0010
0000
1000
0000
0100
0000
0010
0001
0010
0000
,
0100
1000
1000
0001
0100
0100
0010
1000
,
0001
1000
0000
0010
1000
0000
0100
0000
0011
0000
0010
0000
0110
0000
0000
0000
,
2002
0000
0000
0000
,
3003
0000
0000
0000
;

//---------------dance-double - ----------------
#NOTES:
     dance-double:
     EXPERT:
     Hard:
     14:
     0.559041,0.836149,0.168919,0.121997,0.323761,417.000000,399.000000,18.000000,13.000000,0.000000,0.000000,0.559041,0.836149,0.168919,0.121997,0.323761,417.000000,399.000000,18.000000,13.000000,0.000000,0.000000:
// measure 0
00000000
00000000
00000000
00000000
,  // measure 1
00000000
00000000
00000000
00000000
,  // measure 2
00000000
00000000
00000000
00000000
,  // measure 3
00000000
00000000
00000000
00000000
,  // measure 4
10000000
01000000
00100000
00001000
00010000
00001000
00100000
00001000
,  // measure 5
01000000
00100000
01000000
00001000
00010000
00000100
00010000
00001000
,  // measure 6
00000010
00000000
00000001
00000000
00001000
00000000
00000001
00000000
00000010
00000000
00000100
00000000
00001000
00000001
00001000
00000001
,  // measure 7
00001000
00000000
00000000
00000000
10000000
00000000
10000000
00000000
00000000
00100000
01000000
00000000
00000000
00010000
00100000
00000000
,  // measure 8
01000000
10000000
00010000
00100000
00001000
00010000
00000100
00010000
,  // measure 9
00000010
00000000
00000000
00000000
00000100
00000000
00000100
00000000
00000000
00000001
00000010
00000000
00000000
00000100
00001000
00000000
,  // measure 10
00000100
00000000
00000010
00000000
00000001
00000000
00001000
00000000
00000100
00000000
00001000
00000010
00000000
00000010
00010000
00000000
,  // measure 11
00001000
00000000
00100000
00000000
01000000
00000000
01000000
00000000
00000000
10000000
00010000
10000000
00000000
00010000
00100000
00000000
,  // measure 12
01000000
00000000
00010000
00000000
01000000
00000000
10000000
00000000
00010000
00000000
00000000
00100000
00000000
01000000
00010000
00000000
,  // measure 13
00001000
00000000
00010000
00000000
00000010
00000000
00000010
00000000
00000000
00000100
00000001
00000100
00000000
00000001
00001000
00000000
,  // measure 14
00000100
00000010
00000002
00000000
00000000
00001003
00000200
00000000
,  // measure 15
00000000
00000301
00000100
00010000
00000100
00001000
00000100
00010000
,  // measure 16
00001000
00100000
00001000
00100000
00010000
00100000
00001000
00010000
,  // measure 17
00000000
00000000
00001000
00100000
00010000
00000000
10000000
00000000
01000000
00000000
00010000
00000000
01000000
00000000
10000000
00000000
,  // measure 18
00010000
00000000
00100000
00000000
00001000
00000000
00010000
00000000
00000010
00000000
00010000
00000000
00000100
00000000
00001000
00000001
,  // measure 19
00000010
00000000
00000200
00000000
00000000
00001300
00000002
00000000
,  // measure 20
00000000
00000013
00000100
00010000
00000100
00001000
00000010
00010000
,  // measure 21
00000000
00000000
00001000
01000000
00100000
00000000
10000000
00000000
01000000
00000000
00010000
00000000
01000000
00000000
10000000
00000000
,  // measure 22
00010000
00100000
01100000
00000000
00101000
00000000
00010000
00010000
,  // measure 23
00010100
00000000
00000000
00000000
00000001
00000000
00001000
00000000
00000000
00000010
00000100
00000000
00000001
00000000
00000010
00000000
,  // measure 24
00000100
00000000
00000000
00000000
00001000
00000000
00000010
00000000
00000000
00010000
00001000
00000000
00010000
00000000
01000000
00000000
,  // measure 25
10000000
00000000
01000000
00000000
00100000
00000000
00010000
00000000
00000000
10000000
00100000
00000000
01000000
00010000
01000000
00000000
,  // measure 26
00100000
00000000
00000000
00000000
10000000
00000000
01000000
00000000
00010000
00000000
01000000
00000000
00100000
00000000
00010000
01000000
,  // measure 27
00000000
00100000
00000000
01000000
00001000
00000000
00010000
00000000
00001000
00000000
00100000
00000000
00001000
00000000
00010000
00000000
,  // measure 28
00000010
00000000
00000100
00000000
00000001
00000000
00000010
00000000
00000100
00000000
00001000
00000000
00000001
00000010
00000001
00000000
,  // measure 29
00001000
00000100
00000010
00000100
00010000
00000100
00010000
00001000
,  // measure 30
00100000
01000000
10000000
01000000
00100000
00010000
01000000
01000000
,  // measure 31
10010000
02100000
00010000
10000000
,  // measure 32
03010000
00102000
00010000
00100000
,  // measure 33
00013000
00000000
00000000
00000000
00000010
00010000
00000100
00001000
00000010
00000100
00001000
00000100
00000001
00001000
00000001
00000010
,  // measure 34
00000100
00001000
00000100
00000010
00000001
00001000
00000100
00010000
00000100
00010000
00001000
00100000
01000000
10000000
01000000
00100000
,  // measure 35
00010000
00000000
10000000
00000000
01000000
00000000
10000000
00000000
00020000
00000000
00000000
00000000
10000000
00000000
00000000
00000000
00130000
00000000
00000000
00100000
01000000
00000000
00000000
10000000
00200000
00000000
00000000
00000000
00010000
00000000
00000000
00000000
,  // measure 36
01300000
00000000
00000000
01000000
00010000
00000000
00000000
00010000
00100000
00000000
00000000
00000000
00001000
00000000
00010000
00000000
00000010
00000000
00000000
00000010
00000100
00000010
00000000
00000100
00000001
00000000
00001000
00000000
00000100
00000000
00000000
00000000
,  // measure 37
00010000
00001000
00010000
00001000
00010000
00000000
00001000
00010000
00001000
00000000
00000000
00000000
00000000
00000000
00000000
00000000
10000000
00000000
00000000
00000000
00020000
00000000
00000000
00000000
00000000
00000000
00000000
00000000
00130000
00000000
00000000
00000000
,  // measure 38
01000000
20000000
00000000
31000000
00010000
01000000
10000000
00010000
,  // measure 39
00100000
01000000
00100000
00001000
00010000
00001000
00100000
00001000
,  // measure 40
00010000
00000000
00000100
00000000
00010000
00000000
00000010
00000000
00000100
00000000
00000001
00000000
00000000
00001000
00000100
00000000
,  // measure 41
00010000
00010000
00010000
00000010
00001010
00000000
00001001
00000000
,  // measure 42
00000100
00000010
00001100
00000000
00010000
00001000
00100000
00001000
,  // measure 43
00100000
00010000
10000000
01000000
00100000
01000000
00100000
00010000
,  // measure 44
10000000
00000000
00000000
00000000
00010000
00000000
00000000
00000000
00100000
00000000
00000000
00000000
01000000
00000000
00000000
00000000
20100000
00000000
00000000
00000000
00000000
00000000
00000000
00000000
00000000
00000000
00000000
00000000
30010000
01000000
00000000
00000000
,  // measure 45
01000000
00001000
00010000
00100000
01000000
00001000
00010000
00000000
,  // measure 46
00000100
00000000
00010000
00000000
00001000
00000000
00000010
00000100
00000010
00000100
00000010
00000000
00000001
00000000
00001000
00000000
,  // measure 47
00000010
00000100
00000001
00001000
00000100
00000010
00010000
00000010
,  // measure 48
00000100
00001000
00000100
00000000
00000000
00000000
00000000
00000000
00011000
00000000
00011000
00000000
00011000
00000000
00000000
00000000
,  // measure 49
01010000
00000000
10010000
00000000
01000000
00100000
10010000
00000000
,  // measure 50
00100000
01000000
00000000
00000000
10000000
00010000
00000000
00000000
00100000
00000000
01000000
00000000
00101000
00000000
00000000
00000000
,  // measure 51
00010000
00001000
00010000
00000000
00000100
00000000
00001000
00000000
00000001
00000010
00000001
00000000
00001000
00000000
00000100
00000010
,  // measure 52
00000001
00000000
00000000
00001000
00000100
00000000
00010000
00000000
00001000
00010000
00001000
00000000
00100000
00000000
01000000
00000000
,  // measure 53
20020000
00000000
00000000
00000000
,  // measure 54
30030000
00000000
00000000
00000000
;
