#TITLE:ABCD;
#SUBTITLE:(Hi-Speed Energy RMX);
#ARTIST:RADIORAMA;
#TITLETRANSLIT:;
#SUBTITLETRANSLIT:;
#ARTISTTRANSLIT:;
#GENRE:Hi-NRG;
#CREDIT:YonabearCWY;
#BANNER:ABCD (Hi-Speed Energy RMX).png;
#BACKGROUND:ABCD (Hi-Speed Energy RMX)-bg.png;
#LYRICSPATH:;
#CDTITLE:Dance Mania Happy Paradise 2.png;
#MUSIC:ABCD (Hi-Speed Energy RMX).ogg;
#OFFSET:-4.560000;
#SAMPLESTART:60.770531;
#SAMPLELENGTH:15.000000;
#SELECTABLE:YES;
#BPMS:0.000000=157.979996
;
#STOPS:
;
#BGCHANGES:;
#KEYSOUNDS:;
#ATTACKS:;

//---------------dance-single - ----------------
#NOTES:
     dance-single:
     DIFFICULT:
     Medium:
     9:
     0.467012,0.488946,0.349584,0.122827,0.037793,346.000000,309.000000,37.000000,13.000000,0.000000,0.000000,0.467012,0.488946,0.349584,0.122827,0.037793,346.000000,309.000000,37.000000,13.000000,0.000000,0.000000:
0000
0000
0000
0000
,
1000
1000
1000
0001
,
0001
0100
0001
1000
0010
1000
0010
0000
,
1000
0100
0001
0100
,
1010
0101
1010
0000
,
0001
1000
0001
1000
,
0010
1000
0100
0010
0001
1000
0001
1000
,
0010
0010
0010
0110
,
0100
0100
0100
0101
,
0001
1000
0001
1000
,
1000
0100
0010
0100
1000
0001
1000
0010
,
1000
1000
1000
0101
,
0001
0001
0001
1010
,
0100
0010
0100
0010
,
1000
0001
1000
0001
,
0010
0001
0010
0000
0001
0010
0001
0000
,
1000
0100
1000
0000
0100
1000
0100
0000
,
1000
0010
1000
0010
,
0100
0001
0100
0001
,
1000
0001
1000
0000
0001
1000
0001
0000
,
0100
0010
0100
0000
0010
0100
0010
0000
,
1000
1010
0010
0110
,
0100
0101
0001
1001
,
1000
1001
0001
0101
,
0100
0110
0010
1010
,
1000
0100
1000
0010
,
0100
0010
0100
0001
,
0100
0001
0100
0000
0001
1000
0001
0000
,
1000
0010
1000
0000
0010
0010
0010
0000
,
0100
0001
0100
1000
,
0100
0010
0100
0010
,
0100
0001
0100
0000
0010
0100
0010
0000
,
1000
0001
1000
0000
0010
0010
0010
0000
,
1000
1001
0001
0101
,
0100
0110
0010
1010
,
1000
1001
0001
1001
,
1010
1001
0101
0110
,
1000
0000
0000
0000
1000
0000
0000
0000
2000
0000
0000
3001
0000
0000
0000
0000
,
0001
1000
0001
1000
0100
0010
0100
0000
,
1000
1010
0100
0101
,
0001
0010
0100
2000
0000
0001
3001
0000
,
0001
0000
0000
0000
0001
0000
0000
0000
0002
0000
0000
1003
0000
0000
0000
0000
,
1000
0010
0100
0001
0100
0010
1000
0000
,
0100
1001
0010
1001
,
1000
0100
0010
0001
0000
1000
1000
1000
,
1000
0001
1000
0010
,
0100
0001
0010
0100
1000
0001
0010
0000
,
0001
0100
0001
1000
,
0010
0000
1000
0000
0100
0000
0010
0001
,
0100
0001
1000
0001
,
0010
0100
1000
0100
0010
1000
0001
0000
,
2002
0000
0000
3003
,
1000
1010
1000
1001
,
0001
0100
0001
1000
0010
1000
0100
0010
,
0002
0000
0000
1000
0000
0000
2000
0000
0000
0000
0000
0000
3003
0000
0000
0000
,
2000
0000
0000
0001
0000
0000
0002
0000
0000
0000
0000
0000
3003
0000
0000
0000
,
0010
1010
0010
0110
,
0100
0001
0010
0100
1000
0100
1000
0001
,
0200
0000
0000
0010
0000
0000
0020
0000
0000
0000
0000
0000
0330
0000
0000
0000
,
0001
0101
1000
1010
,
1000
0001
0100
0000
0001
1000
0010
0000
,
1000
0100
0001
0100
1000
0001
1000
0000
,
0001
0000
0000
0100
0000
0000
0002
0000
0000
0000
1000
0000
1003
0000
0000
0000
,
1000
0000
0000
0010
0000
0000
2000
0000
0000
0000
0001
0000
3001
0000
0000
0000
,
0001
0000
0000
0000
0010
0000
0000
0000
1000
0000
0000
1001
0000
0000
0000
0000
;

//---------------dance-single - ----------------
#NOTES:
     dance-single:
     BEGINNER:
     Beginner:
     2:
     0.120127,0.183532,0.018896,0.000000,0.000000,89.000000,87.000000,2.000000,0.000000,0.000000,0.000000,0.120127,0.183532,0.018896,0.000000,0.000000,89.000000,87.000000,2.000000,0.000000,0.000000,0.000000:
0000
0000
0000
0000
,
1000
0000
1000
0000
,
0001
0000
0001
0000
,
1000
0000
0000
0000
,
0001
0000
0000
0000
,
1000
0000
1000
0000
,
1000
0000
0000
0000
,
0010
0000
0010
0000
,
0010
0000
0000
0000
,
0100
0000
0100
0000
,
0100
0000
0000
0000
,
0001
0000
0001
0000
,
0001
0000
0000
0000
,
0001
0000
0000
0000
,
0001
0000
0000
0000
,
1000
0000
0000
0000
,
1000
0000
0000
0000
,
0010
0000
0000
0000
,
0010
0000
0000
0000
,
0100
0000
0000
0000
,
0100
0000
0000
0000
,
0010
0000
0010
0000
,
0010
0000
0000
0000
,
0100
0000
0100
0000
,
0100
0000
0000
0000
,
0001
0000
0000
0000
,
0001
0000
0000
0000
,
0010
0000
0000
0000
,
0010
0000
0000
0000
,
0100
0000
0000
0000
,
0100
0000
0000
0000
,
1000
0000
0000
0000
,
1000
0000
0000
0000
,
1000
0000
1000
0000
,
1000
0000
0000
0000
,
0001
0000
0001
0000
,
0001
0000
0000
0000
,
0010
0010
0010
0000
,
0010
0000
0010
0000
,
0100
0000
0000
0000
,
0100
0000
0000
0000
,
1000
1000
1000
0000
,
1000
0000
1000
0000
,
0001
0000
0000
0000
,
0001
0000
0000
0000
,
0001
0000
0000
0000
,
1000
0000
0000
0000
,
0001
0000
0000
0000
,
1000
0000
0000
0000
,
0010
0000
0000
0000
,
0100
0000
0000
0000
,
0110
0000
0000
0000
,
1000
0000
1000
0000
,
1000
0000
0000
0000
,
0001
0000
0001
0000
,
1000
0000
1000
0000
,
0010
0000
0010
0000
,
0010
0000
0000
0000
,
0100
0000
0100
0000
,
0010
0000
0010
0000
,
1000
0000
0000
0000
,
0001
0000
0000
0000
,
0010
0000
0000
0000
,
0100
0000
0000
0000
,
1000
0000
0000
1001
;

//---------------dance-single - ----------------
#NOTES:
     dance-single:
     BASIC:
     Easy:
     5:
     0.306392,0.397652,0.170068,0.094482,0.000000,227.000000,209.000000,18.000000,10.000000,0.000000,0.000000,0.306392,0.397652,0.170068,0.094482,0.000000,227.000000,209.000000,18.000000,10.000000,0.000000,0.000000:
0000
0000
0000
0000
,
1000
1000
1000
0000
,
0001
0010
0100
1000
,
0001
0001
0001
0000
,
1010
0101
1010
0000
,
1000
0001
1000
0001
,
0100
0001
0100
0001
,
1000
1000
2000
3000
,
0001
0001
0002
0003
,
1000
0010
1000
0010
,
0100
0010
0100
0001
,
0010
0010
0020
0030
,
0101
0011
0101
1001
,
1010
0000
1000
0000
,
1000
0100
0001
0100
,
1000
0000
1000
0000
,
0001
0000
0001
0010
,
0100
0000
0100
0000
,
0100
1000
0100
0001
,
0100
0000
0100
0000
,
0010
0000
0010
0001
,
1000
1000
0001
0001
,
1000
1000
0010
0010
,
0100
0100
0001
0001
,
0010
0010
0100
0001
,
0010
0000
0010
0000
,
0010
0001
0010
0001
,
1000
0000
1000
0000
,
1000
0000
1000
0010
,
0100
0000
0100
0000
,
0100
0001
0100
0010
,
0100
0000
0010
0000
,
0010
0000
0100
0001
,
1000
1000
0001
0001
,
1000
1000
0010
0010
,
0001
0001
0100
0100
,
0001
0001
0100
0100
,
1000
1001
0001
1001
,
1000
0000
1000
0000
,
1000
0010
0100
0000
,
0001
0100
0010
0000
,
0100
0110
0010
0110
,
0100
0000
0100
0000
,
1000
0010
0100
0000
,
0001
0100
0010
0000
,
1000
0001
1000
0001
,
0010
0001
0010
0001
,
0100
0001
0100
0010
,
1000
0010
1000
0100
,
0001
0100
0001
1000
,
0010
1000
0010
0100
,
2002
0000
0000
3003
,
0100
0100
0100
0000
,
1000
0010
0100
0001
,
1000
1000
2000
3000
,
0001
0001
0002
0003
,
1000
1000
1000
0000
,
0001
0100
0010
1000
,
0010
0010
0020
0030
,
1100
1010
1100
1001
,
0001
0000
0001
0000
,
1000
0010
1000
0000
,
0100
0100
0200
0300
,
0010
0010
0020
0030
,
0001
1000
0010
1001
;

//---------------dance-single - ----------------
#NOTES:
     dance-single:
     EXPERT:
     Hard:
     13:
     0.627632,0.611182,0.236206,0.264550,0.307067,465.000000,440.000000,25.000000,28.000000,0.000000,0.000000,0.627632,0.611182,0.236206,0.264550,0.307067,465.000000,440.000000,25.000000,28.000000,0.000000,0.000000:
0000
0000
0000
0000
,
0201
0000
0000
0000
1000
0000
0000
0000
0310
0100
0000
0001
0100
0000
0000
0000
,
0001
0100
0010
0000
1000
0001
0010
0100
,
2000
0000
0001
0000
0010
0010
3010
0000
,
1001
1100
0220
0330
,
0010
0000
0000
1000
0001
0000
0000
0001
0010
0000
0100
0000
1000
0001
0000
1000
,
0010
0010
0100
0001
0100
1000
0100
0001
,
2000
0000
0000
0010
0000
0000
3001
0000
0010
0000
0100
0000
0100
0000
0000
0000
,
1000
0000
0000
0001
0010
0000
0001
0000
1000
0001
1000
0000
0010
0000
0000
0000
,
0100
0000
0000
0001
1000
0000
0000
1000
0100
0000
1000
0000
0001
0100
0000
0010
,
0100
0100
0001
0010
1000
0010
0100
0010
,
0002
0000
0000
1000
0000
0000
0013
0000
0001
0000
1000
0000
1000
0000
0000
0000
,
0001
0000
1000
0000
0100
0000
0010
0000
0001
0100
0001
0100
0001
0100
0001
0100
,
0020
0000
0100
0000
0001
0000
1030
0100
,
0020
0000
0001
0000
1000
0000
0031
0010
,
0100
0000
1001
0000
0100
0001
0010
0001
,
1000
0000
0110
0000
0001
0001
0001
0010
,
0200
0000
0001
0000
0010
0000
1300
0010
,
0200
0000
0001
0000
1000
0000
0310
0100
,
0001
0000
0101
0000
0001
1000
0100
0010
,
0100
0000
1001
0000
0010
0010
0010
0010
,
0100
0001
0100
0001
1000
0010
1000
0010
,
0100
0001
0010
0100
1000
0001
0000
0101
,
0000
1000
0000
1010
0000
0010
0000
0110
,
0010
0000
1000
0000
0100
0000
0001
0000
0100
0010
0100
0000
1000
0000
0010
0000
,
0200
0000
0001
0000
0010
0000
0301
0100
,
0020
0000
1000
0000
0001
0000
0130
0010
,
1000
0000
0000
0000
1010
0000
0000
0000
1000
0001
1000
0001
1000
0000
0010
0000
,
0100
0000
0000
0000
0101
0000
0000
0000
0001
0100
0001
0100
0001
0000
1000
0000
,
0020
0000
0100
0000
0001
0000
1030
0010
,
0200
0000
0010
0000
1000
0000
0301
0100
,
0010
0000
0000
0000
1010
0000
0000
0000
1000
0001
1000
0001
1000
0000
0010
0000
,
0100
0000
0000
0000
0110
0000
0000
0000
0001
1000
0001
1000
0001
0000
1000
0000
,
0100
1000
0100
1000
0010
0100
0010
0100
,
0001
1000
0100
0010
0000
0101
0000
1000
,
0000
1010
0000
0010
0000
0110
0100
1001
,
0000
0000
0010
0100
0010
0000
1000
0000
0001
0100
0000
0001
0010
0000
0000
0100
,
1000
0000
0100
0000
0020
0000
0000
0000
0031
1000
0000
0001
0010
0000
0000
0000
,
0001
0100
0010
0001
0010
0100
0010
0100
,
0002
0000
0000
1000
0000
0000
1003
0000
0200
0000
0000
0010
0000
0000
0310
0000
,
0100
1000
0100
0000
0010
0001
0010
0000
0001
0000
1000
0000
1001
0000
0000
0000
,
0010
0000
1000
0000
0200
0000
0000
0000
1300
0001
0000
0100
0010
0000
0000
0000
,
0100
0001
0010
1000
0010
0001
0010
0001
,
0200
0000
0000
0010
0000
0000
0310
0000
2000
0000
0000
0001
0000
0000
3001
0000
,
0100
0001
0100
0000
0001
0000
0010
0000
0100
1000
0000
1000
0100
0000
1000
0000
,
0100
0010
0100
0010
0001
0100
0001
0100
,
0010
0010
0010
0010
0000
1000
0100
0010
,
0001
0100
0000
0100
0001
0000
1000
0000
0100
0000
0001
0000
0100
0000
0000
0000
,
1000
1000
1000
1000
0000
0100
0010
0001
,
1000
0100
0001
0100
0010
0001
0010
1000
,
0010
0100
0010
0100
1000
0001
0100
0220
,
0000
0000
0000
0330
,
0100
0000
0000
0001
0010
0000
0000
0100
0010
0000
0001
0000
1000
0001
0000
0100
,
0010
1000
0010
1000
0100
0001
0100
1000
,
0002
0000
0000
0100
0000
0000
0013
0000
0001
0000
0100
0000
0100
0000
0000
0000
,
0010
0000
0000
1000
0001
0000
0100
0000
0010
0100
0010
0000
1000
0000
0000
0000
,
0010
0000
0000
1000
0100
0000
0000
0010
0001
0000
0010
0000
0100
1000
0000
0100
,
0010
0001
0010
0100
1000
0100
0001
0100
,
0010
0000
0000
0001
1000
0000
0100
0000
0010
0000
0100
0000
0100
0000
0000
0000
,
1000
0010
1000
0000
0001
0000
1000
0000
0010
0000
0100
0000
0001
0000
0100
0000
,
0020
0000
0000
0000
1030
0000
0100
0000
0010
0001
0000
1000
0001
0000
0000
0001
,
0100
0001
1000
0010
0100
0001
1000
0100
,
0020
0000
0000
1000
0000
0000
0001
0000
0031
0000
0000
0000
0102
0000
0000
0000
,
2003
0000
0000
0001
0000
0000
0010
0000
3010
0000
0000
0000
0110
0000
0000
0000
,
1002
0000
0000
0000
0100
0000
0000
0000
0013
0000
0000
1001
0000
0000
0000
0000
;

//---------------dance-double - ----------------
#NOTES:
     dance-double:
     EXPERT:
     Hard:
     13:
     0.614135,0.611182,0.170068,0.188964,0.273998,455.000000,437.000000,18.000000,20.000000,0.000000,0.000000,0.614135,0.611182,0.170068,0.188964,0.273998,455.000000,437.000000,18.000000,20.000000,0.000000,0.000000:
00000000
00000000
00000000
00000000
,
10000000
00000000
00000000
00000000
00010000
00000000
00000000
00000000
00100000
00000000
00000000
00010000
10000000
00000000
00000000
00000000
,
01000000
00000000
00100000
00001000
00010000
00000000
00000100
00010000
,
00001000
00000000
00010000
00000000
00000010
00001000
00000100
00000000
,
00001001
00000000
00000110
00000000
00002002
00000000
00000000
00003003
,
00000001
00000000
00000000
00001000
00000100
00000000
00000000
00000100
00001000
00000000
00000010
00000000
00000100
00000001
00000000
00000100
,
00000001
00000010
00000100
00001000
00000010
00001000
00000100
00010000
,
00000100
00000000
00000000
00010000
00000000
00000000
00001000
00000000
02000000
00000000
00100000
00000000
03100000
00000000
00000000
10000000
,
00010000
00000000
00000000
00100000
00000000
00000000
01000000
00000000
00200000
00000000
00010000
00000000
00310000
00000000
00000000
00000000
,
10000000
00000000
00000000
00010000
00100000
00000000
00000000
00100000
01000000
00000000
10000000
00000000
01000000
00100000
00000000
01000000
,
00100000
00001000
00010000
00000100
00010000
00000010
00001000
00000010
,
00000100
00000000
00000000
00000001
00000000
00000000
00000010
00000000
00000200
00000000
00001000
00000000
00001300
00000000
00000000
00000000
,
00000100
00000000
00010000
00000000
00001000
00000000
00010000
00000000
00001000
00100000
00001000
00100000
00001000
00000000
01000000
00000000
,
00200000
00000000
10000000
00000000
00010000
00000000
10300000
00100000
,
02000000
00000000
00010000
00000000
10000000
00000000
03010000
01000000
,
00100000
00000000
10010000
00000000
01000000
00100000
00001000
00100000
,
00010000
00000000
00101000
00000000
00010000
00000010
00000100
00001000
,
00000200
00000000
00000001
00000000
00000310
00000100
00000001
00001000
,
00000200
00000000
00000001
00000000
00001300
00000100
00000010
00000100
,
00010000
00000000
00011000
00000000
00001000
00100000
00010000
01000000
,
00010000
00000000
01100000
00000000
10000000
01000000
00100000
00001000
,
00010000
00001000
00010000
00000100
00010000
00000100
00000010
00000100
,
00000010
00000001
00001000
00000100
00000010
00000001
00000000
00001100
,
00000000
00000010
00000000
00000101
00000000
00001000
00000100
00000001
,
00000100
00000000
00000000
00010000
00001000
00000000
00000000
00001000
01000000
00001000
01000000
00000000
00100000
00000000
10000000
00000000
,
00200000
00000000
01000000
00000000
10000000
00000000
01300000
00100000
,
20000000
00000000
01000000
00000000
00010000
00000000
31000000
10000000
,
00010000
00000000
00000000
00000000
01010000
00000000
00000000
00000000
00100000
00001000
00100000
00001000
00100000
00000000
00001000
00000000
,
00010000
00000000
00000000
00000000
00001010
00000000
00000000
00000000
00000100
00010000
00000100
00010000
00000100
00000000
00001000
00000000
,
00000002
00000000
00001000
00000000
00000013
00000001
00001000
00000001
,
00000200
00000000
00001000
00000000
00000001
00000000
00000310
00010000
,
00001000
00000000
00000000
00000000
00101000
00000000
00000000
00000000
00010000
00001000
00010000
00001000
00010000
00000000
00001000
00000000
,
01000000
00000000
00000000
00000000
01010000
00000000
00000000
00000000
00001000
00100000
00001000
00100000
00001000
00000000
00100000
00000000
,
00010000
10000000
01000000
10000000
01000000
00100000
00001000
00100000
,
00001000
00010000
00001000
00010000
00000100
00000010
00000000
00000101
,
00000000
00000000
00000010
00000000
00000000
00000000
00001100
00000000
00000000
00000000
00001000
00000000
00000001
00000000
00000010
00000100
,
00000010
00000000
00001001
00000000
00000000
00000000
00000000
00001000
00000001
00000000
00000000
00000010
00000100
00000000
00001000
00000000
,
00000010
00000000
00010000
00000000
00001000
00000000
00010000
00000000
00000100
00001000
00000000
00000100
00010000
00000000
00000000
00000000
,
00001000
00100000
01000000
00100000
00001000
00100000
00001000
00010000
,
00100000
01000000
00010000
00000000
10000000
00100000
01000000
00000000
,
00010000
01000000
00000000
00000000
00010000
10000000
00000000
00000000
00100000
00000000
00100000
00000000
00100000
00000000
00000000
00000000
,
10000000
00000000
01000000
00000000
10000000
00000000
00010000
00000000
01000000
00010000
00000000
01000000
00001000
00000000
00000000
00000000
,
00010000
00000100
00000010
00000100
00001000
00000100
00010000
00000010
,
00000100
00000001
00000010
00000000
00000100
00001000
00000001
00000000
,
00001000
00000100
00000000
00000000
00001000
00000001
00000000
00000000
00000010
00000100
00000000
00000010
00000100
00000000
00001000
00000000
,
00000100
00010000
00000100
00010000
00001000
00010000
00001000
00100000
,
00010000
00010000
00010000
00010000
00000000
10000000
01000000
00100000
,
00010000
10000000
00000000
00010000
10000000
00000000
00100000
00000000
01000000
00000000
00010000
00000000
01000000
00000000
00001000
00000000
,
00100000
00100000
00100000
00100000
00000000
00001000
00010000
00000010
,
00000100
00001000
00000100
00000001
00000100
00000001
00001000
00000100
,
00000010
00000010
00000010
00000010
00000000
00000001
00001000
00002002
,
00000000
00000000
00000000
00003003
,
00000100
00000000
00000000
00000001
00001000
00000000
00000000
00001000
00000100
00000000
00001000
00000000
00000001
00000010
00000000
00000001
,
00000010
00000100
00001000
00000100
00010000
00000100
00001000
00000100
,
00010000
00000000
00000000
00001000
00100000
00000000
00010000
00000000
20000000
00000000
00100000
00000000
30100000
00000000
00000000
01000000
,
00010000
00000000
00000000
00100000
00000000
00000000
01000000
00000000
00200000
00000000
00010000
00000000
00310000
00000000
00000000
00000000
,
10000000
00000000
00000000
00100000
01000000
00000000
00000000
01000000
10000000
00000000
01000000
00000000
00100000
01000000
00000000
00010000
,
01000000
00001000
00100000
00001000
00010000
00001000
00100000
00010000
,
01000000
00000000
00000000
00100000
10000000
00000000
01000000
00000000
00100000
00010000
00100000
00000000
00001000
00000000
00000000
00000000
,
00010000
00000000
00000010
00000000
00000100
00000000
00001000
00000000
00000100
00000001
00000100
00000000
00000001
00000000
00001000
00000000
,
00000200
00001000
00000001
00000010
,
00001300
00000100
00000010
00000001
00001000
00000010
00000100
00001000
,
00010000
00000000
00000000
00001000
00000000
00000000
00002000
00000000
00100000
00000000
00100000
00000000
00103000
00000000
00000000
00000000
,
00010000
00000000
00000000
10000000
00000000
00000000
02000000
00000000
00100000
00000000
00100000
00000000
03100000
00000000
00000000
00000000
,
00010000
00000000
00000000
00000000
01000000
00000000
00000000
00000000
00001000
00000000
00000000
00011000
00000000
00000000
00000000
00000000
;
