#VERSION:0.83;
#TITLE:A Little Piece of Heaven;
#SUBTITLE:;
#ARTIST:AVENGED SEVENFOLD;
#TITLETRANSLIT:;
#SUBTITLETRANSLIT:;
#ARTISTTRANSLIT:;
#GENRE:AVANT GARDE METAL;
#ORIGIN:;
#TAGS:;
#CREDIT:YonabearCWY;
#BANNER:A Little Piece of Heaven.png;
#BACKGROUND:A Little Piece of Heaven-bg.png;
#PREVIEWVID:;
#JACKET:A Little Piece of Heaven-jacket.png;
#CDIMAGE:A Little Piece of Heaven-jacket2.png;
#DISCIMAGE:;
#LYRICSPATH:;
#CDTITLE:cdtitle.png;
#MUSIC:A Little Piece of Heaven.ogg;
#OFFSET:-7.010000;
#SAMPLESTART:107.549347;
#SAMPLELENGTH:17.990000;
#SELECTABLE:YES;
#BPMS:0.000000=72.495003
,6.500000=72.500000
,7.000000=289.980011
,71.000000=72.495003
,95.000000=144.990005
,167.000000=289.980011
,179.000000=144.990005
,185.000000=289.980011
,197.000000=144.990005
,208.000000=142.500000
,209.000000=291.500000
,241.000000=143.899994
,244.000000=144.000000
,248.000000=144.990005
,256.000000=145.050003
,273.000000=72.495003
,295.000000=72.500000
,303.000000=144.990005
,376.000000=72.495003
,378.000000=144.990005
,451.000000=289.980011
,463.000000=144.990005
,469.000000=289.980011
,481.000000=144.990005
,492.000000=144.000000
,493.000000=291.000000
,525.000000=143.949997
,532.000000=144.500000
,540.000000=145.500000
,557.000000=72.495003
,564.000000=72.000000
,567.000000=74.000000
,569.000000=72.000000
,571.000000=72.495003
,578.000000=72.595001
,587.000000=144.990005
,588.000000=145.000000
,652.000000=72.500000
,658.000000=579.960022
,854.000000=36.247501
,866.000000=36.250000
,872.000000=36.247501
,878.000000=72.495003
,880.000000=144.990005
,881.000000=72.495003
,883.000000=144.990005
,884.000000=72.495003
,886.000000=144.990005
,887.000000=72.495003
,889.000000=144.990005
,890.000000=289.989990
,970.000000=144.990005
,1032.000000=72.495003
,1062.000000=144.990005
;
#STOPS:303.000000=1.250000
,378.000000=1.240000
,587.000000=1.250000
,658.000000=1.250000
,1062.000000=1.250000
;
#DELAYS:;
#WARPS:;
#TIMESIGNATURES:0.000000=4=4
;
#TICKCOUNTS:0.000000=4
;
#COMBOS:0.000000=1
;
#SPEEDS:0.000000=1.000000=0.000000=0
;
#SCROLLS:0.000000=1.000000
;
#LABELS:0.000000=Song Start
;
#BGCHANGES:-8.500=A Little Piece of Heaven.mp4=1.000=1=0=0=StretchNoLoop==CrossFade==,
99999.000=-nosongbg-=1.000=0=0=0=StretchNoLoop====,
99999=-nosongbg-=1.000=0=0=0 // don't automatically add -songbackground-
;
#KEYSOUNDS:;
#ATTACKS:
;

//---------------dance-single - ----------------
#NOTEDATA:;
#CHARTNAME:CHALLENGE;
#CHARTHASH:3807201891;
#STEPSTYPE:dance-single;
#BANNER:;
#DESCRIPTION:;
#CHARTSTYLE:;
#DIFFICULTY:Challenge;
#METER:16;
#METERF:16.000000;
#LASTSECONDHINT:460.135651;
#RADARVALUES:0.626339,1.874365,0.591921,0.623075,0.304268,2111.000000,1826.000000,285.000000,300.000000,0.000000,0.000000,0.000000,0.000000,0.000000,0.626339,1.874365,0.591921,0.623075,0.304268,2111.000000,1826.000000,285.000000,300.000000,0.000000,0.000000,0.000000,0.000000,0.000000;
#CREDIT:YonabearCWY;
#NOTES:
// measure 0
2000
0000
0001
0000
3200
0000
0010
0000
1300
0000
0100
0010
0200
0000
0000
0010
,  // measure 1
0320
0000
0001
0000
2030
0000
0010
0000
3001
1000
0001
0000
0100
0000
0000
0000
,  // measure 2
0001
0000
0010
0001
0010
0100
0010
0000
,  // measure 3
0100
0000
1000
0001
0010
0001
0100
0000
,  // measure 4
0010
0000
1000
0100
0001
0100
1000
0000
,  // measure 5
0001
0000
0010
0100
1000
0100
0010
0000
,  // measure 6
0001
0000
1000
0010
0100
0001
0100
0000
,  // measure 7
0010
0000
0100
1000
0100
0010
0100
0000
,  // measure 8
0010
0000
0100
0001
0010
0001
1000
0000
,  // measure 9
0001
0010
0100
0001
0100
0000
1000
0000
,  // measure 10
1010
0000
0100
0001
0010
0100
0010
0000
,  // measure 11
0110
0000
1000
0001
0010
0100
0010
0000
,  // measure 12
1010
0000
1000
0010
0001
0010
1000
0000
,  // measure 13
0001
0100
1000
0100
0010
0000
0110
0000
,  // measure 14
0100
0001
0010
0100
0010
0000
0011
0000
,  // measure 15
1000
0001
0010
1000
0010
0000
1010
0000
,  // measure 16
1000
0001
1000
0001
0010
0001
0010
0000
,  // measure 17
0100
0000
1000
0000
0100
0000
0001
0000
0100
0000
0000
0000
1001
2002
3003
0000
,  // measure 18
1100
2200
3300
0000
0101
0202
0303
0000
0110
0220
0330
0000
1100
0202
0303
0000
,  // measure 19
0011
2020
3030
0000
2000
0001
3001
0000
0020
0100
0130
0000
2000
0100
3001
0000
,  // measure 20
0002
0010
1003
0000
2000
0100
3100
0000
0002
0010
0013
0000
1000
0001
0011
0000
,  // measure 21
0001
0000
0100
0000
0110
0000
0000
0000
0010
1000
0010
0000
1000
0000
0100
0000
0010
0000
0100
0000
0101
0000
0000
0000
1000
0000
0100
0000
0110
0000
0000
0000
,  // measure 22
0001
0100
0001
0100
0010
0000
1000
0001
0010
0000
0001
0000
0101
0000
0000
0000
0010
0000
1000
0000
1100
0000
0000
0000
0001
1000
0001
0000
0010
0000
0100
0000
,  // measure 23
0010
0000
0100
0000
1100
0000
1000
0000
0001
0000
0100
0000
0101
0000
0010
0000
0001
0000
1000
0000
0001
1000
0010
1000
0100
0000
0000
0000
1000
0000
0000
0000
,  // measure 24
0010
0000
0001
0000
0010
0000
1000
0000
0100
1000
0100
0000
1000
0000
0001
0000
,  // measure 25
0010
0100
0010
0000
0001
0000
0010
0000
0100
0000
0010
0000
0001
1000
0001
0000
,  // measure 26
1000
0000
0100
0000
0010
0100
1000
0100
0010
0000
0100
0000
0001
0000
0100
0000
,  // measure 27
1000
0001
1000
0000
0010
0000
0001
0000
0010
0100
0010
0000
0100
0000
0001
1000
,  // measure 28
0001
1000
0100
0000
0020
0000
0001
0000
0001
0000
0000
0000
0100
0000
0100
0000
,  // measure 29
0130
0000
0000
0001
1000
0000
0010
0000
0100
0001
0100
0001
0010
0000
0001
0000
,  // measure 30
1000
0000
0010
0000
0001
0000
0010
0000
0100
0001
1000
0000
0100
0000
0010
0000
,  // measure 31
0100
0010
0001
0000
0010
0000
0100
0000
1000
0000
0001
0100
0010
0100
0010
0000
,  // measure 32
1000
0000
0100
0000
1000
0001
0010
0100
0010
0000
0100
0000
1000
0000
0100
0000
,  // measure 33
0001
0100
0010
0000
0001
0000
0100
0000
0010
0100
1000
0000
0100
0000
0001
1000
,  // measure 34
0100
0010
0100
0000
0020
0000
1000
0000
1000
0000
0000
0000
0001
0000
0001
0000
,  // measure 35
0031
0000
0000
0000
0100
0010
0100
0000
0001
0010
1000
0010
0002
0000
0100
0000
,  // measure 36
0203
0010
0320
1000
2030
0100
3200
0001
,  // measure 37
0302
1000
1003
1010
0010
0101
0100
1001
,  // measure 38
0001
0110
0010
1100
1000
1001
0002
0010
,  // measure 39
0023
0100
0230
0010
0320
1000
2030
0001
,  // measure 40
3002
0100
0103
0101
0100
1010
0010
1001
,  // measure 41
1000
0110
0010
1001
0001
0100
0001
0010
,  // measure 42
0001
0010
0001
0010
1000
0010
1000
0010
,  // measure 43
1000
0010
0100
0010
0100
0010
0100
0010
,  // measure 44
0001
1000
0100
0010
0001
0100
0110
0010
,  // measure 45
1010
0000
1000
0000
1001
0000
0001
0000
0011
0000
0100
0000
1100
0000
1000
0001
,  // measure 46
0010
0001
0100
1000
0100
1000
0100
0001
,  // measure 47
0100
0001
0100
0010
0100
0010
0100
0001
,  // measure 48
1000
0010
0001
0010
1000
0010
0100
0010
,  // measure 49
1000
0010
0011
0010
1100
0100
1001
0010
,  // measure 50
0110
0000
0100
0000
1001
0000
0010
0001
0100
0000
0010
0000
1010
0000
1010
0000
,  // measure 51
0101
0101
0011
0011
1100
1100
0110
0110
,  // measure 52
1001
1001
0101
0000
0001
0000
1001
0000
,  // measure 53
0001
0011
0001
0101
,  // measure 54
0001
1001
1000
1010
,  // measure 55
1000
1100
1000
1001
,  // measure 56
1001
0000
0110
0000
0100
1000
0001
0000
,  // measure 57
0011
0000
0001
0010
0100
0000
1100
0000
,  // measure 58
1000
0001
0010
0000
0110
0000
0100
0001
,  // measure 59
0010
1001
1001
0110
,  // measure 60
0110
0000
0000
0000
1001
0000
1000
0100
0010
0000
0100
0000
0012
0000
0000
0000
,  // measure 61
0103
0000
0001
0000
2010
0000
0000
0000
3001
0100
0010
0000
1100
0000
0100
0000
,  // measure 62
0101
0000
1002
0000
2003
0100
0001
0000
,  // measure 63
3002
0010
1000
0000
1003
0010
0001
0010
,  // measure 64
1100
0000
1000
0000
2001
0000
0000
0000
3100
0000
0010
0000
0001
0100
0001
0000
,  // measure 65
1000
0000
0010
0000
1020
0000
0000
0000
0130
0000
0001
0000
0010
0100
0010
0000
,  // measure 66
0001
0000
1000
0000
1200
0000
0000
0000
0310
0000
1000
0000
0010
0001
0010
0000
,  // measure 67
0100
0000
1000
0000
0012
0000
0000
0000
0103
0000
0001
0000
0010
0000
0100
1000
,  // measure 68
0001
0010
0100
0100
1000
1000
0001
0001
,  // measure 69
0010
0000
0010
0001
1000
0000
1000
0000
0001
0000
0001
0000
0010
0110
0000
1000
,  // measure 70
1001
0000
0010
0100
0001
0100
0000
0001
0000
0001
1000
0001
0000
0100
0000
0100
,  // measure 71
0000
0010
0000
0010
1000
0100
0000
0010
0000
0010
0001
1000
0010
1000
0000
0100
,  // measure 72
0000
0010
0001
1000
0010
0100
0010
0100
0010
0001
0010
1000
0100
0001
0100
1000
,  // measure 73
0001
0100
1000
0100
0001
0001
1000
0001
0001
2000
0000
3001
0020
0000
0000
0130
,  // measure 74
0002
0000
0103
1000
0020
0000
0100
0000
0001
0000
0100
0000
2030
0000
0001
0000
,  // measure 75
0010
0000
0100
0000
3001
1000
1000
0001
0001
0100
0100
0010
0220
0000
0330
0000
,  // measure 76
2001
0000
3100
0001
1020
0000
0130
1000
,  // measure 77
0012
0010
1000
0103
,  // measure 78
0102
0000
0013
1000
0201
0000
1300
0001
,  // measure 79
0120
0000
0000
0031
2010
0000
0000
3001
,  // measure 80
0210
0000
1300
0001
0012
0000
0103
1000
,  // measure 81
0201
0000
1300
0100
0021
0000
0130
0001
,  // measure 82
1020
1000
0130
0000
0201
0001
0310
0000
,  // measure 83
2001
0000
0010
0000
0100
0000
3001
0010
,  // measure 84
1200
0302
0023
2030
,  // measure 85
3200
0001
1000
0001
,  // measure 86
2300
3020
0032
0203
,  // measure 87
2300
0000
0000
0010
3020
0000
0000
0031
,  // measure 88
0012
0000
1003
0100
0201
0000
1300
0010
,  // measure 89
0021
0000
0130
0001
2001
0000
3010
0001
,  // measure 90
2001
0000
3100
0010
0021
0000
0230
0000
,  // measure 91
0302
2003
3200
0320
,  // measure 92
0032
0000
1000
1000
1000
0000
0010
0000
,  // measure 93
2003
0000
0001
0001
0001
0000
3010
0000
,  // measure 94
1002
0100
2003
3010
1001
0000
1000
0001
,  // measure 95
0100
0000
0010
0000
0100
0001
0100
0000
0001
0000
0010
0000
0100
1000
0100
0000
,  // measure 96
1000
0000
0001
0000
1000
0000
0010
0000
0001
0000
0010
0000
1000
0001
1000
0000
,  // measure 97
0001
0000
0100
0000
1000
0000
0100
0001
1000
0001
1000
0000
0100
0000
0010
0000
,  // measure 98
0001
0000
1000
0000
0010
0100
0010
0000
1000
0000
0001
0000
0100
0010
0100
0000
,  // measure 99
0001
0000
0010
0000
0100
1000
0100
0010
0200
0000
0000
0000
1000
0000
0000
0000
,  // measure 100
0310
0000
0010
0100
1000
0000
0001
0000
1001
0000
0000
0000
0010
0000
1000
0000
,  // measure 101
0100
0000
0010
0000
0100
0001
0100
0000
1000
0000
0001
0000
0010
0000
0100
0000
,  // measure 102
0001
1000
0001
0000
0100
0000
0010
0000
0001
0000
1000
0000
0010
0100
0010
0000
,  // measure 103
1000
0000
0001
0010
0100
0010
0100
0000
1000
0000
0010
0000
0001
0000
0010
0000
,  // measure 104
1000
0000
0010
0000
0100
0001
0100
0000
0010
1000
0010
0000
0001
0000
1000
0000
,  // measure 105
0010
0100
0010
0001
0020
0000
0000
0000
0001
0000
0000
0000
0100
0000
0100
0000
,  // measure 106
0130
0000
0000
0000
0001
1000
0100
0001
0100
0000
1001
0000
1020
0000
0100
0000
,  // measure 107
0230
0001
0302
0010
0023
1000
2030
0001
,  // measure 108
3002
0100
0103
1100
0001
0011
1000
1010
,  // measure 109
0100
0101
0001
1001
0100
0110
1020
0001
,  // measure 110
0032
0010
0023
0100
0230
1000
2300
0100
,  // measure 111
3200
0001
0301
1001
0100
0101
0010
0011
,  // measure 112
0100
1100
0001
1001
0100
0110
0001
0010
,  // measure 113
0100
0010
0100
1000
0100
0001
0100
0010
,  // measure 114
0100
1000
0001
1000
0001
0010
0001
0010
,  // measure 115
0100
1000
0001
1000
0010
0001
0110
0100
,  // measure 116
0101
0000
0001
0000
0011
0000
0010
0000
1010
0000
1000
0000
1001
0000
0010
0100
,  // measure 117
1000
0010
0100
0001
0100
1000
0100
0001
,  // measure 118
0010
1000
0010
0001
0100
0010
0001
0010
,  // measure 119
0100
0010
1000
0100
0010
0001
0100
0010
,  // measure 120
0100
0001
1001
1000
1010
0010
0011
0001
,  // measure 121
0101
0100
1100
1000
1010
0010
1001
1001
,  // measure 122
0101
0101
1010
1010
1100
1100
0011
0011
,  // measure 123
0110
0110
1010
0000
0010
0000
0011
0000
,  // measure 124
0010
0110
0010
1010
,  // measure 125
0101
0100
1100
0100
,  // measure 126
0110
0100
0101
1001
,  // measure 127
1010
0000
1100
0000
0100
0001
0010
0000
,  // measure 128
0110
0000
0010
1000
0001
0000
0101
0000
,  // measure 129
0100
0010
0001
0000
0110
0000
0001
1000
,  // measure 130
0010
1010
1000
1001
,  // measure 131
0001
0000
0201
0000
0000
0310
2010
0000
,  // measure 132
3001
0100
0021
0000
0031
1000
0010
0100
,  // measure 133
1010
0000
1002
0000
0010
0013
0200
0000
,  // measure 134
0001
0301
2000
0000
0010
3010
0001
1000
,  // measure 135
0210
0000
0301
0010
1100
0010
0102
0000
,  // measure 136
1003
0010
0101
0010
1001
0200
0000
0001
,  // measure 137
0001
0301
0010
0100
0011
1000
0120
0000
,  // measure 138
1030
0002
0010
0010
0013
0100
1000
0001
,  // measure 139
0110
1000
1001
1000
0100
0100
0010
0010
,  // measure 140
0001
0000
0001
0100
0010
0000
1000
0010
0001
0010
1000
0100
0010
0010
0001
0100
,  // measure 141
0100
0001
1000
0001
1001
0000
0010
0001
0000
0010
0000
0001
1000
0001
0000
0100
,  // measure 142
0000
0010
0000
1000
0100
1000
0000
0010
0000
0100
0001
0010
0100
1000
0100
0000
,  // measure 143
0010
0001
0100
0001
1000
0001
0011
0000
0001
0100
0110
0000
1000
0100
0001
0100
,  // measure 144
0010
0001
0010
1000
0010
0100
1000
0100
0001
0001
0000
0100
2100
0000
3001
0100
,  // measure 145
0120
0000
1030
0001
0201
0000
0010
0000
1000
0000
0301
0100
1200
0000
1000
0000
,  // measure 146
0010
0000
0001
0000
0310
0010
0100
0100
0001
0001
1000
1000
1001
0000
0000
0000
,  // measure 147
0102
0010
1003
0000
2010
0100
3001
0000
,  // measure 148
0201
2300
3020
0032
,  // measure 149
0203
0010
0301
0000
1020
0100
1030
0000
,  // measure 150
0201
0000
0000
0010
0320
0000
0000
1030
,  // measure 151
1100
0010
0001
0100
0110
0000
0011
0010
,  // measure 152
0100
1000
0101
0001
1001
0000
1010
1000
,  // measure 153
1001
0010
0100
0010
0011
0000
0100
0001
,  // measure 154
2010
3200
0302
0023
,  // measure 155
2030
0000
3200
0000
0001
0001
0001
0000
,  // measure 156
2300
3020
0032
0203
,  // measure 157
2300
3020
0001
0100
,  // measure 158
0001
0000
1000
0000
0100
0100
0100
0130
,  // measure 159
1002
0000
0000
0013
0021
0000
1030
0010
,  // measure 160
0201
0000
0000
0310
2010
0000
3001
0100
,  // measure 161
1200
0320
0032
2003
,  // measure 162
3200
0000
0320
0000
0230
0000
0301
0100
,  // measure 163
1001
0000
0010
0000
0011
0000
0001
0010
0100
0000
0010
0000
1100
0000
1000
0000
,  // measure 164
1001
0000
0001
0100
0010
0000
1000
0010
0110
0000
0000
0000
0000
0000
0000
0000
,  // measure 165
0000
0000
2020
0000
,  // measure 166
0000
0000
0000
0000
,  // measure 167
0000
0000
0000
0000
,  // measure 168
0000
0030
0002
0000
,  // measure 169
0000
0000
0000
0000
,  // measure 170
0000
0000
0000
0000
,  // measure 171
0000
3000
0200
0000
,  // measure 172
0000
0000
0000
0000
,  // measure 173
0000
0000
0000
0000
,  // measure 174
0000
0003
2000
0000
,  // measure 175
0000
0000
0000
0000
,  // measure 176
0000
0000
0000
0000
,  // measure 177
0000
0300
0020
0000
,  // measure 178
0000
0000
0000
0000
,  // measure 179
0000
0000
0000
0000
,  // measure 180
0000
3000
0002
0000
,  // measure 181
0000
0000
0000
0000
,  // measure 182
0000
0000
0000
0000
,  // measure 183
0000
0030
2000
0000
,  // measure 184
0000
0000
0000
0000
,  // measure 185
0000
0000
0000
0000
,  // measure 186
0000
0003
0002
0000
,  // measure 187
0000
0000
0000
0000
,  // measure 188
0000
0000
0000
0000
,  // measure 189
0000
3003
2200
0000
,  // measure 190
0000
0000
0000
0000
,  // measure 191
0000
0000
0000
0000
,  // measure 192
0000
3300
0022
0000
,  // measure 193
0000
0000
0000
0000
,  // measure 194
0000
0000
0000
0000
,  // measure 195
0000
0033
0220
0000
,  // measure 196
0000
0000
0000
0000
,  // measure 197
0000
0000
0000
0000
,  // measure 198
0000
0330
2002
0000
,  // measure 199
0000
0000
0000
0000
,  // measure 200
0000
0000
0000
0000
,  // measure 201
0000
3003
2020
0000
,  // measure 202
0000
0000
0000
0000
,  // measure 203
0000
0000
0000
0000
,  // measure 204
0000
3030
0202
0000
,  // measure 205
0000
0000
0000
0000
,  // measure 206
0000
0000
0000
0000
,  // measure 207
0000
0303
0022
0000
,  // measure 208
0000
0000
0000
0000
,  // measure 209
0000
0000
0000
0000
,  // measure 210
0000
0033
2200
0000
,  // measure 211
0000
0000
0000
0000
,  // measure 212
0000
0000
0000
0000
,  // measure 213
0000
0000
0000
0000
3300
0000
0000
0000
1002
0100
0100
0023
0100
1000
0230
0001
,  // measure 214
0010
0000
2300
0000
3001
0100
0001
0000
0012
0000
0100
0000
0100
0000
0023
0000
1000
0000
0001
0000
0230
0000
0010
0000
1000
0000
0001
0000
1300
0100
0010
0001
,  // measure 215
1002
0000
0010
0010
0013
0000
0021
0000
0100
0100
0130
0000
2001
0000
0010
0010
3010
0000
0201
0000
1000
0000
0310
0100
0002
0000
1000
1000
1003
0000
0210
0000
,  // measure 216
0001
0001
0301
0000
0120
0000
1000
0000
0001
0000
2030
0000
0100
0000
3010
0000
0110
0100
1000
0100
0010
0001
0100
0010
1000
0001
0010
0100
0010
0100
1000
0001
,  // measure 217
1000
0010
0001
0010
0100
0000
0010
0100
0101
0000
0010
0001
1000
0010
0001
0010
1000
0100
0010
0100
0001
0100
1000
0100
0010
0100
0001
0010
0100
1000
0001
1000
,  // measure 218
1100
0100
0000
1001
0000
0010
0021
0000
0001
0000
0130
0000
0020
0000
0031
1000
0011
0000
0120
0000
1030
0001
1010
0000
2001
0000
0010
0010
3010
0000
1002
0000
,  // measure 219
0100
0100
0103
0000
1001
0000
1100
0000
0110
0000
0011
0000
1001
0000
0100
0010
0201
0000
0000
0000
1000
0000
0000
0000
0010
0000
0000
0000
1000
0000
0000
0000
,  // measure 220
0310
0100
0021
0001
1000
0001
1030
0010
,  // measure 221
2001
0100
0010
0100
3010
1000
1002
0010
,  // measure 222
0100
0010
0103
0001
0010
0100
0010
0100
,  // measure 223
1000
0100
0001
0100
1000
0001
0100
1000
,  // measure 224
0100
0001
0100
0010
0001
0010
0100
0010
,  // measure 225
0100
0001
1000
0100
0010
0001
1000
0001
,  // measure 226
0010
0100
0001
0100
0010
0001
1000
0001
,  // measure 227
1000
0100
0010
1000
0001
1000
0010
0100
,  // measure 228
1000
0001
1000
0010
0001
1000
0001
0010
,  // measure 229
1000
0100
0001
1000
0001
0100
1000
0100
,  // measure 230
0001
0100
1000
0010
0001
0010
1000
0010
,  // measure 231
0001
0100
0010
0100
0001
0010
0001
1000
,  // measure 232
0010
1000
0100
0001
1000
0001
0100
0010
,  // measure 233
0100
1000
0010
0001
1000
0001
0010
0100
,  // measure 234
0001
0100
0010
0001
0010
0100
1000
0001
,  // measure 235
1000
0100
0010
0001
0100
0010
1000
0001
,  // measure 236
0010
0100
1000
0001
1000
0100
0010
0001
,  // measure 237
1000
0001
0010
0100
1000
0010
0001
0010
,  // measure 238
1000
0001
0010
1000
0010
0001
0101
0000
,  // measure 239
0001
1000
1010
0000
1000
0001
0101
0000
,  // measure 240
0010
0100
1100
0000
0100
0001
0011
0000
,  // measure 241
0001
1000
0110
0000
1000
0001
0110
0000
,  // measure 242
0001
1000
0100
0010
1002
0000
0100
0000
,  // measure 243
0010
0000
0100
0000
0023
0000
0032
0023
,  // measure 244
2030
0000
3200
0000
0302
0000
0000
1000
,  // measure 245
2003
0000
0000
0010
3020
0000
0001
0001
,  // measure 246
0031
0100
1000
0000
0120
0000
0032
0000
,  // measure 247
0203
0000
2300
0000
3020
0000
0031
0100
,  // measure 248
1000
0100
0001
0000
0210
0000
0302
0000
,  // measure 249
0023
0000
2030
0000
3100
0100
0110
0000
,  // measure 250
2001
0000
0000
0010
3020
0000
0001
0000
,  // measure 251
0230
0000
0001
0001
0000
1000
1000
0000
,  // measure 252
0320
0032
0203
2300
,  // measure 253
3020
0032
2003
3100
,  // measure 254
1002
0000
0000
0100
0203
0000
1000
0000
,  // measure 255
0320
0000
1000
1000
0000
0001
0001
0000
,  // measure 256
0230
0302
0023
2030
,  // measure 257
3200
0000
0302
0000
2003
0000
3001
1000
,  // measure 258
1001
0000
0001
0000
0010
0000
0010
0000
0100
0000
0100
0000
1000
0000
1000
0001
,  // measure 259
0020
0000
0100
0000
0032
0000
1000
0000
0013
0001
0001
1000
0010
0010
1000
0100
,  // measure 260
0012
0000
1003
0010
1000
0000
0100
0010
0001
0200
0000
0310
0000
1000
0001
1000
,  // measure 261
0010
0200
0000
0001
0000
0310
0100
0001
1000
0001
0010
0100
1000
0000
0010
1000
,  // measure 262
1010
0000
0100
0001
0011
0000
0010
0100
1100
0000
1000
0001
0110
0000
0001
1000
,  // measure 263
0100
0100
0010
0001
0100
0100
0000
0001
2001
0000
0100
3100
0210
0000
0010
0310
,  // measure 264
0012
1003
2100
3001
0120
1000
0001
1030
,  // measure 265
0100
0100
0010
0010
0001
0001
1000
1000
1001
0000
0000
0000
0100
0000
0001
0000
,  // measure 266
0020
0000
1000
0000
0031
0010
0200
0000
,  // measure 267
2300
3020
0032
0203
,  // measure 268
1300
0100
0002
0000
0023
0000
2030
0000
,  // measure 269
3200
0000
0302
0000
0000
0013
0021
0000
,  // measure 270
0031
1000
2010
0000
3001
0100
0120
0000
,  // measure 271
1030
0100
0201
0000
1300
0001
1002
0000
,  // measure 272
0100
0100
0100
0000
0010
0010
0023
0000
,  // measure 273
0230
2300
3002
0203
,  // measure 274
0010
0010
0010
0000
1000
1000
2300
0000
,  // measure 275
3020
0000
0032
0000
2003
0000
0100
0100
,  // measure 276
0100
0000
0001
0001
0001
0000
0010
0010
,  // measure 277
3010
0000
1002
0000
0103
0001
0021
0000
,  // measure 278
0100
0100
0100
0000
0001
0031
2001
0000
,  // measure 279
0010
0010
0010
0000
0100
3100
1002
0000
,  // measure 280
0023
2030
3200
0302
,  // measure 281
0023
0230
0302
0023
,  // measure 282
0230
2300
3200
0320
,  // measure 283
2030
3200
0320
0032
,  // measure 284
2003
0000
3001
0010
0100
1000
2002
0000
,  // measure 285
0000
0000
0000
0000
,  // measure 286
0000
0000
3003
0000
;
