#TITLE:5-10;
#SUBTITLE:;
#ARTIST:good-cool ft. 近藤葵;
#TITLETRANSLIT:;
#SUBTITLETRANSLIT:;
#ARTISTTRANSLIT:good-cool ft. AOI KONDO;
#GENRE:ROCK;
#CREDIT:YonabearCWY;
#BANNER:5-10.png;
#BACKGROUND:5-10-bg.png;
#LYRICSPATH:;
#CDTITLE:GUITAR FREAKS & drummania.png;
#MUSIC:5-10.ogg;
#OFFSET:-9.200000;
#SAMPLESTART:34.584610;
#SAMPLELENGTH:15.000000;
#SELECTABLE:YES;
#BPMS:0.000000=118.000000
;
#STOPS:
;
#BGCHANGES:0.000=5-10.mp4=1.000=1=0=0=StretchNoLoop==CrossFade==,
191.000=5-10-bg.png=1.000=0=0=1=====,
99999.000=-nosongbg-=1.000=0=0=0=StretchNoLoop====,
99999=-nosongbg-=1.000=0=0=0 // don't automatically add -songbackground-
;
#KEYSOUNDS:;
#ATTACKS:;

//---------------dance-single - ----------------
#NOTES:
     dance-single:
     BASIC:
     Easy:
     6:
     0.255654,0.311545,0.354187,0.242338,0.004660,192.000000,154.000000,38.000000,26.000000,0.000000,0.000000,0.255654,0.311545,0.354187,0.242338,0.004660,192.000000,154.000000,38.000000,26.000000,0.000000,0.000000:
0000
0000
1000
1000
,
0000
0000
0001
0001
,
0000
0000
1000
1000
,
1000
1000
1001
1001
,
0110
0110
2002
3003
,
0010
0100
0001
0000
,
0001
0000
1000
1000
,
0001
0001
1001
1001
,
0220
0330
2002
3003
,
0010
1000
0100
0000
,
0010
0000
0001
0001
,
1000
1000
0110
0110
,
2002
3003
0010
0010
,
0010
0010
0100
0100
,
0100
0100
1001
2002
,
0000
3003
0110
0220
,
0000
0330
1000
1000
,
1000
1000
0001
0001
,
0001
0001
1010
2020
,
0000
3030
0101
0101
,
0202
0303
0010
0010
,
0010
0010
0001
0001
,
0001
0001
1000
1000
,
1000
1000
0001
0100
,
0010
0100
1000
1000
,
1000
1000
0100
0100
,
0100
0100
0001
0001
,
0001
0001
0100
0010
,
0001
1000
0001
0101
,
1000
1010
0100
0000
,
0100
0000
0010
1001
,
0010
0110
2002
0000
,
0000
3003
0010
0220
,
0000
0330
1000
1000
,
0001
0001
1000
0000
,
1000
0010
0100
0000
,
0001
0100
0010
0010
,
1000
1000
0100
0100
,
0001
0001
0100
0100
,
1000
1000
0101
0101
,
1010
1010
2001
0000
,
3001
0100
0120
0000
,
1030
1001
0102
0000
,
0013
1000
2010
0000
,
3001
1001
0100
0100
,
0010
0010
1000
0001
,
0010
0000
0000
0000
0100
0000
0000
2001
0000
0000
0000
0000
0000
0000
0000
0000
,
3002
0000
0000
0003
;

//---------------dance-single - ----------------
#NOTES:
     dance-single:
     DIFFICULT:
     Medium:
     10:
     0.420763,0.445064,0.493997,0.093207,0.083886,316.000000,263.000000,53.000000,10.000000,0.000000,0.000000,0.420763,0.445064,0.493997,0.093207,0.083886,316.000000,263.000000,53.000000,10.000000,0.000000,0.000000:
0000
0000
0000
0000
0000
0000
0000
1001
0000
0000
1000
0000
0010
0000
0000
0000
,
0100
0000
0001
0000
0100
0000
0000
1001
0000
0000
0001
0000
0010
0000
0000
0000
,
0100
0000
1000
0000
0100
0000
0000
1001
0000
0000
0100
0000
0010
0000
0100
0000
,
0010
0010
0100
0100
1001
0000
0010
0001
,
0110
0110
1001
0000
1100
0000
0101
0000
,
0010
0100
0010
0000
0100
0000
1000
0000
,
0001
0010
0001
0000
1000
0000
0010
0000
,
0100
0000
0001
0000
0010
0100
0010
0000
,
0100
0100
0100
0000
0011
0000
1010
0000
,
0100
0001
0100
0000
0001
0000
0010
0000
,
0100
1000
0100
0000
1000
0001
1000
0001
,
0010
0100
0010
0100
1000
0001
1000
0000
,
0010
0010
0010
0000
1100
0000
0101
0000
,
0011
0000
1010
0000
1000
0001
1000
0000
,
0001
0000
1000
0000
0001
0000
0100
0000
0000
0101
0000
0000
0021
0000
0000
0000
,
0100
0000
0100
0000
0100
0000
0130
0000
0000
1100
0000
0000
2001
0000
0000
0000
,
0010
0010
3010
0000
0101
0000
1010
0000
,
1100
0000
0011
0000
1000
0001
0010
0100
,
0010
0000
0100
0000
1000
0000
0001
0000
0000
1001
0000
0000
0210
0000
0000
0000
,
0001
0000
0001
0000
0001
0000
0301
0000
0000
1001
0000
0000
0110
0000
0000
2002
,
0000
0000
0000
3003
0000
1000
0000
1000
,
0000
0001
0000
0001
0010
0100
0000
0100
,
0000
0010
0000
0010
0001
1000
0000
1010
,
0000
0100
0000
0101
0000
0010
0000
0011
,
0000
1000
0001
1000
0000
0010
0000
0010
,
0000
1000
0000
1000
0001
0100
0000
0100
,
0000
0001
0000
0001
0010
1000
0000
0011
,
0000
1010
0000
0101
0000
1100
0000
0010
,
0100
0010
1000
0001
0010
0010
0010
0000
,
0100
0100
0100
0000
1001
0000
0110
0000
,
1000
1000
1000
0000
0001
0100
0001
0000
,
0100
0001
0100
0000
0010
0010
0010
0000
,
1000
0000
0001
0000
1000
0000
0000
0101
0000
0000
0001
0000
2000
0000
0000
0000
,
0000
0010
0010
0000
0100
0000
3002
0000
,
1000
0000
0023
0000
0031
0100
0001
0000
,
1000
0010
1000
0000
0100
0010
0100
0010
,
0001
0000
1000
0000
0010
0000
0000
1010
0000
0000
1000
0000
0001
0000
0000
0000
,
0010
0000
0100
0000
0010
0000
0000
0011
0000
0000
0001
0000
1000
0000
0000
0000
,
0100
0000
0010
0000
0100
0000
0000
1010
0000
0000
0001
0000
0100
0000
0000
0000
,
0010
1000
0010
0000
1000
1000
0001
0001
,
0100
0010
0100
0010
1000
0001
0010
0000
,
0100
0000
1000
0000
0001
0000
0000
0101
0000
0000
0000
1010
0000
0000
0010
0000
,
0110
0110
1001
0000
0100
0010
0001
0000
,
1000
0000
0100
0000
0010
0000
0000
0011
0000
0000
0000
1010
0000
0000
0001
0000
,
1001
1001
0110
0000
1000
0001
0010
0100
,
1000
0000
0001
0000
1000
0000
0000
0101
0000
0000
0010
0000
1000
0000
0100
0000
,
0010
0000
0010
0000
0010
0000
0000
2001
0000
0000
0000
0000
0000
0000
0000
0000
,
3002
0000
0000
0003
;

//---------------dance-single - ----------------
#NOTES:
     dance-single:
     EXPERT:
     Hard:
     13:
     0.567232,0.556330,0.307583,0.242338,0.517299,426.000000,393.000000,33.000000,26.000000,0.000000,0.000000,0.567232,0.556330,0.307583,0.242338,0.517299,426.000000,393.000000,33.000000,26.000000,0.000000,0.000000:
0000
0000
0000
0000
0000
0000
0000
1001
0000
0001
0010
0000
0200
0000
0000
0000
,
1300
0000
0001
0000
1000
0000
0010
1000
0000
1000
0100
0000
2001
0000
0000
0000
,
3010
0000
0100
0000
0001
0010
0000
0110
0000
0100
1000
0000
0020
0000
0000
0000
,
0130
0000
0001
0000
1000
0000
0001
0010
0001
0000
1000
0000
0010
1000
0000
1000
,
0100
0000
0011
0000
0002
2000
3003
0000
1010
0000
0000
0000
1001
0000
0000
0000
,
0100
0000
0010
0000
0100
0000
0001
0100
0000
0000
0010
0000
1000
0000
0100
0020
,
0000
0000
0001
0000
0031
1000
0000
0000
0010
0000
0001
0000
0010
0000
1000
0000
,
0010
0000
0100
0000
0001
0000
0010
0001
0010
0000
0001
0000
1000
0100
0000
0000
,
0010
0001
0010
0100
0010
0100
0000
0000
1001
0000
0000
0000
0011
0000
0000
0000
,
1000
0000
0010
0000
0100
0000
0001
0010
0001
0000
1000
0000
1000
0000
0001
0100
,
0000
0000
1010
0000
0102
0000
0000
0000
1003
0000
0100
0000
0010
0000
0001
1000
,
0000
1000
0001
0000
0010
0000
0100
1000
0100
0000
0010
0000
0001
0100
0000
0000
,
0010
1000
0100
1000
0100
0020
0000
0000
0031
0000
0000
0100
1000
0000
0000
0001
,
0100
0000
0001
0000
0100
0010
0000
0010
1000
0000
0000
0001
0010
0000
0000
0100
,
1000
0000
0100
0000
0010
0001
0000
0001
1000
0001
0000
0000
2001
0000
0000
0000
,
3100
0010
0100
0000
1000
0000
0001
0000
0010
0100
0000
0000
1002
0000
0000
0000
,
0103
0001
0100
0001
0010
0001
0010
0000
0100
0000
0000
1000
0010
0000
0000
0100
,
0001
0000
0010
0000
0001
0010
0000
0010
0100
0000
1000
0000
0001
0000
1000
0000
,
0010
0100
0010
0000
0100
0001
0000
0001
0010
0100
0000
0000
2100
0000
0000
0000
,
3001
0000
0100
0010
0100
0000
0001
0000
0000
1001
0000
0100
0010
0000
0200
0020
,
0000
0000
0000
0330
1000
0001
0010
1000
,
0010
0000
0001
0000
0100
0000
0010
2000
0000
0000
3100
0000
0001
0000
1000
0000
,
0010
0000
0001
0000
0010
0000
1000
0001
1000
0000
0010
0000
0001
0000
0010
0000
,
1000
0000
0001
0000
0100
0000
1000
0001
0000
1000
0001
0000
0010
0000
0100
0000
,
1000
0000
0001
0000
0010
0002
0000
0000
0103
0000
0001
0000
0010
0000
1000
0000
,
0010
0000
0001
0000
1000
0000
0100
0020
0000
0000
0031
0000
1000
0010
1000
0000
,
0001
0000
0100
0000
0001
0000
1000
0010
1000
0000
0001
0000
0010
0000
1000
0000
,
0100
0000
1000
0000
0010
0000
0001
1000
0000
0001
0100
0000
0000
0010
1000
0000
,
0000
0100
0010
0001
0010
0001
1000
0000
1001
0000
0001
0000
0010
0000
1000
0001
,
1000
0010
0001
1000
1001
0001
0200
0000
,
0310
1000
0000
0100
0000
1000
0001
1000
0001
1000
0000
0010
0000
0000
1000
0001
,
0000
0010
0000
0001
1000
0000
0110
0000
1001
0000
1000
0010
0100
0001
0000
0010
,
0100
0000
1100
0000
1000
0001
0000
1002
0000
0000
0013
0000
0200
0000
0000
0000
,
0001
0000
0000
0000
1300
0100
0000
1000
0002
0000
0000
0000
0010
0000
0000
0000
,
0103
0000
0001
0000
0010
0001
0000
2001
0000
0000
0010
0000
0010
0000
0000
0000
,
0100
0000
3001
1000
1100
0000
0011
0000
,
0100
0000
0100
0000
0001
1000
0000
1000
0010
0000
0001
0000
0010
0000
1000
0000
,
0010
0000
0100
0000
0010
0100
0000
0100
1000
0000
0100
0000
0001
0000
0100
0000
,
0010
0000
0001
0000
0010
0000
0100
0001
0100
0000
0001
0000
0010
0000
1000
0000
,
0010
0000
0001
0000
1000
0000
0100
0000
0010
0001
0010
0001
1000
0001
1000
0001
,
0010
0000
0010
0000
0001
2000
0000
0000
3100
0000
1000
0000
0001
0000
0100
0000
,
0010
0000
0001
0000
1000
0000
0000
0110
0000
0000
0001
0010
0000
0010
0100
0000
,
1010
0011
2010
0000
3001
1000
0100
0010
,
1000
0000
0001
0000
0100
0000
0000
1001
0000
0000
0100
1000
0000
1000
0010
0000
,
0101
0000
1100
0000
0102
0000
0000
0000
0013
0001
0010
0000
0001
1000
0001
0000
,
0100
0000
0100
0000
0010
1000
0000
1100
0000
1000
0001
0000
0010
0000
0001
0100
,
0001
0000
0010
0000
0100
1000
0000
1002
0000
0000
0000
0000
0000
0000
0000
0000
,
2003
0000
0000
3000
;

//---------------dance-single - ----------------
#NOTES:
     dance-single:
     CHALLENGE:
     Challenge:
     15:
     0.777613,0.778862,0.633808,0.251659,1.025278,584.000000,516.000000,68.000000,27.000000,0.000000,0.000000,0.777613,0.778862,0.633808,0.251659,1.025278,584.000000,516.000000,68.000000,27.000000,0.000000,0.000000:
0000
0000
0000
0000
0000
0000
0000
1001
0000
1000
0010
0000
0200
0000
0000
0000
,
0301
0000
0010
0000
0100
1000
0000
1001
0000
0100
0001
0000
2000
0000
0000
0000
,
3100
0010
0100
0010
0001
1000
0000
0110
0000
0001
0010
0000
0010
0100
0000
1100
,
0000
1000
0010
0100
0001
0100
0001
0010
0000
0100
1000
0100
0010
0001
0000
1000
,
1010
0000
0110
0000
0001
2001
0000
0000
3100
0000
0101
0000
1000
0000
1010
0000
,
0001
0000
0011
0000
1000
0000
1100
0000
0010
0000
0100
0000
0001
0010
0001
2000
,
0000
0000
0010
0000
3020
0000
0000
0000
0130
0001
0100
0001
0010
0001
0010
0100
,
1000
0100
1000
0001
0010
0001
0000
0101
0000
1000
0010
1000
0001
0100
0000
0100
,
0010
1000
0100
0001
0100
2000
0000
0000
3010
0000
1010
0000
0100
0000
0101
0000
,
0010
0000
1001
0000
1000
0000
0110
0000
0001
0000
0010
0100
1000
0100
0010
0002
,
0000
0000
1000
0000
2003
0000
0000
0000
3010
1000
0100
0010
0100
1000
0001
0010
,
1000
0010
0001
0100
0010
0100
0000
0100
0001
0010
0001
1000
0010
1000
0000
0001
,
0010
0000
0001
0000
0010
0000
0001
0000
0000
1000
0000
0000
0010
0000
0000
1000
0000
0000
0000
0000
0000
1000
0000
0000
1001
0000
0000
0000
0000
0000
0001
0000
0000
0010
0000
0000
0001
0000
0000
0000
0000
0000
1000
0000
0000
0001
0000
0000
,
1000
0001
0000
1000
0001
0000
0010
0000
0100
1000
0100
0000
0010
0001
0010
0000
,
0001
1000
0001
1000
0001
0100
0000
0100
0010
0100
0000
0001
2001
0000
0000
0000
,
3100
0010
0000
0010
0001
1000
0001
1000
0100
0010
0000
0100
1200
0000
0000
0000
,
1300
0001
1000
0001
0010
0001
0010
0000
1010
0000
0100
0001
0100
0000
0010
0100
,
0010
0100
0000
0010
0100
0000
0001
1000
0010
0000
1000
0000
0100
0010
0000
0010
,
0001
0000
1000
0000
0010
0100
0010
0100
0001
0100
0000
0001
0020
0000
0000
0000
,
0130
1000
0000
0001
1000
0010
1000
0001
0000
0110
0000
1000
0001
0000
0002
2000
,
0000
0000
3003
0000
1000
1010
0010
0110
,
0100
0000
0101
0000
0001
0000
2000
0001
0000
0000
3001
0000
0101
0000
0100
0000
,
0110
0000
0010
0000
1010
0000
0010
0100
0001
0000
0101
0000
0100
0000
1100
0000
,
1000
0000
1001
0000
0001
0000
1000
0001
0010
0000
0100
1000
0100
0000
0010
0001
,
0010
0001
0000
1000
0010
1000
0001
0010
0100
0000
1100
0000
0010
0000
0011
0000
,
1000
0000
1010
0000
0001
0000
0200
0001
0000
0000
0310
0000
1010
0000
0100
0000
,
0101
0000
1000
0000
1001
0000
0010
1000
0100
0000
1000
0001
1000
0000
0001
0010
,
0001
0010
0000
0100
1000
0100
0010
0001
0010
0001
1000
0010
1000
0010
0100
0001
,
0100
0010
0000
0100
0001
0010
0100
1000
0100
0000
1000
0000
0001
0000
1000
0000
,
0010
0000
0100
0001
0000
0001
0010
0000
0100
0000
1000
0000
0010
0000
1000
0000
,
0001
1000
0000
0010
1000
0100
0010
0001
1000
1000
0000
0101
0000
0000
1000
1000
,
0000
0000
0000
0011
0000
0000
0000
0000
0000
0001
0000
0000
1000
0000
0000
0000
0000
0000
0110
0000
0000
0000
0000
0000
1001
0000
0000
0000
0000
0000
0001
0000
0010
0000
0001
0000
0010
0000
0000
0100
0000
0000
1000
0000
0000
0001
0000
0000
,
0101
0000
0101
0000
0001
1001
0000
0120
0000
0000
1030
0000
1020
0000
0000
0000
,
0001
0000
0000
0000
0130
0010
0000
0010
2000
0000
0000
0000
3001
0100
0010
1000
,
0100
0010
0001
0100
0001
0010
0000
0210
0000
0000
1300
0001
0010
0001
0100
0001
,
0010
0000
0000
0001
0000
0000
1000
0000
0000
0010
0000
0000
1000
0000
0000
0100
0000
0000
1000
0000
0000
0001
0000
0000
1000
0000
0001
0000
1000
0000
0001
0000
0000
0010
0000
0000
0100
0000
0000
1000
0000
0000
0010
0000
0000
1000
0000
0000
,
1001
0000
0000
0000
0000
0000
1001
0000
0000
0000
0000
0000
0100
0000
0000
0010
0000
0000
0000
0000
0000
0010
0000
0000
1000
0000
0100
0000
1000
0000
0100
0000
0000
0010
0000
0000
0001
0000
0000
1000
0000
0000
0001
0000
0000
1000
0000
0000
,
0010
0000
0100
0000
0010
0000
0100
0000
0000
0000
0000
0000
0001
0000
0000
0010
0000
0000
0000
0000
0000
0010
0000
0000
0100
0000
1000
0000
0100
0000
1000
0000
0000
0001
0000
0000
0100
0000
0000
0001
0000
0000
0010
0000
0000
0001
0000
0000
,
1000
0000
0001
0000
1000
0000
0001
0000
0000
0100
0000
0000
0010
0000
0000
1000
0000
0000
0000
0000
0000
1000
0000
0000
0100
0000
0010
0000
0100
0000
0010
0000
0000
0000
0000
0000
0001
0000
1000
0000
0001
0000
1000
0000
0000
0000
0000
0000
,
0100
0000
0001
0000
0100
0000
0001
0000
0000
0000
0000
0000
0100
0000
1000
0000
0100
0000
1000
0000
0000
0010
0000
0000
0100
0000
0000
0001
0000
0000
0100
0000
0000
1000
0000
0000
0100
0000
0000
0001
0000
0000
0100
0000
0000
0010
0000
0000
,
1001
0000
1001
0000
0010
0200
0000
0000
1300
0000
1010
0000
0001
0000
0011
0000
,
1000
0000
1100
0000
0110
0000
0001
2000
0000
0000
3100
0010
0000
0010
0001
0000
,
0011
1010
0012
0000
0013
1010
0100
0101
,
0010
0000
0011
0000
1001
0000
1000
0002
0000
0000
0013
0100
0000
0100
1000
0100
,
0101
0000
1100
0000
0201
0000
0000
0000
1300
0010
0001
0010
1000
0100
0001
0100
,
1100
0000
1100
0000
1000
0001
0000
1001
0000
0010
0100
1000
0100
0010
0001
1000
,
0001
0000
1000
0000
0001
0000
1000
0000
0001
0000
1000
0000
0100
0000
0000
0010
0000
0000
0000
0000
0000
2002
0000
0000
0000
0000
0000
0000
0000
0000
0000
0000
0000
0000
0000
0000
3000
0000
0000
0000
0000
0000
0000
0000
1003
0000
0100
0000
,
0010
0002
0000
0000
0000
0000
0000
0000
0000
0000
0000
0000
0000
0000
0000
0000
0000
0000
0003
0000
0000
0000
0000
0000
;

//---------------dance-single - ----------------
#NOTES:
     dance-single:
     BEGINNER:
     Beginner:
     3:
     0.142474,0.222532,0.121169,0.018641,0.004660,107.000000,94.000000,13.000000,2.000000,0.000000,0.000000,0.142474,0.222532,0.121169,0.018641,0.004660,107.000000,94.000000,13.000000,2.000000,0.000000,0.000000:
// measure 0
0000
0000
1000
1000
,  // measure 1
0000
0000
0001
0001
,  // measure 2
0000
0000
1000
1000
,  // measure 3
0000
0000
1001
0000
,  // measure 4
0010
0010
0110
0000
,  // measure 5
0100
0000
0100
0000
,  // measure 6
0000
0000
0001
0001
,  // measure 7
0001
0001
0001
0000
,  // measure 8
0000
0000
1001
0000
,  // measure 9
0100
0100
0110
0000
,  // measure 10
0010
0000
1000
1000
,  // measure 11
1000
1000
1000
0000
,  // measure 12
0001
0000
1000
0000
,  // measure 13
1000
0000
1000
0000
,  // measure 14
0000
0000
0000
1001
,  // measure 15
0000
0000
0000
1001
,  // measure 16
0000
0000
0001
0000
,  // measure 17
0001
0000
0001
0000
,  // measure 18
0000
0000
0000
0110
,  // measure 19
0000
0000
0000
0000
,  // measure 20
0110
0000
1000
0000
,  // measure 21
1000
0000
0001
0000
,  // measure 22
0001
0000
0010
0000
,  // measure 23
0010
0000
0100
0000
,  // measure 24
0100
0000
1000
0000
,  // measure 25
1000
0000
0001
0000
,  // measure 26
0001
0000
1000
0000
,  // measure 27
0100
0000
0010
0000
,  // measure 28
0001
0000
1001
0000
,  // measure 29
0010
0010
0110
0000
,  // measure 30
0100
0100
0110
0000
,  // measure 31
0000
0000
1000
1000
,  // measure 32
0001
0001
1001
0000
,  // measure 33
0000
0000
0010
0000
,  // measure 34
0010
0000
0010
0000
,  // measure 35
0000
0000
0100
0000
,  // measure 36
0100
0000
0100
0000
,  // measure 37
0010
0000
1000
0000
,  // measure 38
0001
0000
1000
0000
,  // measure 39
0001
0000
1000
0000
,  // measure 40
0000
0000
0001
0001
,  // measure 41
0001
0001
0001
0000
,  // measure 42
0000
0000
1000
1000
,  // measure 43
1000
1000
1000
0000
,  // measure 44
0000
0000
0010
0000
,  // measure 45
0010
0000
0100
0000
,  // measure 46
0100
0000
0000
0000
0000
0000
0000
2001
0000
0000
0000
0000
0000
0000
0000
0000
,  // measure 47
3002
0000
0000
0003
;
