#VERSION:0.83;
#TITLE:2.14.13;
#SUBTITLE:;
#ARTIST:dj nagureo;
#TITLETRANSLIT:;
#SUBTITLETRANSLIT:;
#ARTISTTRANSLIT:;
#GENRE:TECHNO;
#ORIGIN:;
#TAGS:;
#CREDIT:YonabearCWY;
#BANNER:2.14.13.png;
#BACKGROUND:2.14.13-bg.png;
#PREVIEWVID:;
#JACKET:2.14.13-jacket.png;
#CDIMAGE:;
#DISCIMAGE:;
#LYRICSPATH:;
#CDTITLE:Beatmania.png;
#MUSIC:2.14.13.ogg;
#OFFSET:0.000000;
#SAMPLESTART:44.295689;
#SAMPLELENGTH:15.000000;
#SELECTABLE:YES;
#BPMS:0.000000=130.000000
,128.000000=65.000000
,136.000000=130.000000
,168.000000=65.000000
;
#STOPS:;
#DELAYS:;
#WARPS:;
#TIMESIGNATURES:0.000000=4=4
;
#TICKCOUNTS:0.000000=4
;
#COMBOS:0.000000=1
;
#SPEEDS:0.000000=1.000000=0.000000=0
;
#SCROLLS:0.000000=1.000000
;
#LABELS:0.000000=Song Start
;
#BGCHANGES:16.000=moon1.mp4=1.000=1=0=1===CrossFade==,
24.000=rotation3.mp4=1.000=0=0=1=====,
32.000=cube3.mp4=1.000=0=0=1=====,
40.000=bracelet1.mp4=1.000=0=0=1=====,
48.000=film7.mp4=1.000=0=0=1=====,
56.000=rain2.mp4=1.000=0=0=1=====,
64.000=laser1.mp4=1.000=0=0=1=====,
72.000=light6.mp4=1.000=0=0=1=====,
80.000=wind1.mp4=1.000=0=0=1=====,
88.000=light1.mp4=1.000=0=0=1=====,
96.000=film7.mp4=1.000=0=1=1=StretchRewind====,
104.000=rain2.mp4=1.000=0=1=1=StretchRewind====,
112.000=rotation3.mp4=1.000=0=1=1=StretchRewind====,
120.000=snow4.mp4=1.000=0=0=1=====,
128.000=light6.mp4=0.700=0=1=1=StretchRewind====,
132.000=light5.mp4=0.700=0=0=1=====,
136.000=light5.mp4=1.000=0=0=1=====,
144.000=laser1.mp4=1.000=0=1=1=StretchRewind====,
152.000=wind1.mp4=1.000=0=1=1=StretchRewind====,
160.000=film7.mp4=1.000=0=1=1=StretchRewind====,
168.000=fireworks2.mp4=0.700=0=0=1=====,
172.000=rain2.mp4=0.700=0=0=1=====,
174.000=fireworks2.mp4=0.700=0=0=1=====,
176.000=rain2.mp4=0.700=0=0=1=====,
178.000=fireworks2.mp4=0.700=0=0=1=====,
180.000=rain2.mp4=0.700=0=0=1=====,
182.000=2.14.13-bg.png=1.000=0=0=1=====,
99999.000=-nosongbg-=1.000=0=0=0=StretchNoLoop====,
99999=-nosongbg-=1.000=0=0=0 // don't automatically add -songbackground-
;
#KEYSOUNDS:;
#ATTACKS:
;

//---------------dance-single - ----------------
#NOTEDATA:;
#CHARTNAME:BEGINNER;
#CHARTHASH:2147483647;
#STEPSTYPE:dance-single;
#BANNER:;
#DESCRIPTION:;
#CHARTSTYLE:;
#DIFFICULTY:Beginner;
#METER:1;
#METERF:1.000000;
#LASTSECONDHINT:97.846146;
#RADARVALUES:0.000000,0.000000,0.000000,0.000000,0.000000,0.000000,0.000000,0.000000,0.000000,0.000000,0.000000,0.000000,0.000000,0.000000,0.000000,0.000000,0.000000,0.000000,0.000000,0.000000,0.000000,0.000000,0.000000,0.000000,0.000000,0.000000,0.000000,0.000000;
#CREDIT:YonabearCWY;
#NOTES:
0000
0000
0000
0000
,
0000
0000
0000
0000
,
0000
0000
0000
0000
,
0000
0000
0000
0000
,
1000
0000
0000
0000
,
1000
0000
0000
0000
,
0001
0000
0000
0000
,
0001
0000
0000
0000
,
1000
0000
0000
0000
,
1000
1000
1000
0000
,
0001
0000
0000
0000
,
0001
0001
0001
0000
,
1000
0000
0100
0000
,
1000
0000
0100
0000
,
1000
0000
0000
0000
,
0001
0000
0000
0000
,
0001
0000
0000
0000
,
0001
0001
0001
0000
,
1000
0000
0000
0000
,
1000
1000
1000
0000
,
0001
0000
0000
0000
,
0000
0000
0100
0100
,
0100
0000
0000
0000
,
0000
0000
0000
0000
,
0010
0000
0100
0000
,
0010
0000
0100
0000
,
0010
0000
0000
0000
,
1000
1000
1000
1000
,
1000
0000
0000
0000
,
0001
0001
0001
0001
,
0001
0000
0000
0000
,
1000
1000
1000
1000
,
0000
0000
0000
0000
,
0001
1000
0001
1000
,
0001
0000
0001
0000
,
0001
0000
0000
0000
,
1000
0000
1000
0000
,
1000
0000
0000
0000
,
0010
0000
0010
0000
,
0010
0000
0000
0000
,
0100
0000
0100
0000
,
0100
0000
0000
0000
,
1000
0001
1000
0001
,
1000
0000
0001
0000
,
0010
0000
0100
0000
,
1000
0000
2002
0000
,
0000
0000
3003
0000
;

//---------------dance-single - ----------------
#NOTEDATA:;
#CHARTNAME:BASIC;
#CHARTHASH:2147483647;
#STEPSTYPE:dance-single;
#BANNER:;
#DESCRIPTION:;
#CHARTSTYLE:;
#DIFFICULTY:Easy;
#METER:5;
#METERF:5.000000;
#LASTSECONDHINT:97.846146;
#RADARVALUES:0.000000,0.000000,0.000000,0.000000,0.000000,0.000000,0.000000,0.000000,0.000000,0.000000,0.000000,0.000000,0.000000,0.000000,0.000000,0.000000,0.000000,0.000000,0.000000,0.000000,0.000000,0.000000,0.000000,0.000000,0.000000,0.000000,0.000000,0.000000;
#CREDIT:YonabearCWY;
#NOTES:
0000
0000
0000
0000
,
0000
0000
0000
0000
,
0000
0000
0000
0000
,
0000
0000
0000
0000
,
2020
0000
0000
3030
,
0001
0001
0001
0000
,
0220
0000
0000
0330
,
1000
1000
1000
0000
,
0001
0000
0100
0001
,
0100
0000
0010
1000
,
0010
0000
1000
0001
,
1000
0000
0001
1000
,
0002
0003
0200
0300
,
0002
0003
0200
0300
,
0202
0000
0000
0303
,
1000
0010
0100
0001
,
1000
0020
0030
1000
,
0010
2000
3000
0001
,
0100
0002
0003
0100
,
0001
0200
0300
0010
,
2002
0000
0000
0000
3003
0000
0000
0100
,
0000
0000
0010
0010
,
2002
0000
0000
0000
3003
0000
0000
0010
,
0000
0000
0000
0000
0000
0100
0000
0000
,
0020
0030
2000
3000
,
0020
0030
2000
3000
,
2020
0000
0000
3030
,
1000
0010
1000
0001
,
0100
0000
0100
0000
,
0001
0010
0100
1000
,
0100
0000
0100
0000
,
0010
0001
1000
2002
,
0000
0000
0000
0000
0000
0000
3003
0100
,
0010
0000
1000
0001
1000
0000
0001
1000
,
0001
0000
0001
0010
,
0100
0000
1000
0100
,
0001
0000
0001
0100
,
1000
0000
0001
0010
,
0100
0000
1000
0010
,
0001
0000
0001
0010
,
1000
0000
0010
0100
,
0001
0000
1000
0001
,
2001
0001
0001
0001
,
3002
0000
2003
0000
,
3002
0000
0203
0000
,
0020
0330
2002
0000
,
0000
0000
3003
0000
;

//---------------dance-single - ----------------
#NOTEDATA:;
#CHARTNAME:DIFFICULT;
#CHARTHASH:2147483647;
#STEPSTYPE:dance-single;
#BANNER:;
#DESCRIPTION:;
#CHARTSTYLE:;
#DIFFICULTY:Medium;
#METER:8;
#METERF:8.000000;
#LASTSECONDHINT:97.846146;
#RADARVALUES:0.000000,0.000000,0.000000,0.000000,0.000000,0.000000,0.000000,0.000000,0.000000,0.000000,0.000000,0.000000,0.000000,0.000000,0.000000,0.000000,0.000000,0.000000,0.000000,0.000000,0.000000,0.000000,0.000000,0.000000,0.000000,0.000000,0.000000,0.000000;
#CREDIT:YonabearCWY;
#NOTES:
0000
0000
0000
0000
,
0000
0000
0000
0000
,
0000
0000
0000
0000
,
0000
0000
0000
0000
,
2000
0000
0000
0000
0000
0000
0000
3001
,
0100
0010
1000
0100
,
0020
0000
0000
0000
0000
0000
0000
0130
,
1000
0000
0001
0000
0100
0010
0100
0000
,
0001
0000
0010
0000
0001
1000
0001
0000
,
1000
0000
0100
0000
1000
0010
0000
0100
,
0001
0000
0010
0000
0100
1000
0100
0000
,
0010
0000
0001
0000
1000
0100
0000
0010
,
0002
1000
0203
0010
,
0302
1000
0023
0100
,
2030
0000
0000
3001
0100
0001
0100
0000
,
0020
0000
0000
1030
0001
1000
0001
0000
,
0100
0000
1001
0000
0010
0100
0000
0010
,
1000
0000
0101
0000
1000
0100
0001
0000
,
0100
0000
1010
0000
0100
0001
0000
0010
,
0001
0000
0110
0000
0001
1000
0001
0010
,
0200
0000
0000
0000
0000
0300
0000
2000
,
0000
0000
0000
3000
,
0002
0000
0000
0000
0000
0003
0000
0200
,
0000
0000
0000
0000
0000
0310
0000
0000
,
2000
0000
0010
0000
3100
1000
0100
0000
,
0020
0000
1000
0000
0031
0100
0001
0000
,
2000
0000
3001
0010
0000
0001
0100
0000
,
0010
1000
0100
0010
,
0002
0000
1003
0100
0000
0010
0100
0000
,
1000
0001
0100
0010
,
1000
0010
1000
0000
0001
0100
0001
0000
,
1000
0000
0010
0100
0000
0002
2000
0000
,
0000
0000
0000
0000
0000
0000
3003
1000
,
0001
0010
0100
0000
1000
0100
0010
0001
,
1000
0010
0000
0100
0000
0001
0000
0100
,
0000
0010
0000
1000
0000
0001
0000
0100
,
0000
0001
0000
0010
0000
0100
0000
1000
,
0000
0101
0000
1000
0000
0010
0000
0100
,
0000
1001
0000
0010
0000
0100
0000
0010
,
0000
1100
0000
0010
0000
0001
0000
0100
,
0000
0011
0000
0001
0000
1000
0000
0010
,
0000
0110
0000
1000
0000
0001
0100
0001
,
2000
0001
0010
0100
,
3002
0000
2003
0000
,
3020
0000
0230
0000
,
0002
0303
2002
0000
,
0000
0000
3003
0000
;

//---------------dance-single - ----------------
#NOTEDATA:;
#CHARTNAME:EXPERT;
#CHARTHASH:924948801;
#STEPSTYPE:dance-single;
#BANNER:;
#DESCRIPTION:;
#CHARTSTYLE:;
#DIFFICULTY:Hard;
#METER:10;
#METERF:10.000000;
#LASTSECONDHINT:97.846146;
#RADARVALUES:0.000000,0.000000,0.000000,0.000000,0.000000,0.000000,0.000000,0.000000,0.000000,0.000000,0.000000,0.000000,0.000000,0.000000,0.000000,0.000000,0.000000,0.000000,0.000000,0.000000,0.000000,0.000000,0.000000,0.000000,0.000000,0.000000,0.000000,0.000000;
#CREDIT:YonabearCWY;
#NOTES:
0000
0000
0000
0000
,
0000
0000
0000
0000
,
0000
0000
0000
0000
,
0000
0000
0000
0000
,
2020
0000
0000
0000
0000
0030
0000
3001
,
0200
0000
0000
0000
0000
0010
0310
0000
,
2002
0000
0000
0000
0000
3000
0000
1003
,
0200
0000
0000
0000
0000
0010
0310
0000
,
1001
0000
0000
0000
0010
0000
0000
0100
1000
0000
0000
0000
0100
0000
0000
0000
,
0011
0000
1000
0000
0001
0100
0001
0000
,
0110
0000
0000
0000
1000
0000
0000
0001
0100
0000
0000
0000
0010
0000
0000
0000
,
1100
0000
0001
0000
0100
0010
0100
0000
,
0002
1000
0203
0001
,
0320
0001
2030
0100
,
3010
1000
0000
0100
1000
0100
0000
1000
,
0001
1000
0000
0001
0100
0010
0001
0010
,
1000
0000
0000
0000
0010
0000
0000
0100
0001
0000
0010
0000
0000
0000
0100
0000
,
1000
0000
0000
0000
0100
0000
0000
0010
0001
0000
1000
0000
0010
0000
0001
0000
,
0010
0000
0000
0000
0100
0000
0000
0001
1000
0000
0100
0000
0000
0000
0010
0000
,
0100
0000
1000
0000
0001
0100
0010
1000
,
0120
0000
0000
0000
0000
0000
0000
2000
,
0000
0000
0000
0030
,
0002
0000
0000
0000
0000
3000
0000
0200
,
0000
0000
0000
0000
0000
0303
0000
0000
,
2000
0000
0001
0000
3020
0000
0130
0001
,
0020
0000
1000
0000
0032
0000
1003
0001
,
0010
0000
0000
0000
0001
0000
0000
1000
0100
0000
0010
0000
0100
0000
0000
0000
,
1000
0000
0000
0000
0001
0000
0000
0010
0100
0000
1000
0000
0000
0000
0100
0000
,
0010
0000
0000
0000
0001
0000
0000
1000
0001
0000
0100
0000
0001
0000
0010
0000
,
0100
0000
0000
0000
1000
0000
0000
0001
0100
0000
0010
0000
0000
0000
1000
0000
,
0001
0000
0000
0000
0100
0000
0000
0010
1000
0000
0001
0000
0100
0000
0001
0000
,
0010
0000
0000
0000
0100
0000
0000
1000
0100
0000
0010
0000
0000
0000
2002
0000
,
0000
0000
0000
3003
,
1000
0000
0001
0000
0010
0000
0100
1000
0010
0000
0100
0000
0001
0000
1000
0001
,
0010
0001
1000
0001
0010
0001
0100
0001
,
1000
0100
1000
0010
0100
0010
1000
0001
,
0100
0000
0001
0000
0010
0000
0100
1000
0000
0000
0100
0000
0010
0000
0001
0000
,
1000
0000
0001
0000
0010
0000
0001
0100
0000
0000
0010
0000
1000
0000
0100
0000
,
0010
0000
0001
0000
1000
0000
0010
0100
0000
0000
0001
0000
1000
0000
0100
0000
,
0010
0000
0001
0000
1000
0000
0001
0010
0000
0000
0001
0000
1000
0000
0100
0000
,
0010
0000
0100
0000
1000
0000
0001
0100
0000
0000
0000
0001
1000
0000
0010
0000
,
0100
0000
0001
0000
0010
0000
0100
1000
0000
0000
0000
0100
0010
0000
0001
0000
,
2000
0000
0002
3000
0020
0003
0200
0030
,
2000
0300
0000
0000
0002
0000
0000
3000
,
0200
0000
0000
0003
0020
0000
0000
0300
,
0200
0000
0000
0330
2002
0000
0000
0000
,
0000
0000
3003
0000
;

//---------------dance-single - ----------------
#NOTEDATA:;
#CHARTNAME:CHALLENGE;
#CHARTHASH:2147483647;
#STEPSTYPE:dance-single;
#BANNER:;
#DESCRIPTION:;
#CHARTSTYLE:;
#DIFFICULTY:Challenge;
#METER:12;
#METERF:12.000000;
#LASTSECONDHINT:97.846146;
#RADARVALUES:0.000000,0.000000,0.000000,0.000000,0.000000,0.000000,0.000000,0.000000,0.000000,0.000000,0.000000,0.000000,0.000000,0.000000,0.000000,0.000000,0.000000,0.000000,0.000000,0.000000,0.000000,0.000000,0.000000,0.000000,0.000000,0.000000,0.000000,0.000000;
#CREDIT:YonabearCWY;
#NOTES:
0000
0000
0000
0000
,
0000
0000
0000
0000
,
0000
0000
0000
0000
,
0000
0000
0000
0000
,
1000
0000
0000
0001
0000
0000
0010
0000
0100
0000
0000
1000
0000
0000
0100
0000
,
0001
0000
0000
0100
0000
0000
1000
0000
0001
0100
0000
0001
1000
0000
0010
0000
,
0100
0000
0000
0001
0000
0000
1000
0000
0100
0000
0000
0010
0000
0000
0001
0000
,
0100
0000
0000
0010
0000
0000
1000
0000
0001
0000
0000
0000
0110
0000
0000
0000
,
1000
0000
0001
0000
0010
0000
0100
1000
0100
0000
1000
0000
0100
0000
0010
0000
,
0001
0000
0100
0000
0001
0000
0010
0001
0010
0000
0100
0000
1000
0000
0100
0000
,
0010
0000
0001
0000
1000
0000
0001
0100
0001
0000
1000
0000
0100
0000
0010
0001
,
0010
0000
0100
0000
1000
0000
0001
1000
0001
0000
0100
0000
0010
0000
1000
0100
,
2000
0010
0000
3010
0200
0001
0000
0301
,
2000
0000
0100
0000
0000
0000
3010
0000
0100
0000
1000
0000
0100
0000
0001
1000
,
0020
0100
0000
1030
0002
0010
0000
1003
,
0200
0010
0000
1300
0001
0010
0100
1000
,
0100
0000
0000
1000
0001
0000
1000
0002
0000
0000
0100
0000
0100
0000
0000
0000
,
0013
0000
0000
0000
0001
0000
1000
0100
0000
0000
0000
0010
0100
0000
1000
0000
,
0001
0000
0000
0100
0010
0000
0100
0020
0000
0000
1000
0000
1000
0000
0000
0000
,
0130
0000
0000
0000
0001
0000
0010
0100
0000
0000
0000
1000
0100
0000
0010
0000
,
0022
0000
0000
0000
0000
0000
0030
2000
,
0000
0000
0000
0000
0003
0010
0010
0010
,
3020
0000
0001
0000
1000
0000
0130
0002
,
0000
1000
1000
0000
0100
0200
0003
0000
,
0310
0000
0000
1000
0100
0000
0020
0000
0001
0000
0000
0000
1000
0000
0000
0000
,
0032
0000
0103
0010
2000
0100
0000
3001
,
0100
0000
0000
0001
0010
0000
0200
0000
1000
0000
0000
0000
0001
0000
0000
0000
,
0310
0000
0000
0100
1000
0000
0100
0000
0010
0000
0001
1000
0000
0000
0010
0000
,
0010
0000
0000
0100
0001
0000
0100
0001
0000
0000
1000
0000
0100
0000
0001
0000
,
0100
0000
0000
1000
0010
0000
1000
0010
0000
0000
0100
0000
0001
0000
0010
0000
,
1000
0000
0010
0001
0000
0000
1000
0100
0000
1000
0100
0000
0010
0000
0001
0000
,
1000
0000
0000
0001
0100
0000
0010
1000
0000
0000
0100
0010
0000
0000
0001
1000
,
0000
0200
0000
0000
0000
0000
0000
0000
0000
2300
0000
0000
0000
0000
0000
0000
0000
3002
0000
0000
0000
0000
0000
0000
0000
0000
0000
0000
1003
0000
0000
0000
,
0100
0000
0000
0000
0010
0000
0001
0100
0000
0000
0000
0000
0010
0000
1000
0000
0001
0000
0000
0000
0100
0000
0010
1000
0000
0000
0100
0000
0010
0000
0001
0000
,
1000
0000
0001
0010
0001
0000
1000
0000
0100
0000
0010
0001
0000
1000
0001
0000
,
0100
0000
0010
1000
0010
0000
0100
0000
0001
0000
1000
0010
0000
0100
0001
0000
,
0010
0000
0100
1000
0100
0000
0010
0000
0001
0000
1000
0100
0000
0010
0001
0000
,
0100
0000
0010
1000
0010
0000
0100
0000
0010
0000
1000
0100
0000
0000
0010
0000
,
0001
0000
1000
0000
0100
0000
0010
0001
0010
0001
0010
0000
0100
0000
1000
0000
,
0001
0000
0100
0000
0010
0000
1000
0001
1000
0001
1000
0000
0010
0000
0100
0000
,
0001
0000
1000
0000
0100
0000
0010
0100
0010
0100
0010
0000
0100
0000
1000
0000
,
0001
0000
0100
0000
0010
0000
1000
0100
0000
0010
0001
0010
0001
0000
0100
0001
,
2000
0000
0020
3000
0002
0030
2000
0003
,
0200
0000
0000
3000
0002
0000
0000
0300
,
2000
0000
0000
0003
0020
3000
0000
0000
,
0200
0000
0000
0330
2002
0000
0000
0000
,
0000
0000
3003
0000
;

//---------------dance-double - ----------------
#NOTEDATA:;
#CHARTNAME:CHALLENGE;
#CHARTHASH:2147483647;
#STEPSTYPE:dance-double;
#BANNER:;
#DESCRIPTION:;
#CHARTSTYLE:;
#DIFFICULTY:Challenge;
#METER:12;
#METERF:12.000000;
#LASTSECONDHINT:97.846146;
#RADARVALUES:0.000000,0.000000,0.000000,0.000000,0.000000,0.000000,0.000000,0.000000,0.000000,0.000000,0.000000,0.000000,0.000000,0.000000,0.000000,0.000000,0.000000,0.000000,0.000000,0.000000,0.000000,0.000000,0.000000,0.000000,0.000000,0.000000,0.000000,0.000000;
#CREDIT:YonabearCWY;
#NOTES:
00000000
00000000
00000000
00000000
,
00000000
00000000
00000000
00000000
,
00000000
00000000
00000000
00000000
,
00000000
00000000
00000000
00000000
,
10000000
00000000
00000000
00100000
00000000
00000000
01000000
00000000
00010000
00000000
00000000
00100000
01000000
00000000
00100000
00000000
,
00001000
00000000
00000000
00010000
00000000
00000000
00000100
00000000
00010000
00001000
00000000
00010000
00000010
00000000
00001000
00000000
,
00000100
00000000
00000000
00000010
00000000
00000000
00000001
00000000
00001000
00000000
00000000
00000100
00000010
00000000
00000100
00000000
,
00010000
00000000
00000000
00001000
00000000
00000000
00100000
00000000
01000000
00000000
00000000
00000000
10000000
00000000
00100000
00000000
,
00000000
00000000
01000000
00000000
00000000
00000000
00010000
00100000
00000000
00000000
00001000
00000000
00000000
00000000
00100000
00000000
,
00000000
00000000
00001000
00000000
00000000
00000000
00010000
00000100
00000000
00000000
00001000
00000000
00000001
00000000
00000010
00000000
,
00000000
00000000
00000100
00000000
00000000
00000000
00010000
00001000
00000000
00000000
00001000
00000000
00000000
00000000
01000000
00000000
,
00000000
00000000
00010000
00000000
00000000
00000000
10000000
00010000
00000000
00000000
00100000
01000000
10000000
00000000
00010000
00000000
,
00100000
00010000
01000000
00010000
01000000
00100000
10000000
00100000
,
10000000
01000000
00010000
01000000
00010000
00001000
00010000
00001000
,
00010000
00000000
00000010
00000000
00010000
00000000
00000100
00010000
00000000
00000000
00001000
00000000
00010000
00000000
00000010
00000000
,
00000100
00000000
00000010
00000000
00000100
00000000
00000001
00001000
00000100
00000000
00010000
00000000
00000100
00000000
00010000
00000000
,
00000010
00000000
00001000
00000000
00000010
00000000
00001000
00000001
00000000
00000000
00000000
00000010
00000100
00000000
00001000
00000000
,
00000100
00000000
00010000
00000000
00000100
00000000
00010000
00001000
00010000
00000000
00001000
00000000
01000000
00000000
00100000
00000000
,
01000000
00000000
00010000
00000000
10000000
00000000
00100000
10000000
00000000
00000000
00000000
01000000
00100000
00000000
00001000
00000000
,
00010000
00000000
00000100
00000000
00010000
00000000
00000010
00001000
00000010
00000000
00000100
00000000
00000001
00000000
00000100
00000000
,
00000020
00000000
00000000
00001000
00000000
00000001
00000000
00001000
,
00002030
00000000
00000000
00203000
00000000
01000000
01000000
01000000
,
01300000
00000000
00010000
10000000
00010000
10000000
00010000
00000000
01000000
00000000
00100000
00000000
00001000
00000000
00010000
00002000
,
00000000
00013000
00000010
00000100
00001000
00020000
00000000
00000000
,
00031000
00000000
00000000
00100000
00001000
00000000
00010000
00000000
01000000
00000000
00000000
00000000
10000000
00000000
00010000
00000000
,
00100000
00000000
00000000
01000000
00100000
00000000
00001000
00000000
00010000
00000000
00000000
00000000
00000100
00000000
00010000
00000000
,
00000010
00000000
00000000
00000000
00000100
00000000
00000001
00001000
00000000
00000000
00000100
00000000
00000010
00000000
00000001
00000000
,
00001000
00000000
00000000
00000100
00010000
00000000
00000100
00010000
00000000
00000000
00001000
00000000
01000000
00000000
00010000
00000000
,
00100000
00000000
00000000
01000000
10000000
00000000
01000000
10000000
00000000
00000000
00000000
01000000
00100000
00000000
00001000
00000000
,
00010000
00000000
00000000
00000010
00001000
00000000
00000010
00001000
00000000
00000000
00000001
00000000
00001000
00000000
00000100
00000000
,
00010000
00001000
00000000
01000000
00010000
00100000
01000000
10000000
,
00010000
00100000
00000000
00001000
00010000
00000100
00000010
00000001
,
00000000
00002000
00000000
00000000
00000000
00000000
00000000
00000000
00000000
00003020
00000000
00000000
00000000
00000000
00000000
00000000
00000000
00000230
00000000
00000000
00000000
00000000
00000000
00000000
00000000
00000000
00000000
00000000
00000310
00000000
00000000
00000000
,
00001001
00000000
00000000
00000000
00001000
00000000
00000100
00010000
00001000
00000000
01000000
00000000
00001000
00000000
00100000
00000000
00010000
00000000
00000000
00000000
10000000
00000000
00010000
00100000
01000000
00000000
10000000
00000000
01000000
00000000
00100000
00000000
,
00010000
01000000
00010000
01000000
00001000
00010000
00001000
00010000
,
00000010
00010000
00000010
00010000
00001000
00010000
00001000
00000010
,
00001000
00000010
00000001
00000100
00000001
00000100
00001000
00000100
,
00001000
00000100
00000001
00000010
00000100
00001000
00000100
00001000
,
00000010
00000000
00010000
00000000
00000010
00000000
00010000
00001000
00010000
00001000
00010000
00000000
00001000
00000000
01000000
00000000
,
00100000
00000000
01000000
00000000
00100000
00000000
10000000
00010000
10000000
00010000
10000000
00000000
01000000
00000000
00100000
00000000
,
00001000
00000000
00010000
00000000
00001000
00000000
00010000
00000100
00010000
00000100
00010000
00000000
00000010
00000000
00001000
00000000
,
00000001
00000000
00000100
00000000
00000001
00000000
00001000
00000100
00001000
00000100
00001000
00000000
00000010
00000000
00010000
00000000
,
00002000
00000000
00200000
00003000
02000000
00300000
00020000
03000000
,
00002000
00030000
00000000
00000000
00000020
00000000
00003000
00000000
,
00000002
00000030
00002000
00000003
,
00000200
00000000
00000000
00003300
00022000
00000000
00000000
00000000
,
00000000
00000000
00033000
00000000
;

//---------------dance-double - ----------------
#NOTEDATA:;
#CHARTNAME:EXPERT;
#CHARTHASH:2546683400;
#STEPSTYPE:dance-double;
#BANNER:;
#DESCRIPTION:;
#CHARTSTYLE:;
#DIFFICULTY:Hard;
#METER:9;
#METERF:9.000000;
#LASTSECONDHINT:24.461538;
#RADARVALUES:0.327999,0.415963,0.069576,0.278302,0.089454,231.000000,224.000000,7.000000,28.000000,0.000000,0.000000,0.000000,0.000000,0.000000,0.327999,0.415963,0.069576,0.278302,0.089454,231.000000,224.000000,7.000000,28.000000,0.000000,0.000000,0.000000,0.000000,0.000000;
#CREDIT:YonabearCWY;
#NOTES:
// measure 0
00000000
00000000
00000000
00000000
,  // measure 1
00000000
00000000
00000000
00000000
,  // measure 2
00000000
00000000
00000000
00000000
,  // measure 3
00000000
00000000
00000000
00000000
,  // measure 4
02020000
00000000
00000000
00000000
00000000
00000000
03030000
00200000
,  // measure 5
00002000
00000000
00000000
00303000
,  // measure 6
00020200
00000000
00000000
00000000
00000000
00000000
00030300
00000010
,  // measure 7
00000001
00001000
00000010
00000100
,  // measure 8
00000001
00001000
00000000
00000100
00010000
00000100
00000000
00010000
,  // measure 9
00001000
00000000
00010000
00000000
00000000
00000000
00001000
00000000
00100000
00000000
00000000
00010000
01000000
00000000
00010000
00000000
,  // measure 10
00100000
01000000
00000000
10000000
00010000
10000000
00000000
00010000
,  // measure 11
00100000
00010000
00000000
01000000
00001000
01000000
00000000
00001000
,  // measure 12
00010000
00000000
00000000
00000100
00001000
00000000
00000000
00000000
00000010
00000000
00000000
00000100
00000001
00000000
00000000
00000000
,  // measure 13
00000010
00000000
00000000
00000001
00001000
00000000
00000000
00000000
00000100
00000000
00010000
00000000
00001000
00000000
00000000
00000000
,  // measure 14
00100000
00001000
00010000
00000000
00001000
00000000
01000000
00000000
,  // measure 15
00100000
10000000
01000000
00000000
00100000
00000000
00010000
00000000
,  // measure 16
10000000
00000000
00010000
00000000
10000000
00000000
00010000
00000000
00000000
01000000
00010000
00000000
00100000
00000000
00001000
00000000
,  // measure 17
00010000
00000000
00001000
00000000
00010000
00000000
00000100
00000000
00001000
00000000
00000000
00000001
00000100
00000000
00000010
00000000
,  // measure 18
00001000
00000000
00000001
00000000
00001000
00000000
00000001
00000000
00000000
00000010
00000100
00000000
00001000
00000000
00000100
00000000
,  // measure 19
00010000
00000000
00001000
00000000
00010000
00000000
00001000
00000000
00100000
00000000
00000000
00010000
10000000
00000000
00100000
00000000
,  // measure 20
02200000
00000000
00000000
00000000
00000000
03000000
00000000
02300000
,  // measure 21
00002000
00000000
00000000
03000000
00000000
00013000
00010000
00010000
,  // measure 22
00020020
00000000
00000000
00000000
00000000
00000030
00000000
00030200
,  // measure 23
00000020
00000000
00000300
00000000
00000031
00002000
00000000
00000000
,  // measure 24
00003001
00000000
00000000
00001000
00000100
00000000
00000000
00000000
00000010
00000000
00000000
00000001
00001000
00000000
00000000
00000000
,  // measure 25
00000100
00000000
00000000
00001000
00000010
00000000
00000000
00000000
00000100
00000000
00000010
00000000
00010000
00000000
00000000
00000000
,  // measure 26
00001000
00000000
00010000
00001000
00100000
00000000
01000000
10000000
,  // measure 27
00010000
00000000
01000000
00000000
00100000
10000000
00010000
00000000
,  // measure 28
01000000
00000000
00000000
00000000
00001000
00000000
00000000
00000000
00010000
00000000
00001000
00000000
00010000
00000000
00000100
00010000
,  // measure 29
00000000
00000000
00000010
00000000
00001000
00000000
00000000
00000000
00000001
00000000
00000010
00000000
00000100
00000000
00001000
00000001
,  // measure 30
00000000
00000100
00000001
00000000
00000010
00000000
00000100
00000000
,  // measure 31
00010000
00000000
00001000
00000000
00010000
00000000
00001000
00100000
00000000
00000000
01000000
00000000
10000000
00000000
20020000
00000000
,  // measure 32
00000000
00000000
00000000
00000000
00000000
00000000
30030000
10000000
,  // measure 33
00010000
00100000
01000000
00100000
00001000
00100000
00010000
01000000
,  // measure 34
00001000
00000000
00010000
00000000
00001000
00000000
00010000
00000000
00000000
00000000
00000000
00000010
00010000
00000000
00001000
00000000
,  // measure 35
00010000
00000010
00001000
00000010
00000100
00000000
00000001
00000000
,  // measure 36
00000010
00000000
00000100
00000000
00001000
00000000
00000100
00000000
00000000
00000000
00000000
00010000
00001000
00000000
00010000
00000000
,  // measure 37
00001000
01000000
00010000
01000000
00100000
00000000
10000000
00000000
,  // measure 38
00010000
00100000
01000000
10000000
01000000
10000000
00010000
00000000
,  // measure 39
01000000
00000000
00001000
00000000
00010000
00000000
00001000
00000000
00010000
00000000
00000100
00000000
00010000
00000000
00000000
00000010
,  // measure 40
00000100
00000000
00000001
00000000
00001000
00000000
00000100
00000000
00000010
00000000
00000100
00000000
00000010
00000000
00000000
00000001
,  // measure 41
00001000
00000100
00010000
00000100
00010000
00001000
01000000
00100000
,  // measure 42
02100000
00000000
00200000
03000000
20000000
00300000
00020000
30000000
,  // measure 43
02000000
00030000
00000000
00000000
00200000
00000000
03000000
00000000
,  // measure 44
02000000
00300000
00002000
03000000
,  // measure 45
00200000
00000000
00000000
00303000
00022000
00000000
00000000
00000000
,  // measure 46
00000000
00000000
00033000
00000000
;
