#VERSION:0.83;
#TITLE:2 gorgeous 4U;
#SUBTITLE:(EMULATE MIX);
#ARTIST:prophet-31 (remixed by SLAKE);
#TITLETRANSLIT:;
#SUBTITLETRANSLIT:;
#ARTISTTRANSLIT:;
#GENRE:BREAK BEATS;
#ORIGIN:;
#TAGS:;
#CREDIT:YonabearCWY;
#BANNER:2 gorgeous 4U (EMULATE MIX).png;
#BACKGROUND:2 gorgeous 4U (EMULATE MIX)-bg.png;
#PREVIEWVID:;
#JACKET:2 gorgeous 4U (EMULATE MIX)-jacket.png;
#CDIMAGE:;
#DISCIMAGE:;
#LYRICSPATH:;
#CDTITLE:Beatmania.png;
#MUSIC:2 gorgeous 4U (EMULATE MIX).ogg;
#OFFSET:-0.025000;
#SAMPLESTART:21.852413;
#SAMPLELENGTH:15.000000;
#SELECTABLE:YES;
#BPMS:0.000000=170.000000
;
#STOPS:;
#DELAYS:;
#WARPS:;
#TIMESIGNATURES:0.000000=4=4
;
#TICKCOUNTS:0.000000=4
;
#COMBOS:0.000000=1
;
#SPEEDS:0.000000=1.000000=0.000000=0
;
#SCROLLS:0.000000=1.000000
;
#LABELS:0.000000=Song Start
;
#BGCHANGES:16.000=wind1.mp4=1.000=1=0=1===CrossFade==,
32.000=city3.mp4=1.000=0=0=1=====,
48.000=dots3.mp4=1.000=0=0=1=====,
61.000=blackhole2.mp4=1.600=0=0=1=====,
64.000=beads1.mp4=1.000=0=0=1=====,
72.000=car4.mp4=1.000=0=0=1=====,
80.000=butterfly1.mp4=1.000=0=0=1=====,
88.000=aliens1.mp4=1.000=0=0=1=====,
96.000=jewelry1.mp4=1.000=0=0=1=====,
104.000=jewelry2.mp4=1.400=0=0=1=====,
112.000=dance10.mp4=1.600=0=0=1=====,
120.000=face3.mp4=1.000=0=0=1=====,
128.000=gun1.mp4=1.000=0=0=1=====,
144.000=candy2.mp4=1.000=0=0=1=====,
152.000=beads1.mp4=1.000=0=1=1=StretchRewind====,
160.000=city3.mp4=1.000=0=1=1=StretchRewind====,
168.000=wind1.mp4=1.000=0=1=1=StretchRewind====,
176.000=aliens1.mp4=1.000=0=1=1=StretchRewind====,
184.000=dots3.mp4=1.000=0=1=1=StretchRewind====,
192.000=jewelry1.mp4=1.000=0=1=1=StretchRewind====,
200.000=dance10.mp4=1.600=0=1=1=StretchRewind====,
207.000=2 gorgeous 4U (EMULATE MIX)-bg.png=1.000=0=0=1=====,
99999.000=-nosongbg-=1.000=0=0=0=StretchNoLoop====,
99999=-nosongbg-=1.000=0=0=0 // don't automatically add -songbackground-
;
#KEYSOUNDS:;
#ATTACKS:
;

//---------------dance-single - ----------------
#NOTEDATA:;
#CHARTNAME:BEGINNER;
#CHARTHASH:2024630134;
#STEPSTYPE:dance-single;
#BANNER:;
#DESCRIPTION:;
#CHARTSTYLE:;
#DIFFICULTY:Beginner;
#METER:2;
#METERF:2.000000;
#LASTSECONDHINT:74.495590;
#RADARVALUES:0.000000,0.000000,0.000000,0.000000,0.000000,0.000000,0.000000,0.000000,0.000000,0.000000,0.000000,0.000000,0.000000,0.000000,0.000000,0.000000,0.000000,0.000000,0.000000,0.000000,0.000000,0.000000,0.000000,0.000000,0.000000,0.000000,0.000000,0.000000;
#CREDIT:YonabearCWY;
#NOTES:
0000
0000
0000
0000
,
0000
0000
0000
0000
,
0000
0000
0000
0000
,
0000
0000
0000
0000
,
1000
0000
0000
0000
,
1000
0000
0000
0000
,
0001
0000
0000
0000
,
0001
0000
0000
0000
,
0100
0000
0000
0000
,
0100
0000
0000
0000
,
0010
0000
0000
0000
,
0010
0000
0000
0000
,
1000
0000
0000
0000
,
1000
0000
0000
0000
,
0001
0000
0000
0000
,
0001
0000
0000
0000
,
1000
0000
0000
0000
,
1000
1000
1000
0000
,
0001
0000
0000
0000
,
0001
0001
0001
0000
,
1000
0000
0000
0000
,
1000
1000
1000
0000
,
0001
0000
0000
0000
,
0001
0001
0001
0000
,
0100
0000
0000
0000
,
0100
0100
0100
0000
,
0010
0000
0000
0000
,
0010
0010
0010
0000
,
0100
0000
0000
0000
,
0100
0100
0100
0000
,
0010
0000
0000
0000
,
0010
0010
0010
0000
,
0100
0000
0000
0000
,
0000
0000
0000
0000
,
0001
0000
0000
0000
,
0000
0000
0000
0000
,
1000
0000
0000
0000
,
1000
1000
1000
0000
,
0001
0000
0000
0000
,
0001
0001
0001
0000
,
0100
0000
0000
0000
,
0100
0100
0100
0000
,
0010
0000
0000
0000
,
1000
0000
0000
0000
,
0001
0000
1000
0000
,
0001
0000
0000
0000
,
1000
0000
0100
0000
,
1000
0000
0000
0000
,
0010
0000
0100
0000
,
0010
0000
0000
0000
,
1000
0000
0001
0000
,
2000
0000
0000
0002
,
0000
0000
0000
3003
;

//---------------dance-single - ----------------
#NOTEDATA:;
#CHARTNAME:BASIC;
#CHARTHASH:776962723;
#STEPSTYPE:dance-single;
#BANNER:;
#DESCRIPTION:;
#CHARTSTYLE:;
#DIFFICULTY:Easy;
#METER:6;
#METERF:6.000000;
#LASTSECONDHINT:74.495590;
#RADARVALUES:0.000000,0.000000,0.000000,0.000000,0.000000,0.000000,0.000000,0.000000,0.000000,0.000000,0.000000,0.000000,0.000000,0.000000,0.000000,0.000000,0.000000,0.000000,0.000000,0.000000,0.000000,0.000000,0.000000,0.000000,0.000000,0.000000,0.000000,0.000000;
#CREDIT:YonabearCWY;
#NOTES:
0000
0000
0000
0000
,
0000
0000
0000
0000
,
0000
0000
0000
0000
,
0000
0000
0000
0000
,
1000
0000
0000
0001
0000
0000
0000
0000
,
0001
0000
0000
1000
0000
0000
0000
0000
,
0100
0000
0000
0100
0000
0000
0000
0000
,
0010
0000
0000
0010
0000
0000
0000
0000
,
0001
0000
0000
1000
0000
0000
0000
0000
,
1000
0000
0000
0001
0000
0000
0000
0000
,
0100
0000
0000
0100
0000
0000
0000
0000
,
0010
0000
0000
0010
0000
0000
0000
0000
,
1000
0000
0000
0100
0000
0000
0000
0000
,
0010
0000
0000
0001
0000
0000
0000
0000
,
0001
0000
0000
1000
0000
0000
0000
0000
,
0010
0000
0000
1001
0000
0000
0000
0000
,
1000
1000
1000
0000
,
1000
1000
1000
0000
,
0001
0001
0001
0000
,
0001
0001
0001
0000
,
0100
0010
1000
0100
,
0001
0100
0010
1000
,
0010
0001
0010
1000
,
0010
0100
0001
0100
,
0010
0010
0010
0000
,
0001
0001
0001
0000
,
1000
1000
1000
0000
,
0100
0100
0100
0000
,
1000
0100
0001
0100
,
1000
0100
0010
0100
,
0001
0010
0001
1000
,
0010
0100
0001
1000
,
2002
0000
0000
3003
,
0100
0100
0100
0100
,
2002
0000
0000
3003
,
0010
0010
0010
0010
,
1001
0000
0000
1000
0000
0000
0010
0000
,
0000
0100
0000
0000
0001
0000
0010
0000
,
0001
0000
0000
1000
0000
0000
0100
0000
,
0000
0010
0000
0000
0100
0000
1000
0000
,
1001
0000
0000
0001
0000
0000
0010
0000
,
0001
1000
0100
0010
,
0100
0000
0000
1000
0000
0000
0001
0000
,
0220
0000
0000
0330
,
0010
0010
0010
0000
,
1000
1000
1000
0000
,
0010
0010
0010
0000
,
1000
1000
1000
0000
,
0100
0100
0100
0000
,
1000
1000
1000
0000
,
0100
0100
0100
0000
,
2000
0000
0000
0002
,
0000
0000
0000
3003
;

//---------------dance-single - ----------------
#NOTEDATA:;
#CHARTNAME:DIFFICULT;
#CHARTHASH:97538310;
#STEPSTYPE:dance-single;
#BANNER:;
#DESCRIPTION:;
#CHARTSTYLE:;
#DIFFICULTY:Medium;
#METER:9;
#METERF:9.000000;
#LASTSECONDHINT:74.495590;
#RADARVALUES:0.000000,0.000000,0.000000,0.000000,0.000000,0.000000,0.000000,0.000000,0.000000,0.000000,0.000000,0.000000,0.000000,0.000000,0.000000,0.000000,0.000000,0.000000,0.000000,0.000000,0.000000,0.000000,0.000000,0.000000,0.000000,0.000000,0.000000,0.000000;
#CREDIT:YonabearCWY;
#NOTES:
0000
0000
0000
0000
,
0000
0000
0000
0000
,
0000
0000
0000
0000
,
0000
0000
0000
0000
,
2000
0000
0000
0001
0000
3001
0000
0000
,
0002
0000
0000
1000
0000
1003
0000
0000
,
0200
0000
0000
0310
0000
0000
0000
0000
,
0020
0000
0000
0130
0000
0000
0000
0001
,
2000
0000
0000
0001
0000
3001
0000
0000
,
0002
0000
0000
1000
0000
1003
0000
0000
,
2000
0000
3010
0100
0000
0000
0000
0000
,
0002
0000
0103
0010
0000
0000
0000
0000
,
0010
0000
1000
0010
1000
0000
0010
0000
,
0100
0000
0001
0010
0001
0000
1000
0000
,
0010
0000
0000
0100
0000
0000
0100
0000
,
0001
0000
0000
1001
0000
0000
0000
0000
,
1000
0000
0100
1000
0000
1000
0100
0000
,
1000
0100
0000
0100
1000
0000
0010
0000
,
0100
0000
0001
0100
0000
0100
0001
0000
,
0100
0001
0000
0001
0100
0000
0001
0000
,
0010
0000
0001
0010
0001
0000
1000
0000
,
0010
0000
0100
0010
0100
0000
0001
0000
,
1000
0000
0100
1000
0100
0000
1000
0000
,
0010
0000
0100
0001
0100
0001
1000
0100
,
0010
0000
0010
0001
0000
0001
0010
0000
,
0001
0100
0000
0100
0001
0000
1000
0000
,
0010
0000
0100
0010
0000
0010
0100
0000
,
0001
1000
0000
1000
0001
0000
0100
0000
,
0010
0000
1000
0010
0100
0010
1000
0000
,
0010
0000
0100
0001
0010
0001
1000
0000
,
0001
0000
1000
0100
0010
0000
0010
0001
,
1000
0000
0001
1000
0100
0010
0100
0000
,
2001
0000
0000
0000
,
3020
0000
0000
0000
,
0230
0000
0000
0000
,
0302
0000
0000
0000
,
1003
0000
1000
0010
0000
0010
0100
0001
,
0100
0000
0001
0100
0000
0010
0000
0000
,
1000
0000
0001
1000
0000
0100
0000
1000
,
0010
0000
0100
0001
0100
0000
0001
0000
,
1000
0000
0000
0011
0000
0000
0001
0000
,
2000
0100
0010
3100
,
1000
0000
0001
0010
0000
0001
1000
0100
,
0010
0000
0000
0010
0000
0000
0001
0000
0000
0001
0000
0000
1000
0000
0000
0000
,
0100
1000
0100
0000
1000
0010
1000
0010
,
0100
0000
0001
0010
0001
0000
1000
0001
,
1000
0010
0100
0000
0010
0100
0001
0100
,
0010
0000
1000
0010
1000
0000
0001
1000
,
0001
0010
0100
0000
1000
0100
0001
0100
,
1000
0000
0010
0100
0001
0000
0010
0001
,
0010
0100
0010
0000
0001
1000
0100
1000
,
0100
0000
0000
0100
0000
0000
1000
0000
0000
1000
0000
0000
2002
0000
0000
0000
,
0000
0000
0000
3003
;

//---------------dance-single - ----------------
#NOTEDATA:;
#CHARTNAME:EXPERT;
#CHARTHASH:2147483647;
#STEPSTYPE:dance-single;
#BANNER:;
#DESCRIPTION:;
#CHARTSTYLE:;
#DIFFICULTY:Hard;
#METER:13;
#METERF:13.000000;
#LASTSECONDHINT:74.495590;
#RADARVALUES:0.000000,0.000000,0.000000,0.000000,0.000000,0.000000,0.000000,0.000000,0.000000,0.000000,0.000000,0.000000,0.000000,0.000000,0.000000,0.000000,0.000000,0.000000,0.000000,0.000000,0.000000,0.000000,0.000000,0.000000,0.000000,0.000000,0.000000,0.000000;
#CREDIT:YonabearCWY;
#NOTES:
0000
0000
0000
0000
,
0000
0000
0000
0000
,
0000
0000
0000
0000
,
0000
0000
0000
0000
,
1002
0000
0000
0100
0000
0103
0000
0000
,
2001
0000
0010
0010
0000
3010
0000
0000
,
1002
0000
0000
0020
0000
0000
0033
0000
,
2001
0000
0000
0200
0000
0000
3300
0000
,
1020
0000
0000
0100
0000
0130
0000
0100
,
0002
0000
1000
1000
0000
0013
0000
0001
,
2001
0000
0000
0000
0000
0000
0100
0000
0000
0000
3010
0000
0000
1000
0000
0000
,
0021
0000
0000
0000
0000
0000
0001
0000
0000
0000
1030
0000
0000
0010
0000
0000
,
2001
0000
3001
0010
0100
1000
0100
0000
,
0012
0000
1003
0100
0001
0100
0010
0000
,
2001
0000
0000
0010
0000
3010
0000
1000
,
0001
0000
0100
0000
0020
0000
0000
0000
0130
0000
0000
0000
0000
0010
1000
0000
,
0020
0000
0230
0001
0300
0002
1000
0003
,
2000
0010
3000
0020
0100
0130
1000
0100
,
0002
0000
2003
0010
3000
0020
0001
0030
,
0020
0000
1000
0000
0030
0000
2000
0000
0100
0000
3100
0000
1000
0001
1000
0001
,
2000
0000
3020
0001
0030
0020
1000
0030
,
0200
0001
0300
0200
0010
0310
0100
1000
,
0200
0000
0302
1000
0003
0200
0010
0300
,
0020
0000
1000
0000
0030
0000
0020
0000
0001
0000
0031
0000
1000
0010
1000
0010
,
1000
0001
0010
0100
1000
0100
0010
0200
,
0000
1300
0100
0010
0100
0001
0100
0020
,
0000
0031
0010
0100
1000
0100
0010
0200
,
0000
0000
1300
0000
0100
0000
0001
0000
0100
0000
1000
0000
0010
0100
0010
0100
,
0020
0000
0230
0001
0300
0002
1000
0003
,
2000
0010
3000
0020
0100
0130
0010
0001
,
1000
0100
0001
0100
1000
0100
0010
0100
,
0001
0100
0010
1000
0100
0010
0100
1000
,
0002
1000
0100
1000
,
0203
0010
0001
0010
,
0302
1000
0010
1000
,
0023
0001
1000
0031
,
1001
0000
0000
0010
0001
0000
0010
0000
0000
0010
0001
0000
0010
0000
0001
0000
,
1000
0000
0000
0100
1000
0000
0000
0100
0001
0000
0100
0000
1000
0000
0010
0000
,
0100
0000
0000
0100
0001
0000
0100
0000
0010
0100
0010
0000
0100
0001
0000
1000
,
0001
0000
0010
0100
2000
0000
0100
0000
,
3020
0000
0000
1000
0000
0031
0010
0000
,
0100
0000
0000
0001
1000
0000
0100
0000
0000
1000
0001
0000
0100
0000
0010
0000
,
2000
0000
3001
0100
1000
0100
0010
0100
,
0001
0000
0000
1001
0000
0000
1100
0000
0000
0110
0000
0000
1001
0000
0000
0001
,
0020
0000
0032
1000
0003
0200
0010
0310
,
1000
0010
0001
0100
0010
1000
0100
0001
,
0200
0000
0000
0000
2300
0000
0010
0000
3000
1000
0020
0000
0100
0000
0130
0000
,
0001
1000
0100
0001
0100
0010
1000
0010
,
0002
0000
0000
0000
0203
0000
0010
0000
0300
0000
0001
0000
1000
0001
1000
0001
,
2000
0000
3001
0010
1000
0010
0100
0001
,
0200
0000
0000
0000
2300
0000
0001
0000
3000
1000
0200
0000
1000
0000
1300
0000
,
1010
0000
0000
1001
0000
0000
0101
0000
0000
0110
0000
0000
2002
0000
0000
0000
,
0000
0000
0000
3003
;

//---------------dance-double - ----------------
#NOTEDATA:;
#CHARTNAME:EXPERT;
#CHARTHASH:395657682;
#STEPSTYPE:dance-double;
#BANNER:;
#DESCRIPTION:;
#CHARTSTYLE:;
#DIFFICULTY:Hard;
#METER:13;
#METERF:13.000000;
#LASTSECONDHINT:0.025000;
#RADARVALUES:0.552191,0.690617,0.187032,0.162095,0.187032,310.000000,295.000000,15.000000,13.000000,0.000000,0.000000,0.000000,0.000000,0.000000,0.552191,0.690617,0.187032,0.162095,0.187032,310.000000,295.000000,15.000000,13.000000,0.000000,0.000000,0.000000,0.000000,0.000000;
#CREDIT:YonabearCWY;
#NOTES:
// measure 0
00000000
00000000
00000000
00000000
,  // measure 1
00000000
00000000
00000000
00000000
,  // measure 2
00000000
00000000
00000000
00000000
,  // measure 3
00000000
00000000
00000000
00000000
,  // measure 4
10000000
00010000
00100000
01000000
00000000
00010000
00000000
00000000
,  // measure 5
00001000
00010000
00000010
00000100
00000000
00000001
00000000
00000000
,  // measure 6
00001100
00000000
00000200
00020000
00000000
00000000
00030300
00000000
,  // measure 7
00011000
00000000
00200000
00002000
00000000
00000000
00303000
00000000
,  // measure 8
00010000
00000000
00001000
01000000
00100000
00000000
10000000
00000000
,  // measure 9
01000000
00000000
00100000
00001000
00010000
00000000
00000100
00000010
,  // measure 10
00000002
00000000
00000000
00000000
00001000
00000000
00001003
00000000
00000000
00000000
00000010
00000000
00000000
00010000
00000000
00000000
,  // measure 11
00002000
00000000
00000000
00000000
00010000
00000000
00013000
00000000
00000000
00000000
00001000
00000000
00000000
00100000
00000000
00000000
,  // measure 12
01000000
00000000
00010000
01000000
10000000
01000000
00100000
00000000
,  // measure 13
00001000
00000000
00010000
00000100
00001000
00000010
00001000
00000000
,  // measure 14
00000001
00000000
00000010
00000000
00000100
00000000
00001000
00000000
00000000
00000000
00000100
00000000
00000000
00000010
00000000
00000000
,  // measure 15
00000100
00010000
00001000
00000000
00011000
00000000
00000000
00000000
,  // measure 16
00100000
00000000
00010000
00100000
10000000
00000000
00100000
00010000
,  // measure 17
01000000
00000000
00100000
10000000
00000000
01000000
00010000
01000000
,  // measure 18
00100000
00000000
00001000
00010000
00001000
00000000
00010000
00000010
,  // measure 19
00000100
00000000
00000000
00000000
00000101
00000000
00000000
00000000
00000010
00000000
00000100
00000000
00001000
00000001
00001000
00000001
,  // measure 20
00001000
00000000
00000001
00000100
00001000
00000000
00000100
00000010
,  // measure 21
00001000
00000000
00000001
00000100
00001000
00000100
00000010
00000000
,  // measure 22
00001000
00000000
00000100
00010000
00001000
00000000
00010000
00001000
,  // measure 23
00010000
00000000
00000000
00000000
00001000
00000000
00100000
00000000
00010000
00000000
10000000
00000000
01000000
00100000
00000000
00100000
,  // measure 24
00010000
00000000
01000000
00010000
00100000
00001000
00010000
00000010
,  // measure 25
00001000
00000100
00010000
00000100
00001000
00000001
00000010
00000000
,  // measure 26
00000100
00000000
00010000
00001000
01000000
00100000
01000000
00010000
,  // measure 27
00100000
00000000
01000000
00000000
10000000
00000000
00010000
00000000
00100000
00000000
00001000
00000000
00010000
00001000
00010000
00001000
,  // measure 28
00010000
00000000
00000010
00001000
00000000
00000100
00000001
00000100
,  // measure 29
00001000
00000000
00000100
00010000
00001000
00000000
01000000
00000000
,  // measure 30
00100000
00000000
00000000
00000000
10000000
00000000
00010000
00000000
00000000
00000000
00100000
00000000
01000000
10000000
00000000
10000000
,  // measure 31
00010000
00000000
00100000
01000000
10000000
01000000
00010000
00001000
,  // measure 32
00020000
00001000
00000100
00031000
,  // measure 33
00000200
00010000
00001000
00010300
,  // measure 34
00002000
00000010
00000100
00003010
,  // measure 35
00000200
00000301
00000020
00000130
,  // measure 36
00010000
00000000
00000100
00000000
00010000
00000000
00001000
00000000
01000000
00000000
00100000
00000000
10000000
01000000
00000000
01000000
,  // measure 37
00100000
00000000
00000000
00000000
01010000
00000000
00000000
00000000
00100000
00000000
00010000
00000000
00000000
01000000
00001000
00000000
,  // measure 38
00010000
00000000
00000010
00000100
00010000
00000000
00000100
00000010
,  // measure 39
00001000
00000000
00000000
00000000
00000110
00000000
00000000
00000000
00000001
00000000
00001000
00000000
00000100
00010000
00000000
00010000
,  // measure 40
00001000
00000000
01000000
00010000
10000000
00000000
01000000
00100000
,  // measure 41
00001000
00000000
00010000
00000100
00000000
00001000
00000010
00000001
,  // measure 42
00000010
00000000
00000100
00000001
00000000
00001000
00000010
00010000
,  // measure 43
00011000
00000000
00000000
00101000
00000000
00000000
00110000
00000000
00000000
01010000
00000000
00000000
01001000
00000000
00000000
00000000
,  // measure 44
00100000
00010000
10000000
01000000
00100000
00010000
00100000
01000000
,  // measure 45
00010000
00000000
00000000
00000000
00001000
00000000
00010000
00000000
00000000
00000000
00000010
00000000
00010000
00000100
00000000
00000100
,  // measure 46
00001000
00000000
00000001
00000100
00001000
00000100
00000010
00001000
,  // measure 47
00000010
00000000
00000000
00000000
00010000
00000000
00001000
00000000
00100000
00000000
00001000
00000000
00010000
00001000
00010000
00001000
,  // measure 48
00100000
00000000
00000000
00000000
00010000
00000000
00100000
00000000
01000000
00000000
10000000
00000000
00100000
01000000
00000000
01000000
,  // measure 49
00001000
00000000
00000000
00000000
00010000
00000000
00000100
00000000
00001000
00000000
00000010
00000000
00000100
00000010
00000000
00000010
,  // measure 50
00001000
00000000
00000000
00000000
00000001
00000000
00000010
00000000
00000100
00000000
00001000
00000000
00000100
00010000
00000100
00010000
,  // measure 51
00001000
00000000
00000000
00010100
00000000
00000000
00011000
00000000
00000000
00110000
00000000
00000000
00202000
00000000
00000000
00000000
,  // measure 52
00000000
00000000
00000000
00303000
;
