#VERSION:0.83;
#TITLE:1st Samurai;
#SUBTITLE:;
#ARTIST:sampling masters MEGA;
#TITLETRANSLIT:;
#SUBTITLETRANSLIT:;
#ARTISTTRANSLIT:;
#GENRE:お江戸テクノ;
#ORIGIN:;
#TAGS:;
#CREDIT:YonabearCWY;
#BANNER:1st Samurai.png;
#BACKGROUND:1st Samurai-bg.png;
#PREVIEWVID:;
#JACKET:1st Samurai-jacket.png;
#CDIMAGE:;
#DISCIMAGE:;
#LYRICSPATH:;
#CDTITLE:Beatmania IIDX.png;
#MUSIC:1st Samurai.ogg;
#OFFSET:-4.156000;
#SAMPLESTART:5.505430;
#SAMPLELENGTH:15.000000;
#SELECTABLE:YES;
#BPMS:0.000000=175.000000
,252.000000=200.000000
;
#STOPS:252.000000=2.264000
;
#DELAYS:;
#WARPS:;
#TIMESIGNATURES:0.000000=4=4
;
#TICKCOUNTS:0.000000=4
;
#COMBOS:0.000000=1
;
#SPEEDS:0.000000=1.000000=0.000000=0
;
#SCROLLS:0.000000=1.000000
;
#LABELS:0.000000=Song Start
;
#BGCHANGES:4.000=smash1.mp4=0.950=1=0=1===CrossFade==,
12.000=spikes9.mp4=1.600=0=0=1=====,
20.000=smash1.mp4=0.950=0=0=1=====,
28.000=spikes5.mp4=1.600=0=0=1=====,
36.000=ninja1d.mp4=1.600=0=0=1=====,
40.000=ninja4.mp4=1.600=0=0=1=====,
44.000=ninja1d.mp4=1.600=0=1=1=StretchRewind====,
48.000=smash1.mp4=1.600=0=0=1=====,
52.000=ninja1d.mp4=1.600=0=1=1=StretchRewind====,
56.000=ninja5.mp4=1.600=0=0=1=====,
60.000=ninja1d.mp4=1.600=0=1=1=StretchRewind====,
64.000=smash1.mp4=1.600=0=1=1=StretchRewind====,
68.000=fire4.mp4=1.600=0=0=1=====,
76.000=fire6.mp4=1.600=0=0=1=====,
84.000=spikes10.mp4=1.600=0=0=1=====,
86.000=smash1.mp4=2.000=0=1=1=StretchRewind====,
88.000=fire5.mp4=1.600=0=0=1=====,
90.000=smash1.mp4=2.000=0=1=1=StretchRewind====,
92.000=spikes10.mp4=1.600=0=0=1=====,
94.000=spikes5.mp4=1.600=0=0=1=====,
96.000=fire5.mp4=1.600=0=0=1=====,
98.000=smash1.mp4=2.000=0=1=1=StretchRewind====,
100.000=spikes10.mp4=1.600=0=0=1=====,
102.000=ninja5.mp4=2.000=0=1=1=StretchRewind====,
104.000=fire5.mp4=1.600=0=0=1=====,
106.000=ninja5.mp4=2.000=0=1=1=StretchRewind====,
108.000=spikes10.mp4=1.600=0=0=1=====,
110.000=spikes5.mp4=1.600=0=0=1=====,
112.000=fire5.mp4=1.600=0=0=1=====,
114.000=ninja5.mp4=2.000=0=1=1=StretchRewind====,
116.000=tunnel11.mp4=1.600=0=0=1=====,
132.000=demon3.mp4=1.600=0=0=1=====,
140.000=spikes9.mp4=1.600=0=0=1=====,
148.000=jump1.mp4=2.000=0=0=1=====,
150.000=circle4.mp4=1.600=0=0=1=====,
152.000=jump1.mp4=2.000=0=0=1=====,
154.000=circle4.mp4=1.600=0=0=1=====,
156.000=circle11.mp4=1.600=0=0=1=====,
164.000=pentagon1.mp4=1.600=0=0=1=====,
172.000=square1.mp4=1.600=0=0=1=====,
176.000=ninja1d.mp4=1.600=0=1=1=StretchRewind====,
180.000=tunnel6.mp4=1.600=0=0=1=====,
184.000=tunnel7.mp4=1.600=0=0=1=====,
188.000=square1.mp4=1.600=0=0=1=====,
192.000=circle11.mp4=1.600=0=0=1=====,
196.000=tunnel11.mp4=1.600=0=0=1=====,
204.000=jump1.mp4=2.000=0=0=1=====,
212.000=demon3.mp4=1.600=0=0=1=====,
214.000=circle4.mp4=1.600=0=0=1=====,
216.000=demon3.mp4=1.600=0=0=1=====,
218.000=circle4.mp4=1.600=0=0=1=====,
220.000=fire4.mp4=1.600=0=0=1=====,
222.000=fire6.mp4=1.600=0=0=1=====,
224.000=fire4.mp4=1.600=0=0=1=====,
226.000=fire6.mp4=1.600=0=0=1=====,
228.000=tunnel11.mp4=1.600=0=0=1=====,
236.000=jump1.mp4=2.000=0=0=1=====,
244.000=tunnel11.mp4=1.600=0=0=1=====,
252.000=smash1.mp4=0.900=0=1=1=StretchRewind====,
253.000=circle11.mp4=2.000=0=0=1=====,
257.000=pentagon1.mp4=2.000=0=0=1=====,
261.000=tunnel6.mp4=2.000=0=0=1=====,
265.000=tunnel7.mp4=2.000=0=0=1=====,
269.000=square1.mp4=2.000=0=0=1=====,
277.000=circle4.mp4=1.000=0=0=1=====,
281.000=smash1.mp4=0.001=0=0=1=====,
281.667=ninja1d.mp4=0.001=0=0=1=====,
283.000=ninja4.mp4=0.001=0=0=1=====,
285.000=ninja5.mp4=0.001=0=0=1=====,
287.000=fire4.mp4=0.001=0=0=1=====,
289.000=fire6.mp4=0.001=0=0=1=====,
291.000=1st Samurai-bg.png=1.000=0=0=1=====,
99999.000=-nosongbg-=1.000=0=0=0=StretchNoLoop====,
99999=-nosongbg-=1.000=0=0=0 // don't automatically add -songbackground-
;
#KEYSOUNDS:;
#ATTACKS:
;

//---------------dance-single - ----------------
#NOTEDATA:;
#CHARTNAME:BEGINNER;
#CHARTHASH:1357616695;
#STEPSTYPE:dance-single;
#BANNER:;
#DESCRIPTION:;
#CHARTSTYLE:;
#DIFFICULTY:Beginner;
#METER:5;
#METERF:0.000000;
#LASTSECONDHINT:107.219994;
#RADARVALUES:0.197802,0.271493,0.099548,0.018100,0.000000,153.000000,142.000000,11.000000,2.000000,0.000000,0.000000,0.000000,0.000000,0.000000,0.197802,0.271493,0.099548,0.018100,0.000000,153.000000,142.000000,11.000000,2.000000,0.000000,0.000000,0.000000,0.000000,0.000000;
#CREDIT:YonabearCWY;
#NOTES:
0000
0000
0000
0000
,
1000
0000
1000
0000
,
1000
0000
0000
0000
,
0010
0000
0010
0000
,
0010
0000
0000
0000
,
0100
0000
0100
0000
,
0100
0000
0000
0000
,
0001
0000
0001
0000
,
0001
0000
0000
0000
,
0001
0001
0001
0000
,
1001
0000
0000
0000
,
1000
1000
1000
0000
,
0110
0000
0000
0000
,
0001
0001
0001
0000
,
1001
0000
0000
0000
,
1000
1000
1000
0000
,
0110
0000
0000
0000
,
0010
0000
0010
0000
,
0010
0010
0010
0010
,
1000
0000
1000
0000
,
1000
1000
1000
1000
,
0001
0000
0100
0000
,
0001
0000
1000
0000
,
0001
0000
1000
0000
,
0001
0000
1000
0000
,
0010
0000
1000
0000
,
0100
0000
1000
0000
,
0010
0000
0100
0000
,
0001
0000
0100
0000
,
0001
0000
0001
0000
,
0001
0000
1000
0000
,
1000
0000
1000
0000
,
0010
0010
0010
0010
,
0010
0000
0010
0000
,
0100
0000
0100
0000
,
0001
0000
0001
0000
,
1000
1000
1000
1000
,
1001
0000
0010
0000
,
0010
0000
0010
0000
,
0100
0000
0100
0000
,
0100
0000
0010
0000
,
0110
0000
1000
0000
,
0010
0000
1000
0000
,
0010
0000
0100
0000
,
1001
0000
0000
0000
,
1000
0000
0000
0000
,
0010
0000
0000
0000
,
1000
0000
0000
0000
,
1001
0000
0000
0000
,
0001
0000
0001
0000
,
0001
0000
1000
0000
,
1000
0000
1000
0000
,
0010
0000
0010
0000
,
0010
0000
1000
0000
,
0010
0000
0100
0000
,
0001
0000
0100
0000
,
0001
0000
1000
0000
,
0010
0000
0010
0000
,
0100
0000
0100
0000
,
0010
0000
1000
0000
,
0001
0000
0100
0000
,
0001
0000
0010
0000
,
0100
0000
1000
0000
,
1001
1000
0000
1000
,
0000
0001
0000
0001
,
0000
1000
0000
0010
,
0000
1000
0000
0010
,
0000
0100
0000
0001
,
0000
0100
0000
0001
,
0000
1001
0000
0000
,
0000
0000
0000
0100
,
0000
0010
0000
1000
,
0000
0001
0000
2002
,
0000
0000
0000
0000
,
0000
0000
0000
0000
,
3003
0000
0000
0000
;

//---------------dance-single - ----------------
#NOTEDATA:;
#CHARTNAME:BASIC;
#CHARTHASH:185999989;
#STEPSTYPE:dance-single;
#BANNER:;
#DESCRIPTION:;
#CHARTSTYLE:;
#DIFFICULTY:Easy;
#METER:7;
#METERF:0.000000;
#LASTSECONDHINT:107.219994;
#RADARVALUES:0.354234,0.542986,0.407240,0.479638,0.009050,274.000000,229.000000,45.000000,53.000000,0.000000,0.000000,0.000000,0.000000,0.000000,0.354234,0.542986,0.407240,0.479638,0.009050,274.000000,229.000000,45.000000,53.000000,0.000000,0.000000,0.000000,0.000000,0.000000;
#CREDIT:YonabearCWY;
#NOTES:
0000
0000
0000
0000
,
1000
1000
1000
0010
,
1000
1000
1000
0100
,
1000
1000
1000
0001
,
0100
0100
0100
0001
,
0010
0001
0100
0101
,
0001
1000
0010
1010
,
1000
0001
0100
0110
,
0010
1000
0010
0110
,
1000
0001
1000
0000
0010
0000
0100
0000
,
0202
0000
0000
0300
,
0023
0000
0031
1000
,
2020
0000
0000
0030
,
3001
1000
0001
0000
0100
0000
0010
0000
,
2020
0000
0000
3000
,
0230
0000
0310
1000
,
2002
0000
0003
3010
,
1000
1010
1000
1010
,
1000
0001
0100
0001
,
0100
0101
0100
0101
,
0001
1000
0010
0100
,
0102
0000
1003
0000
,
2010
0000
3001
0000
,
0120
0000
2030
0000
,
3002
0000
0103
0000
,
0201
0010
0310
0000
,
1020
0100
0130
0000
,
2001
0000
3002
0000
,
0023
0000
0031
0000
,
0001
0100
1000
0100
,
0001
0010
0001
0100
,
0001
1000
0001
1000
,
1010
1100
1001
1010
,
1100
1000
0010
0100
,
0001
0100
0010
1000
,
1001
0010
1001
0100
,
1001
0101
0011
0101
,
2001
0000
0010
0000
,
0010
0000
0010
0000
,
3010
0010
1000
1000
,
0010
0010
0100
0100
,
0001
0101
0000
0001
,
1000
1010
0000
0010
,
1000
1001
0000
0100
,
0220
0000
0000
0330
,
0020
0000
0000
1000
0000
0000
0130
0000
,
0200
0000
0000
0001
0000
0000
0310
0000
,
2000
0000
0000
0001
0000
0000
3010
0000
,
2002
0000
0000
3003
,
0001
0100
0001
0100
,
0001
1000
0001
1000
,
0010
1000
0010
1000
,
0100
1000
0100
1000
,
2002
3003
0220
0330
,
2002
3003
0220
0330
,
2010
3010
1020
1030
,
0201
0301
0102
0103
,
0002
1003
2000
3010
,
0020
0130
0200
0301
,
0001
0010
0001
0100
,
0001
1000
0010
1000
,
0200
0000
2300
0000
,
3020
0000
0130
0001
,
2002
3003
0000
0000
0000
0000
0000
0000
0000
0000
0000
0000
0000
0000
0000
0000
0000
0000
0000
0000
0000
0000
0000
0000
0000
0000
0000
0000
0000
0000
0000
0000
0000
0000
0000
0000
0000
0000
0000
0000
0000
0000
0000
0000
0000
0000
0000
0000
1000
0000
0000
0000
0000
0000
0000
0000
0000
0000
0000
0000
0000
0000
0000
0000
0000
0000
0000
0000
0000
0000
0000
0000
0000
0000
0000
0000
0000
0000
0000
0000
0000
0000
0000
0000
0000
0000
0000
0000
0000
0000
0000
0000
0000
0000
0000
0000
0000
0000
0000
0000
0000
0000
0000
0000
0000
0000
0000
0000
0000
0000
0000
0000
0000
0000
0000
0000
0000
0000
0000
0000
0000
0000
0000
0000
0000
0000
0000
0000
0000
0000
0000
0000
0000
0000
0000
0000
0000
0000
0000
0000
0000
0000
0000
0000
1000
0000
0000
0000
0000
0000
0000
0000
0000
0000
0000
0000
0000
0000
0000
0000
0000
0000
0000
0000
0000
0000
0000
0000
0000
0000
0000
0000
0000
0000
0000
0000
0000
0000
0000
0000
0000
0000
0000
0000
0000
0000
0000
0000
0000
0000
0000
0000
,
0000
0001
0000
0001
,
0000
0100
0100
0010
,
0010
0100
0100
0010
,
0010
1000
0010
0100
,
0001
0100
0010
1000
,
0100
2002
0000
0000
,
0003
0000
0000
3010
0000
0010
0000
0000
0000
0100
0000
0000
,
0000
0001
0000
0010
,
0000
0002
0000
2000
,
0000
0000
0000
0000
,
0000
0000
0000
0000
,
3003
0000
0000
0000
;

//---------------dance-single - ----------------
#NOTEDATA:;
#CHARTNAME:DIFFICULT;
#CHARTHASH:2147483647;
#STEPSTYPE:dance-single;
#BANNER:;
#DESCRIPTION:;
#CHARTSTYLE:;
#DIFFICULTY:Medium;
#METER:10;
#METERF:0.000000;
#LASTSECONDHINT:107.219994;
#RADARVALUES:0.504202,0.610860,0.425339,0.389140,0.054299,390.000000,343.000000,47.000000,43.000000,0.000000,0.000000,0.000000,0.000000,0.000000,0.504202,0.610860,0.425339,0.389140,0.054299,390.000000,343.000000,47.000000,43.000000,0.000000,0.000000,0.000000,0.000000,0.000000;
#CREDIT:YonabearCWY;
#NOTES:
0000
0000
0000
0000
,
1000
0001
1000
0000
0001
0100
0001
0000
,
1000
0010
1000
0000
0010
0000
1001
0000
,
0100
0010
0100
0000
0001
0010
0001
0000
,
0010
0100
0010
0000
0001
0000
0110
0000
,
1000
0010
1000
0100
1000
0000
0010
0000
,
0100
0001
0010
0100
1000
0000
0001
0000
,
0100
0001
0010
0001
1000
0000
0001
0000
,
0100
0001
1000
0000
0010
1000
0001
0000
,
0100
0100
0100
0000
1001
0000
0010
1000
,
2020
0000
0000
3000
,
0130
0000
0000
0010
0000
0000
1000
0000
0001
0000
0000
0000
0100
0000
0001
0000
,
0202
0000
0000
0300
,
1003
1000
1000
0000
0101
0000
0001
0100
,
0220
0000
0000
0300
,
1030
0000
0000
0010
0000
0000
1000
0000
0001
0000
0000
0000
0100
0000
0001
0000
,
0011
0000
0000
1001
0000
0000
1010
0000
,
0110
1000
0010
1000
,
0100
0010
0001
0010
0001
1000
0100
1000
,
0100
1000
0010
1000
,
0001
1000
0010
1000
0010
0100
0001
0100
,
0002
0000
0000
1000
0000
0000
1000
0000
1003
0000
0000
0000
0000
0000
0000
0000
,
2000
0000
0000
0001
0000
0000
0001
0000
3001
0000
0000
0000
0000
0000
0000
0000
,
0020
0000
0000
0130
0000
0000
0000
0000
0020
0000
0000
0130
0000
0000
0000
0000
,
0020
0000
0000
1000
0000
0000
0100
0000
0130
0000
0000
0000
0000
0000
0000
0000
,
0201
0000
0000
0001
0000
0000
0001
0000
0301
0000
0000
0000
0000
0000
0000
0000
,
1002
0000
0000
1000
0000
0000
1000
0000
1003
0000
0000
0000
0000
0000
0000
0000
,
2010
0000
0000
0010
0000
0000
3010
0000
0100
0000
0000
0000
1010
0000
0000
0000
,
0100
0011
2002
0003
,
3001
0000
0001
0000
0001
0100
0010
1000
,
0001
0000
0001
0000
0001
0010
0100
1000
,
0100
1100
0001
0101
,
1010
1001
0110
0101
,
1000
0010
1000
0010
0100
0001
0100
0001
,
1000
0000
0010
0000
0100
0001
0010
0100
,
1000
1010
0010
0101
,
1001
0110
1010
0101
,
0020
0030
0020
0030
,
0200
0300
0200
0300
,
0010
0010
0100
0100
,
0010
0010
0100
0100
,
0010
1000
0010
1000
0001
0100
0001
0100
,
0010
1000
0010
0100
0010
1000
0001
0100
,
0010
1000
0001
0010
0100
1000
0010
1000
,
2002
0000
0000
3003
,
0120
0000
0000
2030
0000
3010
1000
0000
,
0001
1000
0100
0020
0000
0031
0010
0000
,
0012
0000
0000
1000
0000
0000
0103
0000
,
2002
0000
0000
3003
,
1000
1000
0100
0100
,
0010
0010
0001
0001
,
0010
0010
0001
0001
,
0100
0100
0001
0001
,
1000
0001
1000
0000
0001
0100
0001
0000
,
0100
0010
0100
0000
0010
1000
0010
0000
,
1000
1000
1000
0000
0010
0010
0010
0000
,
0100
0100
0100
0000
0001
0001
0001
0000
,
0010
0010
0001
0000
0100
0100
0001
0000
,
1000
1000
0001
0000
0001
0001
0100
0001
,
2001
3010
1002
0103
,
0120
1030
0210
0301
,
0100
0010
0100
0010
1000
0010
1000
0010
,
0100
0001
0100
0001
0010
0001
0010
0100
,
2002
3003
0000
0000
0000
0000
0000
0000
0000
0000
0000
0000
0000
0000
0000
0000
0000
0000
0000
0000
0000
0000
0000
0000
0000
0000
0000
0000
0000
0000
0000
0000
0000
0000
0000
0000
0000
0000
0000
0000
0000
0000
0000
0000
0000
0000
0000
0000
1000
0000
0000
0000
0000
0000
0000
0000
0000
0000
0000
0000
0000
0000
0000
0000
0000
0000
0000
0000
0000
0000
0000
0000
0000
0000
0000
0000
0000
0000
0000
0000
0000
0000
0000
0000
0000
0000
0000
0000
0000
0000
0000
0000
0000
0000
0000
0000
0100
0000
0000
0000
0000
0000
0000
0000
0000
0000
0000
0000
0000
0000
0000
0000
0000
0000
0000
0000
0000
0000
0000
0000
0000
0000
0000
0000
0000
0000
0000
0000
0000
0000
0000
0000
0000
0000
0000
0000
0000
0000
0000
0000
0000
0000
0000
0000
1000
0000
0000
0000
0000
0000
0000
0000
0000
0000
0000
0000
0000
0000
0000
0000
0000
0000
0000
0000
0000
0000
0000
0000
0000
0000
0000
0000
0000
0000
0000
0000
0000
0000
0000
0000
0000
0000
0000
0000
0000
0000
0000
0000
0000
0000
0000
0000
,
0010
1000
0010
0100
,
0001
0012
0103
0210
,
0310
1020
0130
0201
,
0310
0000
0010
1000
0010
0100
0001
1000
,
0010
1000
0100
0001
0100
1000
0010
1000
,
0001
1000
2002
0000
0000
0000
0000
0000
,
3003
0000
0000
0001
0000
0101
0000
0000
0000
1010
0000
0000
,
0000
0110
0000
1002
,
0000
2003
0000
0002
,
0000
0000
0000
0000
,
0000
0000
0000
0000
,
3003
0000
0000
0000
;

//---------------dance-single - ----------------
#NOTEDATA:;
#CHARTNAME:EXPERT;
#CHARTHASH:2147483647;
#STEPSTYPE:dance-single;
#BANNER:;
#DESCRIPTION:;
#CHARTSTYLE:;
#DIFFICULTY:Hard;
#METER:15;
#METERF:15.000000;
#LASTSECONDHINT:107.219994;
#RADARVALUES:0.681319,0.746606,0.461538,0.479638,0.434389,527.000000,476.000000,51.000000,53.000000,0.000000,0.000000,0.000000,0.000000,0.000000,0.681319,0.746606,0.461538,0.479638,0.434389,527.000000,476.000000,51.000000,53.000000,0.000000,0.000000,0.000000,0.000000,0.000000;
#CREDIT:YonabearCWY;
#NOTES:
0000
0000
0000
0000
,
1000
0010
0001
1000
0100
1000
0100
0001
,
0010
0000
0001
0000
0100
0000
1000
0000
0100
0000
0000
0001
1000
0000
0000
0000
,
0001
1000
0100
0001
1000
0010
1000
0010
,
0001
1000
0001
0010
1000
0010
0010
0000
,
0001
0000
1000
0100
2000
0000
0000
0000
3002
0000
0100
0000
0103
0000
0010
0000
,
1000
0000
0100
0000
0010
0000
0001
0000
0100
0000
0000
0001
1000
0000
0000
0000
,
0010
0000
1000
0001
0200
0000
0000
0000
0302
0000
0010
0000
0013
0000
0100
0000
,
1000
0000
0100
0000
0001
0000
1000
0000
0010
0000
0100
1000
0001
0000
0000
0000
,
1000
0000
0001
0010
0000
0010
0100
0000
1000
0000
0001
0000
0010
0000
0100
0000
,
2001
0001
0001
0001
0001
0001
0001
0001
,
3001
0000
0000
0010
0000
0000
1000
0000
0010
0000
0001
0000
1000
0000
0001
0000
,
0210
0010
0010
0010
0010
0010
0010
0010
,
0310
0000
1000
0100
0000
0100
0010
0000
0001
0000
1000
0100
1000
0000
0001
0000
,
0012
0000
0010
0000
0010
0000
0010
0000
0010
0000
0013
0000
0001
0100
0001
0000
,
1000
0000
0000
0001
0000
0000
0010
0000
0100
0000
1000
0000
0001
0000
1000
0000
,
0100
1000
1000
0001
0100
0100
1001
0000
,
0001
0000
0000
0100
0010
0000
0000
0000
1000
0000
0000
0010
0100
0000
0000
0000
,
0002
0100
1003
0000
2000
0100
3001
0000
,
1000
0000
0000
0010
0100
0000
0000
0000
0001
0000
0000
0100
0010
0000
0000
0000
,
2000
0010
3001
0000
0002
0010
1003
0000
,
1001
0000
0000
0010
0000
0010
0000
0000
0202
0000
0000
0000
0000
0000
0303
0000
,
0110
0000
0000
0100
0000
0100
0000
0000
2020
0000
0000
0000
0000
0000
3030
0000
,
0101
0000
0000
1000
0000
0010
0000
0000
0101
0000
0000
0010
0000
1000
0000
0000
,
1010
0000
0000
0001
0000
0100
0000
0000
0220
0000
0000
0000
0000
0000
0330
0000
,
0110
0000
1000
0001
0000
0001
0000
0000
0202
0000
0000
0000
0000
0000
0303
0000
,
1001
0000
0001
1000
0000
1000
0000
0000
2020
0000
0000
0000
0000
0000
3030
0000
,
1001
0000
0000
1000
0000
0010
0000
0010
0100
0000
0000
0001
0000
1000
0000
1000
,
0001
0000
0000
0010
0000
0100
0000
2000
0002
0000
0000
0000
0000
0000
3003
0000
,
0001
0000
1000
0010
1000
0000
0100
0000
0001
0000
0100
0000
1000
0000
0100
0000
,
0010
0000
0001
0010
0200
0000
0000
0000
1300
0000
0001
0000
0010
0000
0100
0000
,
1001
0001
0010
0000
1001
1000
0100
0000
,
1001
1100
1001
0101
,
1000
0000
0001
0000
0010
0000
0000
0100
0000
1000
0000
0000
0001
0000
1000
0000
,
0001
0000
0100
0000
0010
0000
0000
1000
0000
0010
0000
0000
0100
0000
0001
0000
,
0010
1000
0010
0000
0001
0100
0010
0000
,
1010
0101
0110
1001
,
0012
1003
2100
3001
,
0102
0013
2010
3100
,
0010
0100
0000
0000
0100
0001
0000
0000
0001
0010
0000
0000
0010
0001
0000
0000
,
0001
0100
0001
0100
0001
0000
0000
0000
1000
0010
1000
0010
1000
0000
0000
0000
,
2000
0001
3001
0000
0020
0100
0130
0000
,
2000
0010
3010
0000
0200
0001
0301
1000
,
0002
0010
0013
0000
0200
1000
1300
0000
,
2002
0000
0000
3003
,
2100
0000
0010
3010
0000
1000
0001
0100
,
0020
0000
0100
0130
0001
1000
0001
0010
,
1000
0001
0100
0020
0000
0100
0130
0000
,
2002
0000
0000
3003
,
0001
0100
0000
0000
0100
0010
0000
0000
0010
1000
0000
0000
1000
0100
0000
0000
,
0100
0010
0000
0000
0010
0001
0000
0000
0001
0100
0000
0000
0100
0001
0000
0000
,
0001
0010
0000
0000
0010
1000
0000
0000
1000
0010
0000
0000
0010
0001
0000
0000
,
0001
0100
0000
0000
0100
1000
0000
0000
1000
0100
0000
0000
0100
0001
0000
0000
,
0001
1000
0001
1000
0001
0000
0000
0000
1000
0100
1000
0100
1000
0000
0000
0000
,
0010
0100
0010
0100
0010
0000
0000
0000
0100
0001
0100
0001
0100
0000
0000
0000
,
0002
0010
1000
0000
1003
0100
0001
0000
,
0002
0100
1000
0000
1003
0010
0001
0000
,
1000
0010
0000
0000
0100
0000
0001
0000
0100
0010
0000
0000
1000
0000
0001
0000
,
0010
0100
0000
0000
1000
0000
0100
0000
0010
0001
0000
0000
1000
0000
0001
0000
,
0100
0010
0000
0000
1010
0000
0000
0000
0001
0100
0000
0000
0101
0000
0000
0000
,
1000
0001
0000
0000
1100
0000
0000
0000
0001
1000
0000
0000
0101
0000
0000
0000
,
0001
0001
1000
1000
0010
0010
0001
0001
,
0010
0010
0100
0100
0001
0001
0100
0100
,
2002
3003
0000
0000
0000
0000
0000
0000
0000
0000
0000
0000
0000
0000
0000
0000
0000
0000
0000
0000
0000
0000
0000
0000
0000
0000
0000
0000
0000
0000
0000
0000
0000
0000
0000
0000
0000
0000
0000
0000
0000
0000
0000
0000
0000
0000
0000
0000
1000
0000
0000
0000
0000
0000
0000
0000
0000
0000
0000
0000
0000
0000
0000
0000
0000
0000
0000
0000
0000
0000
0000
0000
0001
0000
0000
0000
0000
0000
0000
0000
0000
0000
0000
0000
0000
0000
0000
0000
0000
0000
0000
0000
0000
0000
0000
0000
0001
0000
0000
0000
0000
0000
0000
0000
0000
0000
0000
0000
0000
0000
0000
0000
0000
0000
0000
0000
0000
0000
0000
0000
0010
0000
0000
0000
0000
0000
0000
0000
0000
0000
0000
0000
0000
0000
0000
0000
0000
0000
0000
0000
0000
0000
0000
0000
1000
0000
0000
0000
0000
0000
0000
0000
0000
0000
0000
0000
0000
0000
0000
0000
0000
0000
0000
0000
0000
0000
0000
0000
1000
0000
0000
0000
0000
0000
0000
0000
0000
0000
0000
0000
0000
0000
0000
0000
0000
0000
0000
0000
0000
0000
0000
0000
,
0001
0100
1000
0001
0001
0010
1000
0001
,
0001
0100
1100
0000
1010
0000
1001
0000
,
0101
0011
1001
0101
,
0110
0000
0010
0010
1000
1000
0100
0100
,
0010
0010
0001
0001
0100
0100
1000
1000
,
0100
0000
0000
0100
0000
0000
0001
0000
1000
0000
0100
0000
0010
0000
0001
0000
0010
0000
0100
0000
1000
0000
0001
0000
,
1000
0100
0010
0001
0000
1001
0000
0000
0000
2200
0000
0000
,
3300
2002
3003
0202
,
0003
0302
0000
2000
,
0000
0000
0000
0000
,
0000
0000
0000
0000
,
3003
0000
0000
0000
;

//---------------dance-double - ----------------
#NOTEDATA:;
#CHARTNAME:EXPERT;
#CHARTHASH:2147483647;
#STEPSTYPE:dance-double;
#BANNER:;
#DESCRIPTION:;
#CHARTSTYLE:;
#DIFFICULTY:Hard;
#METER:14;
#METERF:14.000000;
#LASTSECONDHINT:107.219994;
#RADARVALUES:0.651584,0.746606,0.280543,0.253394,0.285068,504.000000,473.000000,31.000000,28.000000,0.000000,0.000000,0.000000,0.000000,0.000000,0.651584,0.746606,0.280543,0.253394,0.285068,504.000000,473.000000,31.000000,28.000000,0.000000,0.000000,0.000000,0.000000,0.000000;
#CREDIT:YonabearCWY;
#NOTES:
00000000
00000000
00000000
00000000
,
10000000
00000000
00100000
00000000
00010000
00000000
00000000
00100000
01000000
00000000
00001000
00000000
00010000
00000000
00000000
00000000
,
00000100
00001000
00000001
00000100
00000010
00000100
00000001
00000000
,
00001000
00000000
00000100
00000000
00000001
00000000
00000000
00000100
00000010
00000000
00000100
00000000
00001000
00000000
00000000
00000000
,
00000001
00000100
00001000
00010000
01000000
00100000
00010000
00000000
,
10000000
00010000
00010000
00000000
00100000
01000000
01000000
00000000
,
10000000
00100000
00010000
00100000
01000000
00001000
00010000
00000100
,
00000010
00000010
00000001
00000000
00000100
00000100
00000010
00000000
,
00000100
00000000
00000001
00000000
00000010
00000000
00000100
00000000
00010000
00000000
00001000
00010000
00001000
00000000
00000000
00000000
,
01000000
00000000
00010000
10000000
00100000
00000000
01000000
00000000
01000000
00000000
00000000
00000000
00100000
00000000
10000000
00000000
,
02000000
00100000
00100000
00100000
00100000
00100000
00100000
03100000
,
00001000
00000000
00000000
00000000
00010000
00000000
00000000
00000010
00000100
00000000
00000001
00000000
00000010
00000000
00000100
00000000
,
00002000
00000001
00000001
00000001
00000001
00000001
00000001
00003001
,
00000100
00000000
00001000
00000100
00000010
00000000
00000100
00000000
00000100
00000000
00000000
00000000
00000010
00000000
00000100
00000000
,
00002000
00000000
00100000
00000000
00100000
00000000
00100000
00000000
00100000
00000000
00100000
00000000
00103000
00001000
00010000
00000000
,
01000000
00000000
00000000
00000000
10000000
00000000
00000000
00010000
01000000
00000000
00001000
00000000
00010000
00000000
00000100
00000000
,
00000010
00000000
00000001
00000010
00001000
00000000
00000110
00000000
,
00000001
00001000
00000100
00000000
00001000
00000001
00000010
00000000
,
00000100
00000000
00000000
00010000
00001000
00000000
00000000
00000000
01000000
00000000
00010000
00100000
01000000
00000000
10000000
00000000
,
00010000
00000000
10000000
00010000
00100000
00000000
00010000
10000000
,
01000000
00000000
00000000
00100000
00001000
00000000
00010000
00000000
00100000
00000000
01000000
00000000
00001000
00000000
00010000
00000000
,
00000100
00000000
00000000
00001000
00000000
00000001
00000000
00000200
00000020
00000000
00000000
00000000
00000000
00000000
00000330
00000000
,
00001000
00000000
00000000
00000100
00000000
00010000
00000000
00002000
02000000
00000000
00000000
00000000
00000000
00000000
03003000
00000000
,
00010000
10000000
01000000
00000000
00100000
00001000
00010000
00000000
,
00100000
01000000
00001000
00010000
00002200
00000000
00000000
00003300
,
00010000
00000000
00001000
01000000
00000000
00100000
00000000
00000000
22000000
00000000
00000000
00000000
00000000
00000000
33000000
00000000
,
01000000
00000000
00100000
00010000
00000000
01000000
00000000
00000000
00022000
00000000
00000000
00000000
00000000
00000000
00033000
00000000
,
00010000
00000010
00000100
00000000
00001000
00010000
00000100
00000000
,
00000010
00000001
00001000
00000010
00010000
00000010
00000100
00001000
,
00100000
00000000
00000000
01000000
00100000
00000000
00000000
00000000
00010000
00000000
10000000
00000000
01000000
00000000
00100000
00000000
,
00010000
00000000
00000000
01000000
10000000
00000000
00000000
00000000
01000000
00000000
00001000
00000000
00010000
00000000
00000100
00000000
,
00001000
00000010
00001000
00000000
00000001
00000100
00000001
00000000
,
00000110
00001100
00010010
00011000
,
00001000
01000000
00100000
00010000
00100000
01000000
00010000
10000000
,
00010000
00100000
01000000
00010000
00001000
00010000
00000010
00000100
,
00000001
00001000
00000100
00000000
00000010
00000100
00010000
00000000
,
00011000
01001000
00110000
10010000
,
10000000
00100000
00000000
00000000
01000000
00000000
00000000
00000000
00010000
00000000
00100000
00000000
10000000
00000000
00000000
00000000
,
00100000
00001000
00000000
00000000
00010000
00000000
00000000
00000000
00000010
00000000
00000100
00000000
00001000
00000000
00000000
00000000
,
00000100
00000001
00000000
00000000
00000001
00000010
00000000
00000000
00000010
00000100
00000000
00000000
00000100
00001000
00000000
00000000
,
00000100
00010000
00001000
00010000
00010000
00001000
00100000
00001000
,
00001000
00100000
01000000
00000000
10000000
01000000
00010000
01000000
,
01000000
10000000
00010000
00000000
00100000
00010000
01000000
00001000
,
00001000
00010000
00001000
00000000
00000010
00000001
00001000
00000000
,
00000220
00000000
00000000
00000330
,
00001000
00000000
00000010
00010000
00001000
00010000
00000100
00001000
,
00000000
00000100
00000000
00010000
00001000
00000000
00010000
00100000
,
01000000
00000000
00100000
10000000
00000000
01000000
00010000
01000000
,
20020000
00000000
00000000
30030000
,
10000000
00100000
00000000
00000000
00100000
01000000
00000000
00000000
01000000
00001000
00000000
00000000
00001000
00010000
00000000
00000000
,
00010000
00000010
00000000
00000000
00000010
00000100
00000000
00000000
00000100
00001000
00000000
00000000
00001000
00000100
00000000
00000000
,
00000100
00000001
00000000
00000000
00000001
00001000
00000000
00000000
00001000
00000010
00000000
00000000
00000010
00010000
00000000
00000000
,
00010000
00001000
00000000
00000000
00001000
00100000
00000000
00000000
00100000
01000000
00000000
00000000
01000000
00010000
00000000
00000000
,
01000000
10000000
01000000
10000000
01000000
00000000
00000000
00000000
10000000
00010000
10000000
00010000
10000000
00000000
00000000
00000000
,
00010000
00100000
00010000
00100000
00010000
00000000
00000000
00000000
00100000
00001000
00100000
00001000
00100000
00000000
00001000
00000000
,
00010000
00000100
00000110
00000000
00000001
00000010
00000110
00000000
,
00001000
00000001
00001001
00000000
00000100
00001000
00001001
00000010
,
00000100
00001000
00000100
00000010
00000100
00010000
00000100
00001000
,
00000100
00010000
00001000
01000000
00100000
01000000
00010000
00100000
,
01000000
10100000
01000000
00110000
,
01000000
00101000
00010000
00010100
,
00001000
00001000
00010000
00010000
00000010
00000010
00000100
00000100
,
00000001
00000001
00000010
00000010
00000100
00000100
00010000
00010000
,
00022000
00033000
00000000
00000000
00000000
00000000
00000000
00000000
00000000
00000000
00000000
00000000
00000000
00000000
00000000
00000000
00000000
00000000
00000000
00000000
00000000
00000000
00000000
00000000
00000000
00000000
00000000
00000000
00000000
00000000
00000000
00000000
00000000
00000000
00000000
00000000
00000000
00000000
00000000
00000000
00000000
00000000
00000000
00000000
00000000
00000000
00000000
00000000
01000000
00000000
00000000
00000000
00000000
00000000
00000000
00000000
00000000
00000000
00000000
00000000
00000000
00000000
00000000
00000000
00000000
00000000
00000000
00000000
00000000
00000000
00000000
00000000
00010000
00000000
00000000
00000000
00000000
00000000
00000000
00000000
00000000
00000000
00000000
00000000
00000000
00000000
00000000
00000000
00000000
00000000
00000000
00000000
00000000
00000000
00000000
00000000
00100000
00000000
00000000
00000000
00000000
00000000
00000000
00000000
00000000
00000000
00000000
00000000
00000000
00000000
00000000
00000000
00000000
00000000
00000000
00000000
00000000
00000000
00000000
00000000
01000000
00000000
00000000
00000000
00000000
00000000
00000000
00000000
00000000
00000000
00000000
00000000
00000000
00000000
00000000
00000000
00000000
00000000
00000000
00000000
00000000
00000000
00000000
00000000
10000000
00000000
00000000
00000000
00000000
00000000
00000000
00000000
00000000
00000000
00000000
00000000
00000000
00000000
00000000
00000000
00000000
00000000
00000000
00000000
00000000
00000000
00000000
00000000
00010000
00000000
00000000
00000000
00000000
00000000
00000000
00000000
00000000
00000000
00000000
00000000
00000000
00000000
00000000
00000000
00000000
00000000
00000000
00000000
00000000
00000000
00000000
00000000
,
00100000
00001000
00010000
00000010
00000100
00000001
00000100
00001000
,
00000100
00000001
00000010
00000000
00001100
00000000
00010000
00000000
,
00001010
00000100
00010010
00001000
,
00011000
00000000
01000000
01000000
00001000
00001000
00010000
00010000
,
00100000
00100000
10000000
10000000
01000000
01000000
00100000
00100000
,
00010000
00000000
00000000
00010000
00000000
00000000
01000000
00000000
00001000
00000000
00010000
00000000
00001000
00000000
00010000
00000000
00000010
00000000
00001000
00000000
00000100
00000000
00000010
00000000
,
00000001
00000000
00000010
00000000
00000100
00000000
00001000
00000000
00000000
00000000
00002002
00000000
00000000
00000000
00000000
00003003
00000000
00000000
00000022
00000000
00000000
00000000
00000000
00000000
,
00000033
00002020
00003030
00020100
,
00000000
00032000
00000000
00020000
,
00000000
00000000
00000000
00000000
,
00000000
00000000
00000000
00000000
,
00033000
00000000
00000000
00000000
;
