#VERSION:0.83;
#TITLE:the keel;
#SUBTITLE:;
#ARTIST:Akino;
#TITLETRANSLIT:;
#SUBTITLETRANSLIT:;
#ARTISTTRANSLIT:;
#GENRE:ELEGOTH;
#ORIGIN:;
#TAGS:;
#CREDIT:YonabearCWY;
#BANNER:the keel.png;
#BACKGROUND:the keel-bg.png;
#PREVIEWVID:;
#JACKET:the keel-jacket.png;
#CDIMAGE:;
#DISCIMAGE:;
#LYRICSPATH:;
#CDTITLE:pop'n music.png;
#MUSIC:the keel.ogg;
#OFFSET:-9.050000;
#SAMPLESTART:59.118744;
#SAMPLELENGTH:15.000000;
#SELECTABLE:YES;
#BPMS:0.000000=133.000000
,152.000000=66.500000
,164.000000=133.000000
;
#STOPS:;
#DELAYS:;
#WARPS:;
#TIMESIGNATURES:0.000000=4=4
;
#TICKCOUNTS:0.000000=4
;
#COMBOS:0.000000=1
;
#SPEEDS:0.000000=1.000000=0.000000=0
;
#SCROLLS:0.000000=1.000000
;
#FAKES:;
#LABELS:0.000000=Song Start
;
#BGCHANGES:0.000=demon1.mp4=1.000=1=0=1===CrossFade==,
4.000=demon2.mp4=1.000=0=0=1=====,
8.000=fire1.mp4=1.000=0=0=1=====,
16.000=fire3.mp4=1.000=0=0=1=====,
24.000=fire1.mp4=1.000=0=1=1=StretchRewind====,
28.000=mask1.mp4=1.000=0=0=1=====,
32.000=fire5.mp4=1.400=0=0=1=====,
40.000=waterfall1.mp4=1.000=0=0=1=====,
48.000=bubble1.mp4=1.000=0=0=1=====,
56.000=fireworks1.mp4=1.000=0=0=1=====,
64.000=face3.mp4=1.000=0=0=1=====,
72.000=demon3.mp4=1.000=0=0=1=====,
80.000=fire3.mp4=1.000=0=1=1=StretchRewind====,
88.000=waterfall1.mp4=1.000=0=1=1=StretchRewind====,
96.000=fan2.mp4=1.000=0=0=1=====,
104.000=moon1.mp4=1.000=0=0=1=====,
112.000=mask1.mp4=1.000=0=1=1=StretchRewind====,
128.000=lightning1.mp4=1.000=0=0=1=====,
136.000=fire1.mp4=1.000=0=1=1=StretchRewind====,
152.000=fire3.mp4=1.000=0=1=1=StretchRewind====,
160.000=mask1.mp4=0.500=0=1=1=StretchRewind====,
164.000=fire5.mp4=1.400=0=1=1=StretchRewind====,
172.000=fire1.mp4=1.000=0=1=1=StretchRewind====,
180.000=demon1.mp4=1.000=0=1=1=StretchRewind====,
184.000=demon2.mp4=1.000=0=1=1=StretchRewind====,
188.000=demon3.mp4=1.000=0=1=1=StretchRewind====,
196.000=light5.mp4=1.000=0=0=1=====,
211.000=the keel-bg.png=1.000=0=0=1=====,
99999=-nosongbg-=1.000=0=0=0 // don't automatically add -songbackground-
;
#KEYSOUNDS:;
#ATTACKS:
;

//---------------dance-single - ----------------
#NOTEDATA:;
#CHARTNAME:BEGINNER;
#CHARTHASH:2455964628;
#STEPSTYPE:dance-single;
#BANNER:;
#DESCRIPTION:;
#CHARTSTYLE:;
#DIFFICULTY:Beginner;
#METER:3;
#METERF:3.000000;
#LASTSECONDHINT:109.651505;
#RADARVALUES:0.000000,0.000000,0.000000,0.000000,0.000000,0.000000,0.000000,0.000000,0.000000,0.000000,0.000000,0.000000,0.000000,0.000000,0.000000,0.000000,0.000000,0.000000,0.000000,0.000000,0.000000,0.000000,0.000000,0.000000,0.000000,0.000000,0.000000,0.000000;
#CREDIT:YonabearCWY;
#NOTES:
1000
0000
1000
0000
,
1000
0000
0000
0000
,
0001
0000
0001
0000
,
0001
0000
0000
0000
,
1000
1000
1000
0000
,
1000
0000
0000
0000
,
0001
0001
0001
0000
,
1001
0000
0000
0000
,
0010
0010
0010
0000
,
0010
0000
0000
0000
,
0100
0100
0100
0000
,
0100
0000
0000
0000
,
0010
0000
0010
0000
,
0100
0000
0100
0000
,
0010
0000
0010
0000
,
0100
0000
0100
0000
,
1001
0000
0000
0000
,
0001
0100
0001
0100
,
0001
0000
0000
0000
,
0110
0000
0000
0000
,
0100
0100
0100
0000
,
0100
0000
0000
0000
,
0010
0010
0010
0000
,
0010
0000
0000
0000
,
1000
1000
1000
0000
,
1000
0000
0000
0000
,
0001
0001
0001
0000
,
0001
0000
0000
0000
,
1000
0000
1000
0000
,
0001
0000
0001
0000
,
1000
0000
1000
0000
,
0001
0000
0001
0000
,
0010
0000
0010
0000
,
0100
0000
0100
0000
,
1001
0000
0000
0000
,
0010
0010
0010
0000
,
0110
0000
0000
0000
,
0100
0100
0100
0000
,
0000
0000
1000
1000
,
1000
0000
0000
0000
,
0001
0001
0001
0001
,
1001
0000
0000
0000
,
0100
0100
0100
0000
,
1001
0000
0000
0000
,
0010
0010
0010
0000
,
0100
0000
0100
0000
,
0010
0000
0010
0000
,
1000
0000
1000
0000
,
0001
0000
0001
0000
,
2000
0000
0000
3000
,
0002
0000
0000
0003
,
2002
0000
0000
0000
,
0000
0000
0000
3003
;

//---------------dance-single - ----------------
#NOTEDATA:;
#CHARTNAME:BASIC;
#CHARTHASH:2977319666;
#STEPSTYPE:dance-single;
#BANNER:;
#DESCRIPTION:;
#CHARTSTYLE:;
#DIFFICULTY:Easy;
#METER:6;
#METERF:6.000000;
#LASTSECONDHINT:109.651505;
#RADARVALUES:0.000000,0.000000,0.000000,0.000000,0.000000,0.000000,0.000000,0.000000,0.000000,0.000000,0.000000,0.000000,0.000000,0.000000,0.000000,0.000000,0.000000,0.000000,0.000000,0.000000,0.000000,0.000000,0.000000,0.000000,0.000000,0.000000,0.000000,0.000000;
#CREDIT:YonabearCWY;
#NOTES:
1000
0100
0000
0100
,
0010
0001
0000
0001
,
1000
0010
0000
0010
,
0100
0001
1000
0110
,
1002
0100
0010
0100
,
0013
0000
0010
0000
,
2001
0010
0100
0010
,
3200
0000
0000
0300
,
2000
0010
3001
0000
,
0001
0001
0100
0000
,
0002
0100
1003
0000
,
1000
1000
0010
0000
,
0110
0000
0110
0000
,
1001
0000
1001
0000
,
0110
0000
0110
0000
,
1001
0000
1001
0000
,
0100
0010
0100
0000
,
0010
0010
0010
0000
,
1000
0001
1000
0000
,
0001
0001
0001
0000
,
2000
0100
0010
0001
,
3100
1000
0000
1000
,
0200
0010
0001
1000
,
0310
0000
0010
0000
,
0002
1000
0010
0100
,
0013
0000
0010
0100
,
0020
0001
1000
0100
,
0031
0000
1000
0000
,
0101
0000
0101
0000
,
1010
0000
1010
0000
,
0011
0000
0011
0000
,
1100
0000
1100
0000
,
1001
0000
1001
0000
,
0110
0000
0110
0000
,
1000
1000
1000
0001
,
1000
0000
1000
0000
,
0001
0001
0001
1000
,
0001
0000
0001
0000
,
0000
0100
0100
0100
,
0010
0000
0100
0010
0100
0000
0001
0010
,
0001
0000
1000
0010
1000
0000
0100
0010
,
1001
0000
0100
0001
0000
0000
0010
0000
,
0001
0000
1000
0010
0000
0000
0100
0000
,
0001
0000
0010
0100
0000
0000
1000
0000
,
0010
0000
0100
0001
0000
0000
0010
0000
,
0100
1000
0100
0001
,
0100
1000
0010
0001
,
0010
1000
0010
0100
,
0001
1000
0001
0100
,
2002
0000
0000
3003
,
0220
0000
0000
0330
,
2002
0000
0000
0000
,
0000
0000
0000
3003
;

//---------------dance-single - ----------------
#NOTEDATA:;
#CHARTNAME:DIFFICULT;
#CHARTHASH:2251549352;
#STEPSTYPE:dance-single;
#BANNER:;
#DESCRIPTION:;
#CHARTSTYLE:;
#DIFFICULTY:Medium;
#METER:9;
#METERF:9.000000;
#LASTSECONDHINT:109.651505;
#RADARVALUES:0.000000,0.000000,0.000000,0.000000,0.000000,0.000000,0.000000,0.000000,0.000000,0.000000,0.000000,0.000000,0.000000,0.000000,0.000000,0.000000,0.000000,0.000000,0.000000,0.000000,0.000000,0.000000,0.000000,0.000000,0.000000,0.000000,0.000000,0.000000;
#CREDIT:YonabearCWY;
#NOTES:
1010
0000
0100
0001
0010
0100
1000
0000
,
0011
0000
0100
0010
1000
0010
0001
0000
,
0110
0000
0001
0100
1000
0100
0010
0000
,
2002
0000
0000
0000
3003
0100
0010
0000
,
2100
0010
0001
3010
,
0102
1000
0010
1003
,
0020
0000
0100
0100
0000
0000
0100
0130
,
0110
0001
1000
0110
,
0102
0010
1000
0013
,
2100
0010
0001
3010
,
1200
0000
1000
1000
0000
1000
1300
0100
,
0000
0010
0000
0001
0000
1000
0001
0000
,
0102
0000
0000
0010
0010
0000
0000
0010
,
0010
0000
0000
0010
0010
0000
1003
0000
,
2100
0000
0000
0001
0001
0000
0000
0001
,
0001
0000
0000
0001
0001
0000
3010
0000
,
1001
0000
0100
0010
0001
0000
0010
0000
,
1100
0000
0010
1000
0001
0000
0100
0000
,
1001
0000
0100
0020
0000
0030
0100
0010
,
0200
0001
1000
0301
,
0010
1000
0100
0001
,
0100
1000
0001
0010
,
0001
1000
0100
0001
,
0110
0000
1000
0000
0001
0100
0101
0000
,
0010
1000
0001
0010
,
1000
0010
0001
1000
,
0100
0000
0001
0000
0100
0000
1000
0010
,
0000
0100
0000
0001
0000
0010
0100
0010
,
1200
0000
0000
1000
1000
0000
0000
0010
,
0010
0000
0000
0001
0001
0000
1300
0000
,
1020
0000
0000
0100
0100
0000
0000
0001
,
0001
0000
0000
1000
1000
0000
0130
0000
,
1001
0000
1000
0100
0001
0000
0001
0100
,
1000
0000
1000
0010
0001
0000
0001
0010
,
1000
0100
1000
0010
1000
0000
0001
0000
,
1001
0000
0100
0001
0010
0000
0100
0000
,
1000
0100
0010
0001
0100
0000
0001
0000
,
0010
0001
1000
0001
0100
0000
0110
0000
,
2001
0010
0010
3010
,
1002
0100
0000
0100
0000
0100
0000
0103
,
2001
0010
0000
0100
0000
0010
0000
3001
,
0110
0000
1000
0100
1000
0010
0010
0000
,
0110
0000
0001
0100
0001
1000
1000
0000
,
0101
0000
0010
0001
0001
0010
0100
0000
,
1010
0000
0100
0010
0010
0001
1000
0000
,
0200
1000
0001
1000
,
0301
0100
1000
0100
0010
0001
0100
0000
,
0020
1000
0001
1000
,
0031
0010
0100
0010
0100
0001
1000
0000
,
2020
0000
0000
3030
,
0220
0000
0000
0330
,
2002
0000
0000
0000
,
0000
0000
0000
3003
;

//---------------dance-single - ----------------
#NOTEDATA:;
#CHARTNAME:EXPERT;
#CHARTHASH:3587286740;
#STEPSTYPE:dance-single;
#BANNER:;
#DESCRIPTION:;
#CHARTSTYLE:;
#DIFFICULTY:Hard;
#METER:11;
#METERF:11.000000;
#LASTSECONDHINT:109.651505;
#RADARVALUES:0.000000,0.000000,0.000000,0.000000,0.000000,0.000000,0.000000,0.000000,0.000000,0.000000,0.000000,0.000000,0.000000,0.000000,0.000000,0.000000,0.000000,0.000000,0.000000,0.000000,0.000000,0.000000,0.000000,0.000000,0.000000,0.000000,0.000000,0.000000;
#CREDIT:YonabearCWY;
#NOTES:
1001
0000
0000
0000
0010
0000
0100
0000
0000
0000
0010
0000
0001
0000
0010
0100
,
0010
0000
1000
0100
0000
0010
0001
0100
,
0110
0000
0000
0000
0001
0000
1000
0000
0000
0000
0100
0000
1000
0000
0100
0001
,
0100
0000
0000
0000
0010
0000
0001
0000
1000
0001
1000
0000
0010
0000
0001
0000
,
0010
0000
0100
0000
0010
0000
1000
0100
,
0010
0000
0100
0000
0001
0000
0010
0001
,
2000
0000
0010
0010
0000
0000
0001
3001
,
0020
0000
0100
0100
0000
0000
1000
1030
,
0010
0000
0001
0000
0100
0000
0010
1000
,
0100
0000
0001
0000
1000
0000
0001
0100
,
0010
0000
0100
0001
0010
0100
1000
0100
,
0000
1000
0010
1000
0001
0100
0001
0010
,
0020
0000
0000
0100
0230
0000
0000
0001
,
0302
0000
0000
1000
1003
0010
0100
0000
,
2001
0000
0000
0010
3020
0000
0000
0100
,
0230
0000
0000
0000
0000
0000
0001
0000
0302
0000
0000
0000
0013
0000
0100
0010
,
0001
0000
0000
0000
1000
0000
0010
0000
0100
0000
0001
0000
0010
0000
0100
1000
,
0001
0000
0100
0010
0100
1000
0100
0010
,
2001
0000
0000
0000
0010
0000
0010
0000
0000
0000
0000
0000
3100
0000
1000
0100
,
0001
0000
0100
0000
1000
0000
0010
0100
0000
0010
0000
1000
0001
0000
0001
0000
,
0100
0000
0010
1000
0100
0000
0010
0001
,
1000
0000
0001
0000
0010
0000
1000
0100
,
0001
0000
0001
0100
1000
0000
0010
0100
,
0001
0000
1000
0000
0010
0000
1000
0100
0000
0100
0010
0000
0001
0000
0100
0000
,
0100
0010
0001
0000
0010
0100
1000
0000
,
0010
0100
1000
0100
,
0001
0010
1000
0000
1000
0010
0001
0000
,
0100
0010
1000
0010
0100
0001
0010
0100
,
0200
0000
0010
0000
0000
0000
1300
0010
0000
0000
0100
0000
0001
0000
0010
0000
,
0020
0000
0100
0000
0000
0000
0031
0100
0000
0000
0010
0000
1000
0000
0000
0000
,
0120
0000
0001
0000
0000
0000
1030
0001
0000
0000
0100
0000
0001
0000
0010
0000
,
0020
0000
0001
0000
0000
0000
0130
1000
0000
0000
0100
0000
0010
0000
0000
0000
,
0102
0000
0100
0000
0000
0000
1003
0010
0000
0000
0001
0000
0010
0000
0100
0000
,
2010
0000
0010
0000
0000
0000
3001
0100
0000
0000
0010
0000
1000
0000
0100
0000
,
0020
0001
1000
0031
,
0100
0010
0001
0010
1000
0010
0100
0001
,
0200
1000
0001
1300
,
0010
0100
0010
0001
0010
0100
0001
2000
,
0000
0000
3010
0100
0001
0010
0200
0000
,
2300
0000
0010
0010
0000
0000
0010
0010
0000
0000
0010
0010
0000
0000
0100
0000
,
3002
0000
0000
0100
0100
0000
0000
0100
0100
0000
0000
0100
0100
0000
0013
0000
,
1001
0000
0000
0000
1000
0000
0010
0000
0000
0000
0100
0000
0010
0000
0001
0010
,
0100
0000
0010
1000
0000
0100
0010
0000
,
0101
0000
0000
0000
0010
0000
0001
0000
0000
0000
1000
0000
0010
0000
0100
0001
,
1000
0000
0100
0010
0000
0100
1000
0000
,
0110
0000
1000
0010
0001
0000
0010
0000
,
0100
0000
0010
1000
0100
0010
0001
0000
,
1100
0001
0100
0010
,
0001
0010
0100
0010
0100
1000
0001
0010
,
0002
0000
0000
1000
0000
0000
0000
0000
0000
1003
0010
0100
,
0020
0000
0000
0000
0000
0000
0000
0000
0000
0000
0000
0000
0000
0000
0000
0000
0000
0000
0130
0000
0000
0001
0000
0010
,
0000
0000
0100
0000
0000
0000
1000
0000
0000
0010
0000
0000
0200
0000
0000
0000
0000
0000
0000
0000
0000
0000
0000
0000
0000
0000
0000
0000
0000
0000
0000
0000
0000
0000
0000
0000
0000
0000
0000
0000
0000
0000
0000
0000
0000
0000
0000
0000
,
0000
0000
0000
0300
;

//---------------dance-single - ----------------
#NOTEDATA:;
#CHARTNAME:CHALLENGE;
#CHARTHASH:2575272693;
#STEPSTYPE:dance-single;
#BANNER:;
#DESCRIPTION:;
#CHARTSTYLE:;
#DIFFICULTY:Challenge;
#METER:13;
#METERF:13.000000;
#LASTSECONDHINT:109.651505;
#RADARVALUES:0.590053,0.642214,0.189384,0.324658,0.432877,458.000000,437.000000,21.000000,36.000000,0.000000,0.000000,0.000000,0.000000,0.000000,0.590053,0.642214,0.189384,0.324658,0.432877,458.000000,437.000000,21.000000,36.000000,0.000000,0.000000,0.000000,0.000000,0.000000;
#CREDIT:YonabearCWY;
#NOTES:
// measure 0
2000
0000
0000
3001
0010
0000
0100
1000
0200
0000
0000
0301
1000
0000
0010
0001
,  // measure 1
0020
0000
0000
0130
0001
0000
0100
1000
0200
0000
0000
0000
1300
0000
0001
0000
,  // measure 2
0020
0000
0000
0031
1000
0000
0001
0100
0002
0000
0000
0013
0100
0000
1000
0001
,  // measure 3
2000
0000
0000
0000
3010
0000
1000
0000
0100
1000
0100
0000
1000
0000
0010
0000
,  // measure 4
1002
0000
0100
0100
0000
0100
0103
0001
,  // measure 5
0010
0100
1000
0010
0100
0001
0010
0100
,  // measure 6
0021
0000
1000
1000
0001
0000
0001
0001
,  // measure 7
0130
0010
0001
1000
0001
1000
0010
0100
0010
0100
0001
1000
0001
0000
0000
0000
,  // measure 8
0120
0000
1000
1000
0000
1000
1030
0010
,  // measure 9
0100
0010
0001
0010
0100
0001
0100
1000
,  // measure 10
0102
0000
1000
1000
0010
0000
0100
0100
,  // measure 11
2003
0000
0000
0000
3010
0000
0100
0000
0001
0010
0001
0000
1000
0000
0010
0000
,  // measure 12
0110
0000
0000
1000
0001
0000
0100
0010
0001
0000
0000
0001
0010
0000
0100
0010
,  // measure 13
1000
0000
0000
0100
0010
0000
0001
1000
0100
0000
0010
0000
0010
0000
0000
0000
,  // measure 14
1001
0000
0000
0010
0100
0000
0001
1000
0010
0000
0000
0100
0001
0000
1000
0100
,  // measure 15
0010
0000
0000
0001
0100
0000
0001
0010
1000
0000
0000
0000
0010
0000
0001
0000
,  // measure 16
0102
0000
0000
0000
0010
0000
0010
0000
0000
0000
0010
0000
0013
0000
0001
1000
,  // measure 17
0200
0000
0010
0010
1000
0000
1000
1300
,  // measure 18
2001
0000
0100
0100
0000
0100
3100
1000
,  // measure 19
0001
0000
0100
0000
0001
0000
0010
0001
0000
0001
0000
0001
1000
0000
0110
0000
,  // measure 20
1001
0100
0010
0001
0001
0001
0100
0010
,  // measure 21
1010
0100
0001
0100
0100
0100
0010
1000
,  // measure 22
0001
0100
0001
0100
0001
0000
0010
0000
0001
0000
1000
0000
1000
0000
1000
0000
,  // measure 23
0100
0000
0010
0000
0100
0000
1000
0001
0000
0001
0000
0001
0010
0000
0100
1000
,  // measure 24
0001
0010
0100
0010
0001
0100
0010
0001
,  // measure 25
0110
0001
0010
0100
1000
0010
1000
0100
,  // measure 26
1010
0000
0100
0000
0001
0000
0010
0000
0001
1000
0001
1000
0001
0000
0010
0000
,  // measure 27
0100
0000
1000
0000
0001
0000
0100
0000
0001
0000
1000
0000
0100
0000
0010
0001
,  // measure 28
1000
0000
0000
0010
0100
0000
0100
0001
0010
0000
0000
0100
1000
0000
1000
0001
,  // measure 29
0010
0000
0000
0100
0010
0000
0010
0001
1000
0000
0001
0100
0020
0000
0000
0000
,  // measure 30
1030
0000
0000
0010
1000
0000
1000
0100
0001
0000
0000
0100
1000
0000
0001
0010
,  // measure 31
1000
0000
0000
0010
0001
0000
0100
0001
0010
0001
0010
0000
0200
0000
0000
0000
,  // measure 32
0310
0000
0000
0100
1000
0000
0001
0010
0100
0000
0000
1000
0010
0000
0100
0001
,  // measure 33
1000
0000
0000
0010
0100
0000
0001
1000
0010
1000
0010
0000
0100
0000
0001
1000
,  // measure 34
0010
0100
1000
0100
0001
1000
1000
1000
,  // measure 35
1000
0100
0100
0010
0001
0001
1010
1000
,  // measure 36
0101
0010
0001
0100
0001
0010
0010
0010
,  // measure 37
0010
0000
0100
0000
0100
0000
1000
0000
0001
0000
0001
0000
0100
0010
0100
0000
,  // measure 38
1001
0000
0000
1000
0010
1000
0000
0010
0000
0100
0000
0001
0000
0010
0001
0000
,  // measure 39
0201
0000
0000
0000
1300
0000
1000
0020
1000
0000
0000
0000
1030
0000
1000
0002
1000
0000
0000
0000
1003
0000
1000
0200
1000
0000
0000
0000
0310
0000
0100
0000
,  // measure 40
2000
0000
0010
0000
3200
0000
1000
0000
0302
0000
0100
0000
2003
0000
3010
0010
,  // measure 41
1002
0000
0000
0000
0103
0001
0100
0001
0200
0000
0000
0000
0310
0000
1000
0000
,  // measure 42
0002
0000
0000
0000
1003
0010
1000
0010
2000
0000
0000
0000
3100
0000
0010
0000
,  // measure 43
1002
0000
0000
0000
0103
0001
0100
0010
0200
0000
0000
0000
0310
0000
1000
0000
,  // measure 44
1020
0000
0000
0000
0130
0001
0010
0001
2000
0000
0100
0000
3100
0000
1000
0000
,  // measure 45
0010
0001
0010
1000
0001
0010
1000
0010
,  // measure 46
0001
0001
0001
0001
0100
0001
0001
0001
,  // measure 47
0100
1000
0100
0001
1000
0100
0001
0100
,  // measure 48
1000
1000
1000
1000
0100
1000
1000
1000
,  // measure 49
1002
0000
0000
0000
0000
0000
0100
0000
0000
0100
0000
0000
0000
0000
0000
0000
0000
0000
0103
0001
0010
0001
0000
1000
,  // measure 50
0000
0020
0000
0000
0000
0000
0000
0000
0000
0000
0000
0000
0000
0000
0000
0000
0000
0000
0000
0000
0130
0000
0000
0010
,  // measure 51
1000
0010
0000
0100
0000
0002
0000
0000
0000
0000
0000
0000
0000
0000
0000
0000
0000
0000
0000
0000
0000
0000
0000
0000
,  // measure 52
0000
0000
0000
0003
;
