#TITLE:skyscraper(s);
#SUBTITLE:;
#ARTIST:Amane Uyama;
#TITLETRANSLIT:;
#SUBTITLETRANSLIT:;
#ARTISTTRANSLIT:;
#GENRE:SHIBUYA CITY POP;
#CREDIT:YonabearCWY & PandemoniumX;
#BANNER:skyscraper(s).png;
#BACKGROUND:skyscraper(s)-bg.png;
#LYRICSPATH:;
#CDTITLE:Once Upon a KATAMARI.png;
#MUSIC:skyscraper(s).ogg;
#OFFSET:-9.740000;
#SAMPLESTART:52.983650;
#SAMPLELENGTH:15.000000;
#SELECTABLE:YES;
#BPMS:0.000000=82.504997
;
#STOPS:24.750000=0.368000,
27.250000=0.368000,
29.750000=0.368000,
32.250000=0.368000
;
#BGCHANGES:;
#KEYSOUNDS:;
#ATTACKS:;

//---------------dance-double - ----------------
#NOTES:
     dance-double:
     EXPERT:
     Hard:
     12:
     0.417252,0.356586,0.285488,0.109803,0.559996,266.000000,240.000000,26.000000,10.000000,0.000000,0.000000,0.417252,0.356586,0.285488,0.109803,0.559996,266.000000,240.000000,26.000000,10.000000,0.000000,0.000000:
00100000
00000000
00010000
01000000
00000000
00100000
10000000
00000000
01000000
00100000
00000000
00001000
00010000
00000000
00000000
00000100
,
00001000
00000000
00000010
00000000
00000100
00000001
00000000
00001000
00000010
00000100
00000010
00001000
00000000
00000000
00000100
00010000
,
00001000
00000000
00010000
00000000
00100000
00000000
00000000
01000000
00000000
00100000
10000000
00000000
00000000
01000000
00000000
00100000
,
00010000
00000000
10000000
00100000
00000000
01000000
00010000
00000000
00100000
00001000
00000000
00010000
00000100
00000000
00000010
00000001
,
00001000
00000000
00000100
00000000
00000010
00000000
00000100
00000000
00010000
00000100
00010000
00001000
00000000
00100000
00001000
00010000
,
00001000
00000000
00100000
00000000
01000000
00000000
00100000
00010000
00000000
10000000
00100000
00000000
01000000
00010000
00100000
00001000
,
00022000
00000000
00000000
00033000
00000000
00000000
00000000
00000110
00000000
00000002
00000020
00000000
00000000
00000033
00000000
00000000
,
00000100
00010000
00001000
00010000
00022000
00000000
00000000
00033000
00000000
00000000
00000000
01100000
00000000
20000000
00200000
00000000
,
00000000
30300000
00000000
00000000
00000000
00011000
00000000
00000000
00000100
00000000
00000010
00000001
00000000
00000000
00001000
00000000
,
00000100
00010000
00000000
00000000
00001000
00000000
01000000
00100000
00000000
00000000
00010000
00000000
00100000
01000000
10000000
01000000
,
00000000
00000000
00010000
00100000
00001000
00100000
00010000
00000000
01000000
00000000
00100000
00000000
00010000
00000000
00001000
00000000
,
00010000
00000000
00000100
00000000
00000010
00000000
00000001
00000000
00001002
00000000
00000000
00000100
00000000
00000000
00000013
00000000
,
00000001
00000000
00000100
00000000
00020100
00000000
00000000
00001000
00000000
00000000
00030010
00000000
00010000
00000000
00001000
00000000
,
00100000
00000000
00000000
01000000
10000000
00000000
00010000
00000000
00100000
00000000
00001000
00000000
00010000
00000000
00000010
00000100
,
00000000
00000000
00000001
00000000
00001000
00000000
00000100
00000000
00000010
00000000
00000100
00010000
00000000
00001000
00010000
00000000
,
00001000
00100000
00000000
00010000
01000000
00000000
00100000
10000000
00000000
01000000
00100000
00000000
01000000
00000000
10000000
00000000
,
00010000
00100000
00010000
00000000
01000000
00000000
00100000
10000000
00100000
00000000
01000000
00010000
01000000
00000000
00001000
00100000
,
00000000
00001000
00010000
00000000
00000100
00001000
00000000
00000100
00000010
00000000
00000001
00001000
00000000
00000100
00000010
00000000
,
00000000
00000100
00000000
00010000
00001000
00000000
00100000
00010000
00000000
10000000
00100000
00000000
01000000
00010000
00100000
00001000
,
00100000
00000000
00001000
00000000
00010000
00000100
00010000
00000000
00000010
00000000
00001000
00000001
00001000
00000000
00000100
00000010
,
00000000
00000001
00000010
00000000
00001000
00000010
00000000
00000001
00000010
00000000
00000000
00000011
00000000
00000000
00001010
00000000
,
00000000
00010100
00000000
00000000
00110000
00000000
00000000
11000000
00000000
00000000
10000000
00010000
10000000
00010000
00000000
00000000
,
00100000
01000000
00100000
01000000
00000000
10000000
00010000
10000000
00100000
00000000
01000000
00000000
01010000
00000000
00000000
00101000
,
00000000
00000000
00011000
00000000
00000000
00010010
00000000
00000000
00000110
00000000
00000000
00001100
00000000
00000000
00001001
00000000
,
00000000
00010100
00000000
00000000
00110000
00000000
00000000
11000000
00000000
00000000
01001000
00000000
00000000
00011000
00000000
00000000
,
00010000
00000010
00000100
00000010
00000000
00001000
00000100
00010000
00000100
00000000
00010000
00001000
00100000
00000000
01000000
10000000
,
00000000
01000000
00100000
00000000
00001000
00010000
00000000
00000100
00001000
00000000
00000000
00000110
00000000
00000000
00000000
00000000
,
00000000
00011000
00000000
00000000
00000000
00000000
00000000
00000000
00000000
00000000
00000000
00000000
00000000
00000000
00000000
00000000
;

//---------------dance-double - ----------------
#NOTES:
     dance-double:
     DIFFICULT:
     Medium:
     9:
     0.260391,0.267439,0.142744,0.087843,0.296469,166.000000,153.000000,13.000000,8.000000,0.000000,0.000000,0.260391,0.267439,0.142744,0.087843,0.296469,166.000000,153.000000,13.000000,8.000000,0.000000,0.000000:
00100000
00000000
00000000
00010000
00000000
00000000
01000000
00000000
00000000
10000000
00000000
00000000
01000000
00000000
00000000
00010000
,
00000000
00000000
00100000
00000000
00000000
00011000
00000000
00000000
00000100
00000000
00000000
00000000
00000000
00000000
00000100
00000000
,
00000000
00000000
00000000
00000000
00000010
00000000
00000000
00000001
00000000
00000000
00001000
00000000
00000000
00000001
00000000
00000000
,
00001000
00000000
00000000
00000100
00000000
00000000
00000001
00000000
00000000
00000100
00000000
00000000
00001000
00000000
00000000
00000010
,
00000000
00000000
00000100
00000000
00000000
00011000
00000000
00000000
00100000
00000000
00000000
00000000
00000000
00000000
00100000
00000000
,
00000000
00000000
01000000
00000000
10000000
00000000
00000000
00010000
00000000
00000000
00100000
00000000
00000000
01000000
00000000
00000000
,
00202000
00000000
00000000
00303000
00000000
00000000
00000000
00000000
00000000
00000000
00000220
00000000
00000000
00000330
00000000
00000000
,
00000000
00000000
00000000
00000000
00022000
00000000
00000000
00033000
00000000
00000000
00000000
00000000
00000000
01000000
22000000
00000000
,
00000000
33000000
00000000
00000000
00000000
00000000
00000000
00000000
00001000
00000000
00000000
00010000
00000000
00000000
00000000
00000000
,
00000000
00010000
00000000
00000000
00000000
00000000
00000000
00001000
00000000
00000000
00000000
00000000
00000000
00001000
00000000
00000000
,
00010000
00000000
00000000
00000100
00000000
00000000
00001000
00000000
00000010
00000000
00000001
00000000
00000010
00000000
00001000
00000000
,
00000100
00000000
00010000
00000000
00000100
00000000
00001000
00000000
00010000
00000000
00000000
00100000
00000000
00000000
01000000
00000000
,
10000000
00000000
01000000
00000000
00010000
00000000
00000000
01000000
00000000
00000000
10000000
00000000
00100000
00000000
01000000
00000000
,
00001000
00000000
00000000
00100000
00000000
00000000
00001000
00000000
00010000
00000000
00000100
00000000
00000010
00000000
00000000
00000001
,
00000000
00000000
00001000
00000000
00000100
00000000
00000010
00000000
00000100
00000000
00000000
00010000
00000000
00000000
00001000
00000000
,
00000000
00100000
00000000
00000000
01000000
00000000
00000000
10000000
00000000
00000000
00010000
00000000
01000000
00000000
00100000
00000000
,
00010000
00000000
00001000
00000000
00001000
00000000
00010000
00000000
00000100
00000000
00000100
00000000
00001000
00000000
00000000
00000101
,
00000000
00000000
00001010
00000000
00000000
00011000
00000000
00000000
01100000
00000000
00000000
10000000
00000000
00000000
00100000
00000000
,
00000000
01000000
00000000
00000000
00001000
00000000
00000000
00100000
00000000
00000000
00011000
00000000
00000100
00000000
00000010
00000000
,
00000001
00000000
00001000
00000000
00001000
00000000
00000010
00000000
00010000
00000000
00010000
00000000
00001000
00000000
00000000
00100000
,
00000000
00000000
00010000
00000000
00000000
01000000
00000000
10000000
01000000
00000000
00000000
00010000
00000000
00000000
01000000
00000000
,
00000000
00100000
00000000
00000000
01000000
00000000
00000000
00001000
00000000
00100000
00001000
00000000
00000000
00010000
00000000
00000000
,
00000100
00000000
00000000
00000000
00000000
00000000
00000100
00000000
00000010
00000000
00000001
00000000
00001000
00000000
00000000
00000010
,
00000000
00000000
00000100
00000000
00000000
00001000
00000000
00010000
00001000
00000000
00000000
00100000
00000000
00000000
00001000
00000000
,
00000000
01000000
00000000
00000000
00010000
00000000
00000000
00100000
01000000
00000000
10000000
00000000
00100000
00000000
01000000
00000000
,
00010000
00000000
00100000
00000000
00100000
00000000
00001000
00000000
00010000
00000000
00000100
00000000
00000100
00000000
00001000
00000010
,
00000000
00000100
00000001
00000000
00000000
00000010
00000000
00000100
00001000
00000000
00000000
00011000
00000000
00000000
00000000
00000000
,
00000000
01100000
00000000
00000000
00000000
00000000
00000000
00000000
00000000
00000000
00000000
00000000
00000000
00000000
00000000
00000000
;

//---------------dance-single - ----------------
#NOTES:
     dance-single:
     BEGINNER:
     Beginner:
     1:
     0.092548,0.118862,0.054902,0.021961,0.005490,59.000000,54.000000,5.000000,2.000000,0.000000,0.000000,0.092548,0.118862,0.054902,0.021961,0.005490,59.000000,54.000000,5.000000,2.000000,0.000000,0.000000:
1000
0000
0000
1000
,
0000
0000
0001
0000
,
0000
0001
0000
0000
,
0100
0000
0000
0100
,
0000
0000
0010
0000
,
0000
0010
0000
0000
,
1001
0000
0000
0000
0000
0110
0000
0000
,
0000
0000
1001
0000
0000
0000
0000
0110
,
0000
0000
1000
0000
,
0000
1000
0000
0000
,
0001
0000
0000
0001
,
0000
0001
0000
0000
1000
0000
0000
0000
,
0000
0100
0000
0010
,
0001
0000
0000
0010
,
0000
0000
0100
0000
1000
0000
0000
1000
,
0000
0000
1000
0000
0000
0001
0000
0000
,
0001
0000
0000
0001
0000
0000
0001
0000
,
0000
0100
0000
0000
0010
0000
0000
0010
,
0000
0000
0010
0000
0000
1000
0000
0000
,
1000
0000
0000
0100
0000
0000
0010
0000
,
0000
0001
0000
0000
1000
0000
0000
0000
,
0000
0000
1000
0000
0000
1000
0000
0000
,
1000
0000
0000
0001
0000
0000
0001
0000
,
0000
0001
0000
0000
0100
0000
0000
0000
,
0000
0000
0100
0000
0000
0100
0000
0000
,
0010
0000
0000
0010
0000
0000
0010
0000
,
0000
1000
0000
0000
2002
0000
0000
0000
,
0000
3003
0000
0000
0000
0000
0000
0000
0000
0000
0000
0000
0000
0000
0000
0000
;

//---------------dance-single - ----------------
#NOTES:
     dance-single:
     BASIC:
     Easy:
     6:
     0.164705,0.178293,0.142744,0.131764,0.109803,105.000000,92.000000,13.000000,12.000000,0.000000,0.000000,0.164705,0.178293,0.142744,0.131764,0.109803,105.000000,92.000000,13.000000,12.000000,0.000000,0.000000:
1000
0000
0000
1000
0000
0000
0001
0000
,
0000
0001
0000
0000
0100
0000
0000
0100
,
0000
0000
0010
0000
0000
0010
0000
0000
,
1000
0000
0000
0000
0000
0000
1000
0000
0000
1000
0000
0000
1000
0000
0000
0000
,
0000
0000
0001
0000
0000
0001
0000
0000
1001
0000
0000
0000
0000
0000
1001
0000
,
0000
0000
0110
0000
0000
0110
0000
0000
,
2002
0000
0000
3003
0000
0000
0000
0000
0000
0000
0220
0000
0000
0330
0000
0000
,
0000
0000
0000
0000
2002
0000
0000
3003
0000
0000
0000
0000
0000
0020
0200
0000
,
0000
0330
0000
0000
0000
0000
0000
0000
1000
0000
0000
0000
0000
0000
1000
0000
,
0000
0000
0001
0000
0000
0001
0000
0000
,
0010
0000
0000
0010
0100
1000
0001
0100
,
0010
1000
0100
0010
0002
0000
0000
1000
,
0000
0000
2003
0000
0000
0001
0000
0000
,
3020
0000
0000
0100
0000
0000
0230
0000
,
0000
0000
0310
0000
0000
0000
0100
0000
0001
0000
0000
0010
0000
0000
0001
0000
,
0000
0010
0000
0000
0001
0000
0000
0000
0000
0000
1000
0000
0000
0000
0000
0000
,
0010
0000
0000
0000
0000
0000
0100
0000
0000
0000
0000
0000
0001
0000
0000
0010
,
0000
0000
0100
0000
0000
1000
0000
0000
0100
0000
0000
1000
0000
0000
0010
0000
,
0000
1000
0000
0000
0100
0000
0000
0000
0000
0000
1000
0000
0000
0000
0000
0000
,
0001
0000
0000
0000
0000
0000
0010
0000
0000
0000
0000
0000
0100
0000
0000
0010
,
0000
0000
0001
0000
0000
0010
0000
0000
1100
0000
0000
0000
0000
0000
1000
0000
,
0000
0000
0001
0000
0000
0101
0000
0000
,
0010
0000
0000
0000
0000
0000
0010
0000
0000
0000
0000
0000
0010
0000
0000
0100
,
0000
0000
0001
0000
0000
1000
0000
0000
0110
0000
0000
0000
0000
0000
0010
0000
,
0000
0000
1000
0000
0000
1001
0000
0000
,
0001
0000
0000
1000
0000
0000
0100
0000
0000
0010
0000
0000
0001
0000
0000
0000
,
0000
0100
0000
0000
1001
0000
0000
0000
,
0000
0110
0000
0000
0000
0000
0000
0000
0000
0000
0000
0000
0000
0000
0000
0000
;

//---------------dance-single - ----------------
#NOTES:
     dance-single:
     DIFFICULT:
     Medium:
     9:
     0.302743,0.297155,0.318429,0.109803,0.301959,193.000000,164.000000,29.000000,10.000000,0.000000,0.000000,0.302743,0.297155,0.318429,0.109803,0.301959,193.000000,164.000000,29.000000,10.000000,0.000000,0.000000:
1000
0000
0000
0010
0000
0000
0100
0000
0000
0001
0000
0000
0010
0000
0000
0100
,
0000
0000
0010
0000
0001
0000
1000
0000
0010
0000
0000
0100
0000
0000
1000
0000
,
0000
0100
0000
0000
0010
0000
0000
1100
0000
0000
0011
0000
0000
1001
0000
0000
,
0010
0000
0000
0001
0000
0000
0100
0000
0001
0000
1000
0000
0010
0000
0000
1000
,
0000
0000
0100
0000
1000
0000
0010
0000
0001
0000
0000
0010
0000
0000
1000
0000
,
0100
0000
0010
0000
0001
0000
0000
1100
0000
0000
0101
0000
0000
0110
0000
0000
,
2002
0000
0000
3003
0000
0000
0000
0000
0000
0000
0220
0000
0000
0330
0000
0000
,
0000
0000
0000
0000
2002
0000
0000
3003
0000
0000
0000
0000
0000
0100
0220
0000
,
0000
0330
0000
0000
0000
0000
0000
0000
0001
0000
0000
0001
0000
0000
1000
0000
,
0000
1000
0000
0000
0010
0000
0000
0010
0000
0000
0100
0000
0000
0100
0000
0000
,
1001
0000
0000
0010
0000
0000
1000
0000
0100
0000
0010
0000
0001
0000
0100
0000
,
0010
0000
1000
0000
0001
0000
0010
0000
0100
0000
0000
1000
0000
0000
0010
0000
,
0100
0000
0001
0000
0010
0000
0000
0001
0000
0000
1000
0000
0100
0000
0010
0000
,
0100
0000
0000
1000
0000
0000
0001
0000
0010
0000
0100
0000
0010
0000
0000
0001
,
0000
0000
1100
0000
0000
0110
0000
0000
1001
0000
0000
0010
0000
0001
0100
0000
,
0000
0010
0000
0000
1000
0000
0000
0100
0000
0000
1000
0000
0010
0000
0100
0000
,
0101
0000
0001
0000
1000
0000
1010
0000
0010
0000
0100
0001
0100
0000
0000
0010
,
0000
0000
1000
0000
0000
0100
0000
0000
0010
0000
0000
0100
0000
1000
0001
0000
,
0000
0010
0000
0000
0100
0000
0000
0010
0000
0000
0001
0000
1000
0000
0010
0000
,
0110
0000
0100
0000
0001
0000
1001
0000
1000
0000
0010
0000
1010
0000
0000
1000
,
0000
0000
0001
0000
0000
0010
0000
0000
0100
0000
0000
1000
0010
0000
0100
0000
,
0000
0001
0000
0010
0001
0000
0000
1000
0000
0000
0010
0000
0000
0100
0000
0000
,
0001
0000
0010
0000
0100
0000
0010
0000
1000
0000
0010
0000
0001
0000
0000
0101
,
0000
0000
1010
0000
0000
1100
0000
0000
0010
0000
0000
0001
0100
0000
0010
0000
,
0000
1000
0000
0100
0010
0000
0000
0001
0000
0000
1000
0000
0010
0000
0100
0000
,
1000
0000
0100
0000
0001
0000
0100
0000
0010
0000
1000
0000
1001
0000
0000
0011
,
0000
0000
1100
0000
0000
0110
0000
0000
1001
0000
0000
0220
0000
0000
0330
0000
,
0000
1001
0000
0000
0000
0000
0000
0000
0000
0000
0000
0000
0000
0000
0000
0000
;

//---------------dance-single - ----------------
#NOTES:
     dance-single:
     EXPERT:
     Hard:
     12:
     0.406272,0.386301,0.175685,0.318429,0.581957,259.000000,243.000000,16.000000,29.000000,0.000000,0.000000,0.406272,0.386301,0.175685,0.318429,0.581957,259.000000,243.000000,16.000000,29.000000,0.000000,0.000000:
1000
0000
0010
0100
0000
0001
0100
0000
0000
0010
0000
1000
0100
0000
0010
0001
,
0000
0100
0001
0100
0001
2000
0000
0000
0000
3100
1000
0200
0000
0000
0310
0001
,
0020
0000
1000
0000
0031
0000
0001
1000
0000
0100
0020
0000
0000
0000
0031
0000
,
0100
0000
0010
1000
0000
0001
1000
0000
0000
0100
0000
1000
0010
0000
0100
0001
,
0000
0010
0001
0000
1000
0000
0010
0000
0100
0001
0010
0001
0000
1000
0100
1000
,
0010
0000
1000
0001
1000
0000
0010
0100
0000
0001
0010
0000
0100
0000
1000
0000
,
2002
0000
0000
3003
0000
0000
0000
0011
0000
0000
2200
0000
0000
3300
0000
0000
,
0000
0010
0100
0001
0202
0000
0000
0303
0000
0000
0000
1010
0000
0100
0220
0000
,
0000
0330
0000
0000
0000
0010
0000
1000
0002
0000
0003
0000
0000
0010
0200
0000
,
0300
0000
0000
1000
0020
0000
0030
0000
0000
0100
0001
0000
0010
0100
1000
0100
,
0010
0000
0001
1000
0100
1000
0001
0000
0010
0000
0100
0000
0011
0000
0001
0000
,
1001
0000
1000
0000
1100
0000
1010
0000
1002
0000
0000
0100
0000
0000
0010
0000
,
0013
0000
0001
0000
1200
0000
0000
0001
0000
0000
1300
0000
0010
0000
0100
0000
,
0021
0000
0000
1000
0000
0000
0100
0000
0130
0000
0010
0000
2001
0000
0000
0100
,
0000
0000
3001
0000
1000
0000
0010
0000
0100
0000
0001
0100
0000
0010
1000
0000
,
0100
0000
0010
0001
0010
0000
0001
1000
0000
0100
0010
0100
0000
1000
0100
0000
,
0010
0001
0010
0000
0001
0000
1000
0010
1000
0000
0010
0000
0100
0000
0001
0010
,
0000
0100
0010
0000
0100
1000
0000
0001
0200
0000
0000
1000
0000
0310
2000
0000
,
0000
0001
0000
3100
0020
0000
0000
0032
0000
0000
2003
0000
0000
3020
0000
0130
,
0001
0010
0001
0000
0100
0000
0010
1000
0010
0000
1000
0001
0100
0000
0001
1000
,
0000
0100
0010
0000
0001
0100
0000
0010
2000
0000
0000
0100
0000
0000
0010
0000
,
0000
3001
0010
0100
1000
0000
0010
1000
0000
0001
0100
0001
0010
0001
1000
0000
,
0010
1000
0100
1000
0000
0001
0100
0010
0100
0000
0010
0000
1000
0000
0100
0010
,
0000
0001
1000
0001
1000
0100
0010
0100
0020
0000
0000
0001
0000
0000
1000
0000
,
0000
0031
0000
0100
0010
0001
1000
0000
0010
1000
0010
0000
0100
0000
0001
0000
,
0010
0100
0010
1000
0000
0010
0001
1000
0001
0000
0100
0000
1000
0000
0100
0001
,
0000
0010
0001
0000
0010
0100
1000
0001
2002
0000
0000
3003
0000
0000
0000
0000
,
0000
0110
0000
0000
0000
0000
0000
0000
0000
0000
0000
0000
0000
0000
0000
0000
;

//---------------dance-double - ----------------
#NOTES:
     dance-double:
     BASIC:
     Easy:
     6:
     0.181960,0.193151,0.131764,0.120784,0.137254,116.000000,104.000000,12.000000,11.000000,0.000000,0.000000,0.181960,0.193151,0.131764,0.120784,0.137254,116.000000,104.000000,12.000000,11.000000,0.000000,0.000000:
00010000
00000000
00000000
00010000
00000000
00000000
00001000
00000000
,
00000000
00001000
00000000
00100000
01000000
00000000
00000000
01000000
,
00000000
00000000
00100000
00000000
00000000
00001000
00010000
00000100
,
00000010
00000000
00000000
00000010
00000000
00000000
00000100
00000000
,
00000000
00000100
00000000
00010000
00001000
00000000
00000000
00001000
,
00000000
00000000
00000000
00000000
00010000
00000000
00000000
00001000
00000000
00000000
00100000
00000000
00000000
01000000
00000000
00000000
,
20020000
00000000
00000000
30030000
00000000
00000000
00000000
00000000
00000000
00000000
00022000
00000000
00000000
00033000
00000000
00000000
,
00000000
00000000
00000000
00000000
00000220
00000000
00000000
00000330
00000000
00000000
00000000
00000000
00000000
00000000
00220000
00000000
,
00000000
00330000
00000000
00000000
00000000
00000000
00000000
00000000
10000000
00000000
00000000
00000000
00000000
00000000
10000000
00000000
,
00000000
00000000
00010000
00000000
00000000
00010000
00000000
00000000
,
00000100
00000000
00000000
00000100
00000000
00000000
00000010
00000000
,
00000000
00000000
00000010
00000000
00000001
00000000
00001000
00000000
00001010
00000000
00000000
00000010
00000000
00000000
00000100
00000000
,
00000000
00010000
00000000
00000000
00100000
00000000
00000000
01000000
00000000
00000000
10000000
00000000
00000000
00010000
00000000
00000000
,
01000000
00000000
00000000
01000000
00000000
00000000
00001000
00000000
,
00000000
00001000
00000000
00000000
00000110
00000000
00000000
00000001
,
00000000
00001000
00000000
00000000
00000001
00000000
00000000
00000000
00000000
00000000
00001000
00000000
00000100
00000000
00010000
00000000
,
00001000
00000000
00000000
00000000
00010000
00000000
00100000
00000000
00000000
00000000
01000000
00000000
00010000
00000000
00000000
10000000
,
00000000
00000000
00100000
00000000
00000000
01000000
00000000
00000000
00101000
00000000
00000000
00000000
00000000
00000000
00010000
00000000
,
00000000
00001000
00000000
00000000
00010000
00000000
00000000
00000000
00000000
00000000
00000010
00000000
00000100
00000000
00000001
00000000
,
00001000
00000000
00000100
00000000
00000000
00000000
00000100
00000000
00010000
00000000
00000000
00000000
00010000
00000000
00000000
00001000
,
00000000
00000000
00100000
00000000
00000000
00010000
00000000
00000000
20010000
00000000
00000000
00100000
00000000
00000000
01000000
00000000
,
00000000
00100000
00000000
00000000
30010000
00000000
00000000
00000000
00000000
00000000
01000000
00000000
00000000
00000000
00000000
00000000
,
00012000
00000000
00000000
00100000
00000000
00000000
00010000
00000000
00000000
01000000
00000000
00000000
00103000
00000000
00000000
00000000
,
00000000
00000000
00001000
00000000
00000000
00010000
00000000
00000000
00000120
00000000
00000000
00001000
00000000
00000000
00000001
00000000
,
00000000
00001000
00000000
00000000
00000130
00000000
00000000
00000000
00000000
00000000
00010000
00000000
00000000
00001000
00000000
00000000
,
00100000
00000000
00000000
00100000
00000000
00000000
01000000
00000000
,
00000000
01000000
00000000
00000000
00011000
00000000
00000000
00000000
,
00000000
00000110
00000000
00000000
00000000
00000000
00000000
00000000
00000000
00000000
00000000
00000000
00000000
00000000
00000000
00000000
;

//---------------dance-single - ----------------
#NOTES:
     dance-single:
     CHALLENGE:
     Challenge:
     13:
     0.470585,0.460590,0.153725,0.636859,0.713721,300.000000,286.000000,14.000000,58.000000,0.000000,0.000000,0.470585,0.460590,0.153725,0.636859,0.713721,300.000000,286.000000,14.000000,58.000000,0.000000,0.000000:
1000
0100
1000
0010
1000
0001
0010
0001
1000
0001
0010
0001
1000
0000
1000
0100
,
1000
0000
0001
0100
0001
1000
0000
0000
1001
0001
0100
1000
0000
0000
1000
0100
,
0001
0000
0100
0000
0020
0000
0130
2000
0000
3010
0200
0000
0300
0010
0100
0010
,
0100
0001
1000
0010
0100
0010
1000
0100
1000
0001
0100
0001
1000
0100
0010
0100
,
1000
0000
0202
0000
0000
0303
0000
0000
0001
0010
1000
0010
0000
0000
0010
0001
,
0010
0000
0001
0100
2000
0000
3100
0002
0000
1003
0200
0000
0310
0002
0000
0000
,
1003
0000
0000
0110
0000
0000
0000
1001
0000
0000
0001
0000
0000
1010
0000
0000
,
0000
0002
0000
0000
0003
0000
0000
0110
0000
0000
0000
1001
0000
1000
0100
0000
,
0000
0000
0000
0011
0000
0000
1001
0000
0000
0000
0000
0000
0000
0000
0000
0020
0030
0000
0000
0000
0000
0000
0000
0000
2001
0000
0000
0000
0000
0000
0000
0000
0000
0100
0000
0000
0000
0000
0000
0000
0000
0000
3002
0000
0000
0000
0000
0000
,
0000
0100
0000
0000
2003
0000
0000
0010
0000
0000
3002
0000
0000
0013
0100
0010
,
0002
0000
0000
0103
0100
0001
2000
0000
3020
0000
0032
0000
0023
0000
2030
0000
,
3200
0000
0302
0000
0203
0000
0320
0000
0032
0000
1003
1000
0100
1000
0010
0000
,
0100
0100
0010
1000
0001
0000
0010
0010
0001
1000
0100
0010
0100
0000
0010
0000
,
0001
0000
1000
1000
0010
0100
0001
0000
0010
0010
0001
1000
0100
0001
0100
1000
,
0010
0100
0002
0203
0320
2030
3002
0023
0032
0000
0000
2003
0000
0010
3020
0000
,
0000
0001
0000
0000
2030
0000
0000
0100
0000
0000
3001
0100
0010
1000
0000
0000
,
0001
0001
1000
0000
0100
0000
1000
1000
0100
0000
1000
0001
0200
0000
1300
0200
,
0000
0301
0020
0000
1030
0020
0000
0030
2001
0000
0000
3001
0100
0001
0200
0000
,
0000
1000
0000
0000
0302
0000
0000
0010
0000
0000
2000
0000
3003
0000
1000
0100
,
1000
1000
0001
0000
0010
0000
0001
0001
0010
0000
0001
1000
0020
0000
0031
0020
,
0000
1030
0200
0000
0301
0200
0000
0000
0310
0001
0001
0001
1000
1000
1000
0100
,
0100
1000
1000
0010
0200
0000
0301
0001
0001
0000
1000
0000
0100
0200
0000
0000
,
0310
0001
0100
1000
0100
0001
0010
1000
0010
0001
1000
1000
0020
0000
0031
0020
,
0000
1030
0002
0000
0013
0100
0010
0100
1000
0001
0001
1000
1000
0001
0010
0010
,
0010
0100
0100
0200
0000
1300
1000
0001
0001
0000
0201
0000
0310
0100
0010
0100
,
0001
0100
1000
0001
1000
0001
0010
1000
0010
0001
0100
1000
0200
0000
0310
0200
,
0000
0310
2000
0000
3001
0010
0100
0010
0100
0000
0000
0110
0000
0000
0000
0000
,
0000
1001
0000
0000
0000
0000
0000
0000
0000
0000
0000
0000
0000
0000
0000
0000
;

//---------------dance-double - ----------------
#NOTES:
     dance-double:
     CHALLENGE:
     Challenge:
     13:
     0.500389,0.445733,0.186666,0.197646,0.768623,319.000000,302.000000,17.000000,18.000000,0.000000,0.000000,0.500389,0.445733,0.186666,0.197646,0.768623,319.000000,302.000000,17.000000,18.000000,0.000000,0.000000:
// measure 0
00010000
00100000
01000000
10000000
00100000
01000000
00010000
00100000
00001000
00010000
00001000
00000100
00000010
00000000
00000100
00001000
,  // measure 1
00000100
00000000
00000001
00000010
00001000
00000010
00000001
00000000
00000100
00000010
00001000
00000010
00000100
00000000
00000010
00010000
,  // measure 2
00001000
00010000
00000100
00000000
00010000
00001000
00010000
00001000
00000000
00100000
00010000
00000000
10000000
00200000
00000000
00000000
,  // measure 3
01300000
00010000
00100000
01000000
10000000
00100000
01000000
00010000
00100000
00001000
00100000
00010000
00001000
00000100
00000010
00000001
,  // measure 4
00000010
00000000
00000102
00000000
00000000
00001003
00000100
00010000
00000100
00001000
00010000
00001000
00000000
00100000
01000000
00100000
,  // measure 5
01000000
00000000
00010000
10000000
00010000
00000000
10000000
01000000
00000000
00100000
00010000
00000000
00001000
00010000
00000000
00001000
,  // measure 6
00000100
00000000
00000000
00000022
00000033
00000000
00000000
00022000
00033000
00000000
00000000
00000000
00000000
22000000
33000000
00000000
,  // measure 7
00000000
00001000
00100000
00001000
00010000
00000000
00000000
00000220
00000330
00000000
00000000
00011000
00000000
00010000
00100000
00000000
,  // measure 8
00000000
01100000
10010000
00000000
00000000
00002000
00003000
00010000
00001000
00000000
00001000
00010000
00000000
00000000
00000000
00000000
,  // measure 9
00000000
00000100
00000000
00001000
00000010
00000000
00000010
00001000
00000000
00000000
00000000
00000000
00000000
00001000
00010000
00001000
,  // measure 10
00100000
00000000
00000000
01000000
00100000
01000000
20000000
00000000
00100000
00000000
30200000
00000000
00001000
00000000
00302000
00000000
,  // measure 11
00010000
00000000
00023000
00000000
00030100
00000000
00000110
00000000
00001001
00000000
00000001
00000010
00000000
00000100
00001000
00000100
,  // measure 12
00000010
00000000
00000100
00010000
00000100
00000000
00010000
00001000
00000000
00001000
00100000
00001000
01000000
00001000
00100000
00001000
,  // measure 13
00010000
00000000
00001000
00100000
00000000
00100000
00010000
10000000
00010000
00000000
10000000
01000000
00100000
00000000
00010000
00100000
,  // measure 14
00000000
00001000
00100000
00001000
00000000
00010000
00001000
00010000
00000100
00000000
00000010
00000001
00000000
00001000
00000010
00000000
,  // measure 15
00000100
00000001
00000000
00001000
00000200
00000000
00010000
00010300
00000000
00010000
00001000
00100000
00001000
00000000
01100000
00000000
,  // measure 16
10000000
01000000
00010000
00000000
11000000
00000000
00100000
01000000
00001000
00000000
00010000
00001000
00100000
00000000
00001000
00010000
,  // measure 17
00000000
00001000
00100000
00000000
00010000
01000000
00000000
00100000
10000000
00000000
01000000
00100000
00000000
00010000
00100000
00000000
,  // measure 18
01000000
10000000
00000000
00010000
01000000
00000000
00001000
00100000
00001000
00010000
00001000
00000000
00011000
00000000
00010000
00000000
,  // measure 19
00010000
00000010
00001000
00000000
00000110
00000000
00000001
00001000
00000010
00000000
00001000
00000100
00010000
00000000
00010000
00001000
,  // measure 20
00000000
00100000
00001000
00000000
00010000
00001000
00000000
00010000
00000100
00000010
00000100
00001000
00000001
00001000
00000010
00000100
,  // measure 21
00001000
00010000
00001000
00100000
00010000
00000000
01000000
00100000
00000000
10000000
00100000
01000000
00010000
01000000
00000000
00100000
,  // measure 22
10000000
01000000
00100000
01000000
00000000
10000000
00010000
00100000
01000000
00100000
00000000
00001000
00010000
00000000
00000100
00010000
,  // measure 23
00000000
00001000
00000100
00000000
00000010
00000100
00000000
00000001
00001000
00000100
00000010
00000100
00001000
00000010
00010000
00000010
,  // measure 24
00010000
00001000
00100000
00001000
00100000
00010000
01000000
10000000
01000000
00000000
01010000
00000000
00100000
00000000
00010000
00000000
,  // measure 25
10000000
00100000
01000000
00010000
00000000
00100000
00010000
10000000
00010000
00000000
01000000
00010000
01000000
00000000
00001000
00100000
,  // measure 26
00000000
00001000
00010000
00000000
00000100
00010000
00000100
00000010
00000100
00000000
00000000
00022000
00033000
00000000
00000000
00000000
,  // measure 27
00000000
11000000
00000000
00000000
00000000
00000000
00000000
00000000
00000000
00000000
00000000
00000000
00000000
00000000
00000000
00000000
;
