#TITLE:ƒƒƒƒƒ;
#SUBTITLE:;
#ARTIST:Five Hammer;
#TITLETRANSLIT:fffff;
#SUBTITLETRANSLIT:;
#ARTISTTRANSLIT:;
#GENRE:HARD Pƒ ;
#CREDIT:YonabearCWY;
#BANNER:fffff.png;
#BACKGROUND:fffff-bg.png;
#LYRICSPATH:;
#CDTITLE:pop'n music.png;
#MUSIC:fffff.ogg;
#OFFSET:-3.550000;
#SAMPLESTART:33.992783;
#SAMPLELENGTH:15.000000;
#SELECTABLE:YES;
#BPMS:0.000000=276.000000
;
#STOPS:140.000000=0.215000,
140.500000=0.215000
;
#BGCHANGES:0.000=piston1.mp4=2.000=0=0=1===CrossFade_Fastest==,
8.000=colors1.mp4=2.000=0=0=1=====,
12.000=beads1.mp4=2.000=0=0=1=====,
16.000=piano3.mp4=2.000=0=0=1=====,
32.000=cube13.mp4=2.000=0=0=1=====,
44.000=conductor1.mp4=2.000=0=0=1=====,
46.000=conductor1r.mp4=2.000=0=0=1=====,
48.000=piano4.mp4=2.000=0=0=1=====,
64.000=cube7.mp4=2.000=0=0=1=====,
76.000=conductor1.mp4=2.000=0=1=1=StretchRewind====,
78.000=conductor1r.mp4=2.000=0=1=1=StretchRewind====,
80.000=cross2.mp4=2.000=0=0=1=====,
96.000=cube13.mp4=2.000=0=1=1=StretchRewind====,
108.000=conductor1.mp4=2.000=0=1=1=StretchRewind====,
110.000=conductor1r.mp4=2.000=0=1=1=StretchRewind====,
112.000=cube5.mp4=2.000=0=0=1=====,
128.000=cube7.mp4=2.000=0=1=1=StretchRewind====,
140.000=cube7.mp4=0.100=0=0=1=====,
140.500=conductor1.mp4=0.100=0=0=1=====,
141.000=colors1.mp4=0.100=0=1=1=StretchRewind====,
142.000=colors1.mp4=2.000=0=0=1=====,
158.000=cube8.mp4=2.000=0=0=1=====,
164.000=cube8r.mp4=2.000=0=0=1=====,
170.000=cube8.mp4=2.000=0=0=1=====,
174.000=piston1.mp4=2.000=0=1=1=StretchRewind====,
190.000=beads1.mp4=2.000=0=1=1=StretchRewind====,
206.000=piano3.mp4=2.000=0=1=1=StretchRewind====,
215.000=fireworks3a.mp4=2.000=0=0=1=====,
217.000=fireworks3b.mp4=2.000=0=0=1=====,
219.000=conductor1.mp4=2.000=0=1=1=StretchRewind====,
221.000=conductor1r.mp4=2.000=0=1=1=StretchRewind====,
222.000=piano4.mp4=2.000=0=1=1=StretchRewind====,
231.000=beads1.mp4=2.000=0=1=1=StretchRewind====,
235.000=colors1.mp4=2.000=0=1=1=StretchRewind====,
238.000=piston1.mp4=2.000=0=1=1=StretchRewind====,
247.000=fireworks3a.mp4=2.000=0=1=1=StretchRewind====,
249.000=fireworks3b.mp4=2.000=0=1=1=StretchRewind====,
251.000=conductor1.mp4=2.000=0=1=1=StretchRewind====,
253.000=conductor1r.mp4=2.000=0=1=1=StretchRewind====,
255.000=cube13.mp4=2.000=0=1=1=StretchRewind====,
262.000=cube7.mp4=2.000=0=1=1=StretchRewind====,
270.000=cube2.mp4=2.000=0=0=1=====,
286.000=cube11.mp4=2.000=0=0=1=====,
302.000=cross2.mp4=2.000=0=1=1=StretchRewind====,
326.000=piano3.mp4=2.000=0=1=1=StretchRewind====,
334.000=cube5.mp4=2.000=0=1=1=StretchRewind====,
350.000=cube13.mp4=2.000=0=1=1=StretchRewind====,
366.000=cube7.mp4=2.000=0=1=1=StretchRewind====,
382.000=piston1.mp4=2.000=0=1=1=StretchRewind====,
390.000=piano4.mp4=2.000=0=1=1=StretchRewind====,
398.000=conductor1.mp4=2.000=0=1=1=StretchRewind====,
406.000=cube8.mp4=2.000=0=1=1=StretchRewind====,
414.000=piston1.mp4=2.000=0=1=1=StretchRewind====,
422.000=piano3.mp4=2.000=0=0=1=StretchPaused====,
426.000=piano4.mp4=2.000=0=1=1=StretchRewind====,
429.500=piano4.mp4=0.100=0=0=1=====,
433.000=fffff-bg.png=1.000=0=0=1=====,
99999=-nosongbg-=1.000=0=0=0 // don't automatically add -songbackground-
;
#KEYSOUNDS:;
#ATTACKS:;

//---------------dance-double - ----------------
#NOTES:
     dance-double:
     DIFFICULT:
     Medium:
     13:
     0.000000,0.000000,0.000000,0.000000,0.000000,0.000000,0.000000,0.000000,0.000000,0.000000,0.000000,0.000000,0.000000,0.000000,0.000000,0.000000,0.000000,0.000000,0.000000,0.000000,0.000000,0.000000:
00001000
00000010
00000100
00000010
,
00000100
00000001
00000010
00000001
,
00000100
00000000
00000010
00000000
00001000
00000100
00001000
00000000
,
00000100
00000000
00010000
00000000
00001000
00100000
00001000
00100000
,
00001000
01000000
00000000
00000000
01000000
00100000
00000000
00000000
,
00100000
10000000
00000000
00000000
10000000
00000000
01000000
00000000
,
00100000
00001000
00000000
00000000
00001000
00010000
00000000
00000000
,
00010000
00000100
00000000
00000000
00000100
00001000
00000000
00000000
,
00001000
00000000
00000001
00000000
00000010
00000001
00000000
00000000
,
00000100
00000000
00000010
00000000
00010000
00000010
00000000
00000000
,
00001000
00000000
00000100
00000000
00010000
00001000
00010000
00000000
,
00001000
00001000
00100000
00100000
,
00010000
00100000
00000000
00000000
00100000
00001000
00000000
00000000
,
00001000
00010000
00000000
00000000
00010000
00000000
00000100
00000000
,
00001000
00000010
00000000
00000000
00000010
00010000
00000000
00000000
,
00010000
00001000
00000000
00000000
00001000
01000000
00001000
00000000
,
00100000
00000000
00010000
00000000
10000000
00100000
00000000
00000000
,
01000000
00000000
00010000
00000000
00100000
00001000
00000000
00000000
,
00010000
00001000
00010000
00000000
00000100
00010000
00000100
00000000
,
00001000
00001000
00000010
00000010
,
00000100
00000001
00000011
00000000
,
00000100
00010000
00011000
00000000
,
01000000
00000000
00010000
00000000
00110000
00000000
00000000
00010000
,
10000000
00100000
02100000
00000000
,
03001000
00000000
00100000
00000000
00001000
00020000
00000000
00000000
,
00030100
00000000
00000010
00000000
00000001
00000200
00000000
00000000
,
00000310
00000000
00010000
00000000
00001000
00010000
00001000
00000000
,
00100000
00100000
01000000
01000000
,
10000000
00000000
00010000
00000000
01100000
00000000
00000000
01000000
,
00001000
00100000
00102000
00000000
,
00013000
00000000
00000100
00000000
00000110
00000000
00000000
00000001
,
00000100
00000010
00001020
00000000
,
00000130
00000010
00001000
00000010
,
00010000
00000100
00010000
00001000
,
00100000
00010000
00100000
00010000
10000000
00010000
10000000
00000000
,
02200000
03300000
00011000
00010000
,
00000000
00000100
00000000
00000000
00000010
00000000
00000000
00000100
,
00000000
00001000
00000010
00000000
00000100
00000000
00000001
00000000
,
00000000
00000010
00000000
00000000
00001000
00000000
00000000
00010000
,
00000000
00001000
00100000
00001000
00000000
00000000
00110000
00000000
,
00000000
10010000
00000000
00000000
10100000
00000000
00000000
01100000
,
00000000
00010000
01000000
00000000
00202000
00000000
00000000
00000000
,
00000000
00000000
00000000
00000000
00303000
00000000
00001000
00010000
,
00000000
00010000
00000100
00000000
00001000
00000000
00000010
00000000
,
00001000
00000010
00000100
00000001
,
00000020
00000000
00000130
00000010
,
00000100
00010000
00000100
00001000
,
00000100
00010000
00001000
00101000
,
00000000
00110000
00000000
00000000
00011000
00000000
00000000
00010010
,
00000000
00000010
00001000
00000000
00020200
00000000
00000000
00000000
,
00000000
00000000
00030300
00000000
00000000
00000000
00001000
00000001
,
00000000
00000001
00000100
00000000
00000010
00000000
00000010
00000000
,
00000100
00000000
00000100
00000000
00000001
00000000
00000000
00000010
,
00000000
00000010
00000100
00000000
00001000
00000000
00000010
00001000
,
00000000
00001000
00000100
00000000
00010000
00000000
00001000
00100000
,
00000000
00100000
00010000
00000000
10000000
00000000
10000000
00000000
,
00010000
00000000
00010000
00000000
00100000
00000000
00000000
01000000
,
00000000
10000000
00010000
00000000
00100000
00000000
00001000
00100000
,
00000000
00100000
00010000
00000000
00100000
00000000
00001000
00010000
,
00000000
00010000
00000100
00000000
00001000
00000000
00001000
00000000
,
00000001
00000000
00000001
00000000
00000010
00000000
00000000
00000100
,
00000000
00000010
00000001
00000000
00000100
00000000
00000010
00001000
,
00000000
00001000
00000100
00000000
00010000
00000000
00000100
00010000
,
00000000
00010000
00001000
00000000
00100000
00000000
00100000
00000000
,
00010000
00000000
00010000
00000000
10000000
00000000
00000000
01000000
,
00000000
10000000
00100000
00000000
01000000
00000000
00000000
00001000
,
00000000
00100000
00001000
00000000
00010000
00000000
00000100
00001000
,
00000000
00001000
00000010
00000000
00000100
00000000
00000001
00000000
,
00000010
00001000
00000010
00000001
,
00000100
00000010
00001000
00000010
,
00010000
00000010
00001000
00000100
,
00010000
01000000
00100000
01000000
,
10000000
00100000
00010000
00100000
,
10000000
00100000
01000000
00100000
,
00010000
00001000
00010000
00000100
,
00000010
00001000
00000202
00000000
,
00000000
00000000
00000000
00000000
,
00000303
00000000
00022000
00000000
,
00000000
00000000
00000000
00000000
,
00033000
00000000
02200000
00000000
,
00000000
00000000
03300000
00000000
,
10000000
00000000
00010000
00000000
10010000
00000000
00000000
00010000
,
01000000
00000000
00000000
01000000
00001000
00000000
00000000
00001000
,
00010000
00000000
00000000
00000000
00001000
00000000
00000000
00001000
,
00000000
00000000
00010000
00000000
00000000
00000100
00000000
00000000
,
00000010
00000100
00001000
00000001
,
00000200
00000000
00000310
00010000
,
00002000
00000000
00000000
00000000
00013000
00000000
00000000
00010000
,
00000000
00001000
00100000
01000000
,
10000000
00000000
00010000
00000000
01000000
00000000
00000000
01000000
,
00000000
00000000
00010000
00000000
00000000
00100000
00000000
01000000
,
10000000
01000000
00100000
00001000
,
00010000
00000100
00020000
00000000
,
00030100
00001000
00000010
00000001
,
00000010
00001000
00000020
00000000
,
00010030
00001000
00100000
01000000
,
00100000
00010000
10000000
00100000
,
01000000
00000000
00001000
00000000
00011000
00000000
00000000
00010000
,
00000100
00000000
00000000
00000100
00001000
00000000
00000000
00001000
,
00010000
00000000
00000000
00010000
01000000
00000000
10000000
00000000
,
01000000
00100000
00001000
00010000
,
00000100
00000010
00000001
00001000
,
00000010
00000100
00000001
00000010
,
00000100
00010000
00001000
00100000
,
01000000
00100000
00010000
10000000
,
00010000
00000000
01000000
00000000
00001000
00100000
00001000
00000000
,
00010000
00000000
00000100
00000000
00001000
00000010
00001000
00000010
,
00000100
00000001
00000100
00000001
00000000
00000000
00000000
00000000
,
00000000
00012000
00000000
00000000
,
00013000
00000000
00000000
00000000
;

//---------------dance-double - ----------------
#NOTES:
     dance-double:
     EXPERT:
     Hard:
     16:
     0.000000,0.000000,0.000000,0.000000,0.000000,0.000000,0.000000,0.000000,0.000000,0.000000,0.000000,0.000000,0.000000,0.000000,0.000000,0.000000,0.000000,0.000000,0.000000,0.000000,0.000000,0.000000:
10000000
00100000
10000000
00000000
00010000
00000000
01000000
00000000
,
00001000
00010000
00001000
00000000
00100000
00000000
00010000
00000000
,
00001000
00000100
00001000
00000100
00000010
00000001
00001000
00000000
,
00000010
00010000
00000100
00010000
00000100
00001000
00010000
00100000
,
00010000
01010000
01000000
01100000
,
00100000
10100000
10000000
10010000
,
00010000
01000000
00010000
00000000
00100000
00001000
00100000
00000000
,
00001000
00010000
00001000
00000000
00000100
00000010
00000100
00000000
,
00001000
00001010
00000100
00000101
,
00000010
00010010
00010000
00011000
,
00001000
00101000
01000000
01010000
,
00001000
00100000
00001000
00010000
00001000
01000000
00010000
01000000
,
00010000
00110000
00100000
00101000
,
00001000
00011000
00010000
00010100
,
00001000
00000010
00001000
00000000
00000001
00001000
00000001
00000000
,
00000010
00000100
00000010
00000000
00000100
00010000
00000100
00000000
,
00010000
00011000
00001000
00101000
,
01000000
01010000
00001000
00101000
,
00110000
00110000
10100000
10100000
,
10000000
00010000
01000000
00010000
01000000
00001000
00100000
00001000
,
00010000
00000100
00010000
00000200
00000000
00001300
00000010
00002000
,
00000000
00003001
00000100
00000020
00000000
00000130
00000001
00000010
,
00000100
00001000
00000100
00001000
00000100
00000010
00000100
00000010
,
00000100
00010000
00000100
00010000
00001000
00010000
00001000
00100000
,
00001000
00100000
00010000
02000000
00000000
03100000
10000000
00020000
,
00000000
01030000
00100000
02000000
00000000
03001000
00100000
00020000
,
00000000
10030000
00100000
01000000
00010000
01000000
00001000
00010000
,
00001000
00010000
00001000
00100000
00001000
00010000
00000100
00001000
,
00000100
00000010
00000100
00002000
00000000
00003010
00000100
00000001
,
00000000
00001000
00000010
00002000
00000000
00003010
00010000
00000200
,
00000000
00001300
00000100
00010000
00001000
00010000
00001000
00100000
,
00010000
00100000
01000000
00100000
01000000
10000000
00010000
10000000
,
00100000
01000000
00010000
02000000
00000000
03001000
00100000
00020000
,
00000000
00130000
00010000
00002000
00000000
00003100
00000010
00000001
,
00001000
00000010
00000001
00000010
00001000
00000010
00000100
00000010
,
00001100
00010100
00011000
00000000
01001000
00000000
01000000
00000000
,
00100000
10000000
00000000
10000000
01000000
00000000
01000000
00100000
,
00000000
00100000
00001000
00000000
00010000
00000000
00001000
00000000
,
00010000
00000010
00000000
00000010
00000100
00000000
00000100
00000001
,
00000000
00000001
00001000
00000010
00001000
00000000
00000100
00010000
,
00000000
00010000
00001000
00000000
00001000
00100000
00000000
00100000
,
01000000
00100000
01000000
00000000
10000000
00010000
10000000
00010000
,
10000000
00010000
10000000
00010000
10000000
00010000
10000000
00100000
,
01000000
00010000
00100000
00001000
00100000
00000000
00001000
00000000
,
00010000
00000100
00000000
00000100
00001000
00000000
00001000
00000001
,
00000000
00000001
00000010
00000100
00000010
00000000
00000001
00000000
,
00001000
00000010
00000000
00000010
00010000
00000000
00010000
00001000
,
00000000
00001000
00100000
00010000
00100000
00000000
00001000
00010000
,
00000000
00010000
00000100
00000000
00000100
00001000
00000010
00001000
,
00000001
00000100
00000001
00000000
00000100
00000010
00000100
00000010
,
00000100
00000010
00000100
00000010
00000100
00000001
00000000
00000010
,
00000100
00001000
00000100
00010000
00000100
00000000
00000100
00000000
,
00010000
00000000
00010000
00000000
00001000
00100000
00000000
00010000
,
00000000
01000000
00100000
00010000
00100000
00000000
01000000
10000000
,
00000000
01000000
00010000
00000000
01100000
00000000
00001000
00100000
,
00000000
00001000
00010000
00000000
00000100
00000000
00000100
00000000
,
00000010
00000000
00000010
00000000
00001001
00000000
00000010
00000001
,
00001000
00000001
00000100
00000000
00001010
00000000
00000100
00010000
,
00000100
00000010
00000100
00000000
00011000
00000000
00001000
00100000
,
00010000
00100000
01000000
00000000
10000000
00000000
10000000
00000000
,
00010000
00000000
00010000
00000000
01100000
00000000
00010000
01000000
,
10000000
01000000
00010000
00000000
01010000
00000000
00100000
00001000
,
00010000
00001000
00100000
00000000
00011000
00000000
00000100
00001000
,
00010000
00001000
00000100
00000000
00001000
00000000
00001000
00000000
,
00000001
00000000
00000001
00000000
00000010
00000001
00000010
00000100
,
00000010
00000100
00001000
00000000
00000100
00010000
00000100
00010000
,
00001000
00100000
00010000
00000000
10000000
00100000
00010000
00100000
,
10000000
00010000
01000000
00020000
00000000
00000000
10030000
00100000
,
10000000
00000000
00100000
01000000
00100000
00000000
01000000
00010000
,
10000000
00000000
10000000
01000000
00010000
00000000
00010000
01000000
,
00100000
00000000
00001000
00100000
00001000
00000000
00010000
00001000
,
00010000
00000000
00000100
00010000
00000100
00000000
00001000
00000100
,
00000010
00000000
00000001
00000010
00001000
00000000
00001000
00000010
,
00000001
00000000
00000100
00000010
00001000
00000000
00000100
00010000
,
00000000
00010000
00001000
00000000
00110000
00000000
00001000
01000000
,
00000000
01000000
00100000
00000000
10000000
01000000
10000000
01000000
,
10000000
01000000
10000000
01000000
00100000
00010000
00100000
01000000
,
00100000
00001000
00100000
00001000
00010000
00001000
00010000
00001000
,
00010000
00001000
00010000
00000100
00001000
00000100
00000010
00000100
,
00001000
00000001
00000010
00000001
00000100
00000001
00000100
00000001
,
00000100
00000001
00000100
00000010
00001000
00000100
00010000
00001000
,
00011000
00001000
00101000
00100000
,
01100000
01000000
11000000
10000000
,
10010000
00000000
00110000
00000000
00001000
00100000
00001000
01000000
,
00001000
00010000
00001000
00010000
00000000
00001000
00100000
00001000
,
00000000
00010000
00000100
00010000
00001000
00010000
00000010
00010000
,
00000100
00010000
00001000
00010000
00000000
00000010
00001000
00000100
,
00000010
00000100
00001000
00000000
00000010
00000100
00000010
00000001
,
00000010
00000100
00000010
00001000
00000000
00000010
00000100
00000010
,
00001000
00000010
00010000
00001000
00010000
00100000
01000000
00100000
,
01000000
10000000
00010000
10000000
00010000
01000000
00001000
01000000
,
00001000
00100000
00001000
00010000
00000100
00001000
00000000
00001000
,
00000010
00000000
00000010
00000100
00000000
00000100
00000001
00000100
,
00001000
00000100
00000010
00000100
00000010
00010000
00000000
00010000
,
00001000
00000000
00001000
00100000
00000000
00100000
00010000
10000000
,
00100000
00010000
00100000
10000000
00100000
01000000
00000000
01000000
,
00001000
00000000
00001000
00100000
00000000
00100000
00010000
00001000
,
00010000
00001000
00000110
00000010
,
00000011
00000001
00001001
00001000
,
00001010
00000000
00000010
00000000
00000010
00010000
00001000
00010000
,
00001000
00100000
00001000
00000000
01000000
00001000
00100000
00001000
,
00010000
00001000
00010000
00000000
00000100
00010000
00000100
00000010
,
00000100
00010000
00001000
00000000
00100000
00010000
01000000
00010000
,
00100000
00001000
00020000
00000000
00030100
00010000
00000000
00010000
,
00011000
00000000
00001000
00000000
00100000
00010000
00000000
00010000
,
01010000
00000000
00201000
00000000
00310000
01000000
00100000
00010000
,
00100000
00010000
00000100
00010000
00001000
00100000
00001000
01000000
,
00010000
00100000
00001000
00011000
00000000
00000000
00000000
00000000
,
00000000
00001002
00000000
00000000
,
00000103
00000000
00000000
00000000
;

//---------------dance-double - ----------------
#NOTES:
     dance-double:
     CHALLENGE:
     Challenge:
     18:
     0.000000,0.000000,0.000000,0.000000,0.000000,0.000000,0.000000,0.000000,0.000000,0.000000,0.000000,0.000000,0.000000,0.000000,0.000000,0.000000,0.000000,0.000000,0.000000,0.000000,0.000000,0.000000:
10000000
00010000
00100000
10000000
00100000
00010000
01000000
00000000
,
00001000
00100000
00001000
00010000
00000100
00000010
00000100
00000000
,
00001000
00000001
00000100
00001000
00000100
00000001
00000010
00000000
,
00000100
00000001
00000100
00010000
00000100
00001000
00010000
00100000
,
01000000
10000000
00000000
01000000
10000000
00000000
00010000
01000000
00000000
00010000
01000000
00000000
,
00100000
10000000
00010000
00000000
01000000
00001000
00010000
00000000
,
00001000
00100000
00000000
00001000
00100000
00000000
00001000
00010000
00000000
00001000
00010000
00000000
,
00000100
00010000
00001000
00000000
00000010
00000100
00001000
00000000
,
00000100
00000001
00000000
00000100
00000001
00000000
00000100
00000010
00000000
00000100
00000010
00000000
,
00000100
00000000
00010000
00000000
00000000
00000000
00000100
00000000
00010000
00000000
00000000
00000000
00001000
00000000
00000000
00100000
00000000
00000000
00010000
00000000
00000000
00100000
00000000
00000000
,
00010000
10000000
00000000
00010000
10000000
00000000
01000000
00100000
00000000
01000000
00100000
00000000
,
01000000
10000000
00010000
01000000
00010000
00100000
00001000
00100000
,
00001000
00010000
00000000
00000100
00010000
00000000
00000010
00001000
00000000
00000100
00001000
00000000
,
00000010
00000100
00000001
00000100
00000010
00001000
00000100
00000000
,
00010000
00000100
00000000
00010000
00001000
00000000
00100000
00001000
00000000
01000000
00010000
00000000
,
10000000
00100000
00010000
00100000
10000000
00010000
01000000
00000000
,
00100000
01000000
00000000
00100000
10000000
00000000
01000000
00100000
00000000
00010000
00001000
00000000
,
00100000
00001000
00000000
00010000
00000100
00000000
00001000
00000010
00000000
00000100
00000001
00000000
,
00000010
00000100
00000000
00000010
00001000
00000000
00000010
00000001
00000000
00001000
00000001
00000000
,
00000100
00000001
00000010
00000100
00001000
00000100
00010000
00001000
,
00010000
00000100
00010000
00002000
00000000
00103000
00010000
20000000
,
00000000
30100000
10000000
02000000
00000000
03100000
00010000
01000000
,
00001000
00100000
00001000
00020000
00000000
00031000
00010000
00000200
,
00000000
00001300
00000010
00000002
00000000
00000013
00001000
00000010
,
00000100
00000010
00010000
00001000
00010000
00001000
00100000
00010000
,
00100000
00010000
10000000
00100000
10000000
00100000
01000000
00010000
,
01000000
00001000
00010000
00001000
00100000
00001000
00010000
00000100
,
00001000
00000000
00000001
00000000
00001000
00000000
00000001
00000000
00000000
00000010
00000000
00000000
00001000
00000000
00000000
00000010
00000000
00000000
00000001
00000000
00000000
00001000
00000000
00000000
,
00000010
00000001
00000010
00000200
00000000
00000310
00010000
00002000
,
00000000
00013000
00001000
00200000
00000000
00310000
01000000
20000000
,
00000000
31000000
00100000
00010000
00100000
01000000
00010000
01000000
,
00100000
10000000
00010000
01000000
00001000
00100000
00001000
00010000
,
00001000
00000000
00010000
00000000
00001000
00000000
00010000
00000000
00000000
00000100
00000000
00000000
00000010
00000000
00000000
00000100
00000000
00000000
00010000
00000000
00000000
00000010
00000000
00000000
,
00001000
00000010
00000100
00000001
00000010
00000100
00001000
00000001
,
00000100
00000000
00000001
00000000
00000100
00000000
00000001
00000000
00000000
00000010
00000000
00000000
00000100
00000000
00000000
00001000
00000000
00000000
00000100
00000000
00000000
00010000
00000000
00000000
,
00110000
00000000
00000000
11000000
00000000
00000000
01010000
00000000
00000000
00000000
00000000
00000000
00011000
00000000
00000000
00000000
00000000
00000000
00010000
00000000
00001000
00000000
00000100
00000000
,
00000010
00000100
00000001
00001000
00000010
00000000
00000100
00000001
,
00000000
00000001
00000010
00000000
00010100
00000000
00010100
00000000
,
00010010
00000000
00010010
00000000
00000100
00010000
00001000
00100000
,
01000000
10000000
01000000
00100000
00010000
00000000
01000000
00000000
,
00010000
00000000
10000000
00000000
01100000
00000000
10000000
00010000
,
00000000
00000000
00000000
00010000
00000000
00000000
01000000
00000000
00000000
00000000
00000000
00000000
00001000
00000000
00100000
00000000
00001000
00000000
00100000
00000000
00001000
00000000
00100000
00000000
,
00001000
00000000
00100000
00000000
00001000
00000000
00100000
00000000
00001000
00000000
00100000
00000000
00001000
00000000
00000000
00000000
00000000
00000000
00100000
00000000
00000000
00001000
00000000
00000000
,
00000000
00001000
00010000
00000010
00001000
00000000
00001010
00000000
,
00001000
00000000
00001100
00000000
00000100
00000000
00000100
00010000
,
00001000
00011000
00101000
00101000
,
01001000
00000000
01001000
00000000
01100000
00000000
00100000
10000000
,
00010000
01000000
00100000
00010000
00100000
01000000
00010000
00000000
,
00100000
00000000
00001000
00000000
00010000
00000000
00000100
00010000
,
00000000
00000000
00000000
00010000
00000000
00000000
00000010
00000000
00000000
00000000
00000000
00000000
00010000
00000000
00000100
00000000
00010000
00000000
00000100
00000000
00010000
00000000
00000100
00000000
,
00010000
00000000
00000100
00000000
00010000
00000000
00000100
00000000
00000000
00000000
00000000
00000000
00000000
00000000
00000000
00001000
00000000
00000000
00000100
00000000
00000000
00000010
00000000
00000000
,
00000001
00000010
00000100
00000010
00000100
00000000
00001100
00000000
,
00010000
00000000
00010100
00000000
00011000
00000000
00001000
00100000
,
00000000
00100000
00010000
10000000
00100000
00000000
10000000
01000000
,
00000000
01000000
00010000
00000000
11000000
00000000
00010000
00100000
,
00000000
00100000
10000000
00000000
00101000
00000000
00001000
00000000
,
00011000
00000000
00010000
00000000
00010100
00000000
00000100
00001000
,
00000100
00000010
00000001
00000000
00000110
00000000
00000001
00001000
,
00000010
00001000
00000100
00000000
00010100
00000000
00010000
00001000
,
00010000
00100000
01000000
00000000
01010000
00000000
00010000
00000000
,
10010000
00000000
10000000
00000000
10100000
00000000
00100000
01000000
,
00000000
01000000
00001000
00100000
00001000
00000000
00001000
00010000
,
00000000
00010000
00000100
00000010
00000100
00000000
00000100
00010000
,
00000000
00010000
00000100
00001000
00000010
00000000
00000110
00000000
,
00000100
00000000
00000101
00000000
00001001
00000000
00001000
00000010
,
00010000
00000010
00001000
00000000
00001100
00000000
00000100
00010000
,
00001000
00010000
00100000
00000000
01100000
00000000
10000000
01000000
,
00010000
01000000
10000000
00010000
01000000
00010000
00200000
00000000
,
00310000
01000000
20000000
00000000
31000000
00100000
00020000
00000000
,
00130000
01000000
00002000
00000000
00103000
00001000
00100000
00001000
,
00010000
00001000
00000000
00010000
00000000
00000100
00000000
00000010
,
00000000
00000100
00001000
00000100
00000010
00000001
00001000
00000001
,
00001000
00000010
00000000
00001000
00000000
00000100
00000000
00010000
,
00000000
00100000
01000000
10000000
01000000
00000000
10000000
00100000
,
00000000
00100000
01000000
00000000
01001000
00000000
00001000
00010000
,
00000000
00000000
00000000
00010000
00000000
00000000
00000100
00000000
00000000
00000000
00000000
00000000
00001000
00000000
00000100
00000000
00001000
00000000
00000100
00000000
00001000
00000000
00000100
00000000
,
00001000
00000100
00001000
00000100
00001000
00000100
00001000
00000100
00001000
00000100
00001000
00000100
,
00001000
00000100
00001000
00000100
00001000
00000100
00010000
00001000
00010000
00001000
00010000
00001000
,
00010000
00001000
00010000
00001000
00010000
00001000
00010000
00001000
00010000
00001000
00010000
00001000
,
00010000
00001000
00010000
00001000
00010000
00001000
01000000
00001000
01000000
00001000
01000000
00001000
,
01000000
00001000
01000000
00001000
01000000
00001000
01000000
00001000
01000000
00001000
01000000
00001000
,
01000000
00100000
10100000
10000000
,
10010000
00010000
01010000
01000000
,
01001000
00000000
00011000
00000000
00010000
00000100
00000010
00000100
,
00010000
00000010
00001000
00000010
00010000
00000100
00010000
00001000
,
00100000
00010000
01000000
00010000
00100000
00001000
00010000
00001000
,
01000000
00001000
00100000
00010000
00100000
01000000
00100000
00010000
,
00100000
00001000
00010000
00001000
00000100
00000010
00000100
00001000
,
00010000
00000100
00001000
00000100
00000010
00000100
00010000
00001000
,
00100000
00001000
01000000
00100000
10000000
01000000
00100000
00010000
,
00100000
00001000
00010000
00001000
00000000
00001000
00010000
00000100
,
00001000
00000000
00000010
00000000
00000000
00000000
00000010
00000000
00000100
00000000
00000000
00000000
00000100
00000000
00000000
00000001
00000000
00000000
00000010
00000000
00000000
00000100
00000000
00000000
,
00001000
00000010
00000100
00000001
00000000
00000010
00000001
00001000
,
00000001
00000000
00000010
00000000
00000000
00000000
00000010
00000000
00000100
00000000
00000000
00000000
00000100
00000000
00000000
00010000
00000000
00000000
00000100
00000000
00000000
00010000
00000000
00000000
,
00001000
01000000
00100000
01000000
00000000
00100000
10000000
01000000
,
00100000
00000000
00010000
00000000
00000000
00000000
00010000
00000000
01000000
00000000
00000000
00000000
01000000
00000000
00000000
00001000
00000000
00000000
00100000
00000000
00000000
00001000
00000000
00000000
,
00010000
00001000
00000100
00000010
00000100
00001000
00000100
00000010
,
00001000
00000001
00001001
00001000
,
00001100
00001000
00001010
00000010
,
00010010
00000000
00010000
00000000
00001000
00100000
00010000
00100000
,
00010000
10000000
01000000
10000000
01000000
00010000
01000000
00010000
,
01000000
10000000
00100000
00010000
00100000
01000000
00010000
00100000
,
00001000
00010000
00001000
00010000
00000100
00000010
00000100
00010000
,
00000100
00000000
00001000
00000000
00000001
00000100
00000001
00000000
00000010
00000000
00000001
00000000
00000000
00000000
00000001
00000000
,
00001001
00000000
00000110
00000000
00001000
00000010
00000000
00000010
,
00010000
00000000
00001000
00000000
00010000
00001000
00010000
00001000
00010000
00000000
00001000
00000000
00100000
00000000
01000000
00000000
,
00100000
00001000
00010000
00000100
00000010
00000100
00010000
00001000
,
00100000
00001000
00010000
00011000
00000000
00000000
00000000
00000000
,
00000000
00000000
00000000
10000000
01000000
00100000
00010000
00001000
00000100
00000010
00000001
00000010
,
00000100
00000000
00000000
00000000
;

//---------------dance-single - ----------------
#NOTES:
     dance-single:
     BEGINNER:
     Beginner:
     6:
     0.000000,0.000000,0.000000,0.000000,0.000000,0.000000,0.000000,0.000000,0.000000,0.000000,0.000000,0.000000,0.000000,0.000000,0.000000,0.000000,0.000000,0.000000,0.000000,0.000000,0.000000,0.000000:
0000
1000
0000
1000
,
0000
1000
0000
0001
,
0000
0001
0000
0001
,
1000
0000
0110
0000
,
1000
0000
1000
0000
,
1000
0000
0001
0000
,
0001
0000
0001
0000
,
1000
0000
1000
0000
,
1000
0000
0000
0000
,
0010
0000
0000
0000
,
1000
0000
0000
0000
,
0001
0000
0100
0000
,
0010
0000
0010
0000
,
0010
0000
0100
0000
,
0100
0000
0100
0000
,
0010
0000
0010
0000
,
0010
0000
0000
0000
,
1000
0000
0000
0000
,
0001
0000
0000
0000
,
1000
0000
0100
0000
,
0110
0000
0000
0000
,
0110
0000
0000
0000
,
0110
0000
0000
0000
,
0110
0000
0000
0000
,
0001
0000
0001
0000
,
0000
0000
0001
0000
,
1000
0000
1000
0000
,
1001
0000
1001
0000
,
0110
0000
0000
0000
,
0110
0000
0000
0000
,
0110
0000
0000
0000
,
0110
0000
0000
0000
,
1000
0000
1000
0000
,
0000
0000
1000
0000
,
0001
0000
0001
0000
,
2002
3003
0100
0000
,
0100
0000
0100
0000
,
0000
0000
0010
0000
,
0010
0000
0010
0000
,
0010
0000
0010
0000
,
0100
0000
0001
0000
,
0100
0000
2002
0000
,
0000
0000
0000
3003
,
0000
0000
0100
0000
,
0100
0000
0100
0000
,
0100
0000
0010
0000
,
0010
0000
0010
0000
,
0010
0000
0010
0000
,
1000
0000
0001
0000
,
0100
0000
0220
0000
,
0000
0000
0000
0330
,
0000
0000
0000
1000
,
0000
1000
0000
0001
,
0000
0001
0000
1001
,
0000
1001
0000
0110
,
0000
0110
0000
0100
,
0000
0100
0000
0010
,
0000
0010
0000
1010
,
0000
1010
0000
0101
,
0000
0101
0000
0001
,
0000
0001
0000
1000
,
0000
1000
0000
0011
,
0000
0011
0000
1100
,
0000
1100
0000
0010
,
0000
0010
0000
0100
,
0000
0100
0000
0001
,
0000
0001
0000
1000
,
0000
1000
0001
0000
,
1000
0000
0001
0000
,
0000
0000
0100
0000
,
0010
0000
0100
0000
,
0000
0000
0010
0000
,
1000
0000
0010
0000
,
0000
0000
0100
0000
,
0001
0000
0100
0000
,
0000
0000
2002
0000
,
0000
0000
0000
0000
,
3003
0000
0220
0000
,
0000
0000
0000
0000
,
0330
0000
2002
0000
,
0000
0000
0000
0000
,
3003
0000
1000
0000
,
0001
0000
1000
0000
,
0001
0000
0100
0000
,
0000
0100
0000
0000
,
0100
0000
0010
0000
,
0000
0010
0000
0000
,
0010
0000
0100
0000
,
0000
0000
0100
0000
,
0000
0000
0001
0000
,
0000
0001
0000
0000
,
1000
0000
1000
0000
,
0000
0000
0010
0000
,
0000
0000
0100
0000
,
0000
0000
0001
0000
,
0000
0000
0010
0000
,
0000
0010
0000
0000
,
0100
0000
1000
0000
,
0001
0000
1000
0000
,
0001
0000
1000
0000
,
0000
0000
1000
0000
,
0000
0000
0001
0000
,
0000
0000
0001
0000
,
0000
0000
0110
0000
,
0000
0000
0110
0000
,
0000
0000
1001
0000
,
0000
0000
1001
0000
,
0000
0000
0000
0000
,
0000
1002
0000
0000
,
0103
0000
0000
0000
;

//---------------dance-single - ----------------
#NOTES:
     dance-single:
     BASIC:
     Easy:
     9:
     0.000000,0.000000,0.000000,0.000000,0.000000,0.000000,0.000000,0.000000,0.000000,0.000000,0.000000,0.000000,0.000000,0.000000,0.000000,0.000000,0.000000,0.000000,0.000000,0.000000,0.000000,0.000000:
0000
1000
0000
1000
,
0000
0001
0000
0001
,
1000
0010
1000
0000
,
0001
0100
0001
0000
,
0110
0000
0110
0000
,
1001
0000
1001
0000
,
0100
0100
0010
0000
,
0010
0010
0100
0000
,
0101
0000
0101
0000
,
1010
0000
1010
0000
,
0001
0001
1000
1000
,
0010
0100
0220
0330
,
1100
0000
1100
0000
,
0011
0000
0011
0000
,
0100
0100
0001
0000
,
0010
0010
1000
0000
,
0101
0000
0011
0000
,
1010
0000
1100
0000
,
0010
0010
0100
0100
,
0001
1000
2001
0000
,
3010
1000
0020
0000
,
0130
0001
0200
0000
,
0301
0000
0010
0000
,
1000
0000
0010
0000
,
0001
1000
0002
0000
,
1003
0001
2000
0000
,
3010
0000
0100
0000
,
0010
0001
0010
1000
,
0010
0100
0020
0000
,
0130
0001
0200
0000
,
0301
0010
0002
0000
,
1003
0010
2000
0000
,
3010
0000
1000
0000
,
0100
0000
0001
0000
,
0100
0000
1000
0010
,
2002
3003
0110
0000
,
0100
0000
0100
0001
,
0010
0000
0001
0000
,
1000
0000
0010
0100
,
0010
1000
0010
0100
,
0001
0000
0010
0000
0100
0000
0000
1000
,
0000
0010
0202
0000
,
0000
0000
0000
0000
0303
0000
0000
1001
,
0000
1001
0000
0010
,
0100
0000
0001
0000
1000
0000
0000
0010
,
0000
1000
0100
0000
,
0010
0000
0000
0000
0001
0000
0000
0100
,
0000
0000
0001
0010
,
0001
0000
1000
0000
0010
0000
0000
0100
,
0000
0001
2020
0000
,
0000
0000
3030
1001
,
0000
1001
0000
0000
0000
0000
0100
0000
,
0000
0100
0000
0010
,
0000
0010
0000
1010
,
0000
0101
0000
0011
,
0000
1010
0000
0010
,
0000
0010
0000
0100
,
0000
0100
0000
0101
,
0000
1001
0000
1010
,
0000
0110
0000
1000
,
0000
1000
0000
0001
,
0000
0001
0000
0011
,
0000
1001
0000
1100
,
0000
0101
0000
0001
,
0000
0001
0000
1000
,
0000
1000
0000
0010
,
0000
0010
0000
0100
,
0000
0100
0010
0000
,
0100
0000
0001
0000
,
0010
0000
0001
0000
,
1000
0000
0010
0000
,
1000
0000
0100
0000
,
0001
0000
0100
0000
,
1000
0000
0010
0000
,
0100
0000
0001
0000
,
0010
0000
0022
0000
,
0000
0000
0000
0000
,
0000
0033
2020
0000
,
0000
0000
0000
0000
,
0000
3030
2002
0000
,
0000
0000
0000
3003
,
1000
0010
0100
0100
,
0001
0001
0010
0010
,
0100
0000
0000
0000
1100
0000
0000
1000
,
0000
0000
0010
0000
0000
0100
0000
0000
,
0001
0000
0010
0000
0001
0000
0000
0100
,
0000
0000
0001
0000
0000
0010
0000
0000
,
0100
0000
0010
0000
0100
0000
0000
1000
,
0000
0000
0001
0000
0000
0100
0000
0000
,
0001
0000
0010
0000
0001
0000
0000
1000
,
0000
0000
0010
0000
0000
0001
0000
0000
,
0010
0000
0100
0000
1000
0000
0000
0100
,
0000
0000
0001
0000
0000
0100
0000
0000
,
0001
0000
0010
0000
0100
0000
0000
0010
,
0000
0000
0001
0000
0000
0010
0000
0000
,
0100
0000
0010
0000
1000
0000
0000
0010
,
0000
0000
0001
0000
0000
0100
0000
0000
,
0001
1000
0001
0001
,
1000
1000
0010
0010
,
0100
0000
0001
0000
,
0011
0000
1000
0000
,
1010
0000
0001
0000
,
0101
0000
1000
0000
,
1100
0000
0010
0100
,
0001
0000
0010
0100
,
1000
0000
0010
0100
,
0010
0100
0001
1000
,
0001
1000
0000
0000
,
0000
2001
0000
0000
,
3010
0000
0000
0000
;

//---------------dance-single - ----------------
#NOTES:
     dance-single:
     DIFFICULT:
     Medium:
     13:
     0.000000,0.000000,0.000000,0.000000,0.000000,0.000000,0.000000,0.000000,0.000000,0.000000,0.000000,0.000000,0.000000,0.000000,0.000000,0.000000,0.000000,0.000000,0.000000,0.000000,0.000000,0.000000:
1000
0001
1000
0010
,
0100
0001
0010
0100
,
1000
0000
0010
0000
0100
0001
0100
0000
,
0001
0000
0010
0000
0100
1000
0100
1000
,
0001
0010
0000
0000
0010
0100
0000
0000
,
0100
1000
0000
0000
0100
0000
0010
0000
,
0001
1000
0000
0000
0100
0010
0000
0000
,
0001
0100
0000
0000
0010
1000
0010
0000
,
1000
0100
0000
0000
0010
0001
0000
0000
,
0100
0010
0000
0000
1000
0001
1000
0000
,
0001
0100
0000
0000
0010
1000
0000
0000
,
0100
0100
0010
0010
,
0001
0100
0000
0000
0010
0001
0000
0000
,
0010
1000
0000
0000
0010
0100
0010
0000
,
0100
0001
0000
0000
0100
1000
0000
0000
,
0100
0010
0000
0000
0100
0001
0100
0000
,
0001
1000
0000
0000
1000
0010
0000
0000
,
0010
0100
0000
0100
0001
0000
0010
0000
,
0001
0100
0000
0000
0100
0010
0000
0000
,
0010
1000
0010
1000
0001
0100
0001
0000
,
1000
0000
0010
0000
1010
0000
0000
0100
,
0001
0000
0010
0000
0011
0000
0000
0001
,
1000
0010
0001
0010
,
1000
0001
0100
1000
,
0100
0000
0010
0000
0110
0000
0000
0100
,
0001
0000
1000
0000
1010
0000
0000
0001
,
0100
0010
1010
0100
,
0010
0001
0010
0000
0100
0001
0100
0000
,
0010
0000
1000
0000
1001
0000
0000
0100
,
0010
0000
0001
0000
0011
0000
0000
0010
,
1000
0100
1000
0010
,
0100
0001
0010
0100
,
1000
0010
1000
0000
0110
0000
0001
0000
,
0100
0001
0100
0000
0011
0000
1000
0000
,
0010
0100
0010
0000
1000
0001
1000
0000
,
0110
1001
1100
0000
1001
0000
0020
0000
,
0000
0032
0000
0000
0203
0000
0000
0320
,
0000
1030
0100
2000
,
0000
3020
0000
0000
0230
0000
0000
0320
,
0000
1030
0001
0011
,
0000
0101
0000
0000
1010
0000
0000
0110
,
0000
0100
0001
0000
2002
0000
0000
0000
,
0000
0000
0000
0000
3003
0000
1000
0010
,
0000
0010
0100
0000
0010
0000
2000
0000
,
0000
3200
0000
0000
0302
0000
0000
0203
,
0000
1300
0010
0200
,
0000
0302
0000
0000
0023
0000
0000
2030
,
0000
3010
0001
0101
,
0000
1001
0000
0000
1010
0000
0000
0110
,
0000
0100
1000
0000
2002
0000
0000
0000
,
0000
0000
0000
0000
3003
0000
0100
0001
,
0000
0001
0010
0000
0100
0000
0100
0000
,
0010
0000
0010
0000
0100
0000
1000
0010
,
0000
0010
0100
0000
0011
0000
0010
0100
,
0000
0100
1000
0000
1001
0000
0100
0001
,
0000
0001
0010
0000
0001
0000
0001
0000
,
1000
0000
1000
0000
0010
0000
0100
0001
,
0100
0000
0010
0000
1000
0000
0100
0010
,
0100
0000
1000
0000
0001
0000
0010
0100
,
0010
0001
1000
1000
,
0010
0000
0010
0000
0100
0000
0001
0010
,
0000
0010
1000
0000
0010
0000
0001
0100
,
0000
0100
1000
0000
0100
0000
0010
0100
,
0001
0100
0010
0010
,
0001
0000
0001
0000
1010
0000
1000
0001
,
1000
0000
0010
0000
0100
0000
0010
0001
,
0010
0000
0100
0000
0101
0000
0001
1000
,
0001
1000
0020
0000
0000
0000
0130
0000
,
0001
0010
0001
1000
,
0010
1000
0010
0000
0100
0000
0001
0000
,
0100
0001
0010
0001
,
1000
0001
0100
0000
0010
0000
0001
0000
,
0010
0100
0010
1000
,
0010
0100
0001
0000
0010
0000
0001
0000
,
1000
0010
1000
0000
0001
0000
0100
0000
,
0001
0010
0100
0000
2100
0000
0010
0000
,
0001
0010
0001
0010
,
0001
3100
0102
1000
,
0010
1000
0010
1000
,
0100
0013
0220
0000
,
0000
0000
0000
0330
,
1000
0000
0001
0000
0011
0000
0000
0001
,
1000
0000
0000
0100
0010
0000
0000
0001
,
0100
0000
0010
0000
2000
0000
0000
3020
,
0000
0000
0230
0000
0000
0301
0000
0010
,
0100
0000
0010
0000
0002
0000
0000
2003
,
0000
0000
3020
0000
0000
0032
0000
0000
,
0013
0000
1000
0000
0200
0000
0000
0302
,
0000
0000
0203
0000
0000
1300
0000
0100
,
0010
0000
0001
0000
0200
0000
0000
0302
,
0000
0000
2003
0000
0000
3010
0000
0100
,
0001
0010
0001
0100
,
0001
0010
0001
1000
,
0010
0001
0010
1000
,
0100
1000
0010
1000
,
0100
0001
0100
1000
,
0010
0100
0010
0001
,
0010
0000
0010
0000
1001
0000
0000
0100
,
0001
0000
0000
0010
0100
0000
0000
1000
,
0010
0000
0100
0000
0001
0010
0001
0000
,
1000
0000
0010
0000
1000
0100
1000
0000
,
0001
0000
0100
0000
0010
0001
0010
0000
,
1000
0000
0010
0000
0100
0001
0100
0000
,
0010
0000
1000
0000
0010
1000
0000
1000
,
0100
0000
1000
0000
0001
0100
0000
0100
,
0010
0000
1000
0000
0010
0100
0010
0000
,
0100
0000
0001
0000
1000
0100
1000
0100
,
0010
0001
1000
0010
0000
0000
0000
0000
,
0000
1002
0000
0000
,
0103
0000
0000
0000
;

//---------------dance-single - ----------------
#NOTES:
     dance-single:
     EXPERT:
     Hard:
     16:
     0.000000,0.000000,0.000000,0.000000,0.000000,0.000000,0.000000,0.000000,0.000000,0.000000,0.000000,0.000000,0.000000,0.000000,0.000000,0.000000,0.000000,0.000000,0.000000,0.000000,0.000000,0.000000:
1000
0010
1000
0000
0100
0010
0100
0000
,
0010
0001
0010
0000
0100
1000
0100
0000
,
1000
0001
0010
0001
0100
0010
0100
0000
,
0001
0100
1000
0100
0001
0010
0001
1000
,
0010
1010
1000
1100
,
2000
0010
3002
0100
,
1003
1010
0001
0101
,
0010
0001
1000
0000
1000
0100
0010
0000
,
0010
0110
0010
0011
,
0100
1100
0100
0101
,
0100
1000
0001
0000
0100
0010
0001
0000
,
0010
0100
1000
0100
0001
0100
0010
0100
,
0001
0011
0100
0101
,
0020
1000
0230
0001
,
0310
1010
0100
0110
,
0001
1000
0010
0000
1000
0100
0001
0000
,
0100
1000
0010
1000
0010
0100
0001
0000
,
0010
0001
0010
1000
0010
0001
0100
0000
,
0010
0100
0001
0000
1000
0010
0001
0000
,
0010
1000
0010
0100
0010
1000
0001
1000
,
0100
0000
1000
0000
1010
0000
0100
0001
,
0100
0000
0001
0000
0011
0000
0010
0100
,
0010
0000
0100
0000
1001
0000
0100
0001
,
0100
0010
1000
0000
1001
0000
0010
0000
,
0100
0001
0010
0000
0011
0000
0100
0000
,
1000
0001
0100
0000
1100
0000
0010
0000
,
0100
0010
0001
0000
0010
0100
1000
0000
,
0010
0100
0010
0001
0010
0100
0010
1000
,
0010
0000
0100
0000
0101
0000
1000
0010
,
0100
0010
0001
0000
0110
0000
1000
0000
,
0001
0000
0100
0000
0110
0000
0001
1000
,
0100
0010
0100
0000
1010
0000
0100
0000
,
0010
1000
0001
0000
0101
0000
0010
1000
,
0100
0000
1000
0000
1010
0000
0100
0010
,
0001
0010
0100
1000
0001
1000
0010
0100
,
0101
1001
1010
0000
1001
0000
0001
0010
,
0000
0010
0100
0000
0100
1000
0000
1000
,
0001
0000
0010
0100
1000
0001
1000
0100
,
0010
1000
0001
1000
0010
0100
1000
0001
,
0100
1000
0100
0001
1000
0000
0010
0100
,
0000
0100
0001
0000
0001
1000
0000
1000
,
0100
0010
0100
0000
0010
0001
0010
0100
,
1000
0001
1000
0010
0001
0010
1000
0010
,
0100
0001
1000
0010
0000
0100
0001
0010
,
0000
0010
1000
0000
1000
0010
0000
0010
,
0001
0000
0001
0100
1000
0100
0010
0100
,
0001
0100
0010
1000
0010
0001
0010
0100
,
0010
1000
0001
0010
0100
0000
0010
0100
,
0000
0100
1000
0000
1000
0100
0000
0100
,
0001
0000
1000
0010
0001
0010
1000
0001
,
0100
0001
1000
0100
0001
0100
1000
0010
,
0100
0010
0100
0001
0011
0000
0011
0000
,
1100
0000
1100
0000
1001
0000
0010
0100
,
0000
0100
0001
0000
0110
0000
1000
0020
,
0000
0000
0130
0000
0101
0000
0001
0020
,
0000
0130
1010
1010
,
0101
0000
0101
0000
0110
0000
1000
0100
,
0010
0000
0010
0000
0101
0000
0001
1000
,
0100
0000
0100
0000
1010
0000
0001
1000
,
0100
0010
0100
0000
1010
0000
1010
0000
,
0011
0000
0011
0000
0110
0000
0001
1000
,
0000
1000
0010
0000
0101
0000
0001
2000
,
0000
0000
3010
0000
0110
0000
1000
0002
,
0000
0013
1100
1100
,
0101
0000
0101
0000
1001
0000
0010
0100
,
0001
0000
0010
0000
0110
0000
1000
0100
,
0001
0000
0110
0000
1001
0000
0010
0100
,
1000
0100
0010
0001
0100
0000
0001
0010
,
0001
0000
1000
0001
1000
0000
0010
1000
,
0010
0000
0100
0001
0100
0000
0010
0100
,
0010
0000
1000
0100
0010
0000
0100
0010
,
0001
0000
0100
0001
0010
0000
0001
1000
,
0010
0000
0100
0010
1000
0000
0100
0010
,
0001
0000
1000
0100
0001
0000
0100
1000
,
0010
0000
0100
0010
0100
0000
0001
0010
,
1000
0000
0010
0001
0100
0010
0100
0010
,
0100
0010
1000
0010
1000
0010
1000
0001
,
0100
0001
0100
0001
0100
1000
0100
1000
,
0100
1000
0100
0010
0100
0010
0100
0010
,
0001
0010
0001
0010
0001
0010
1000
0010
,
1000
0010
1000
0010
0100
0001
0100
0001
,
1000
0010
1000
0000
0101
0000
0001
0000
,
0011
0010
0110
0100
,
1100
0000
1000
0000
1000
0010
0000
0010
,
0100
0000
0100
0001
0000
0001
0010
0100
,
1000
0010
0100
0000
0100
0001
0000
0001
,
0010
0000
0010
0001
0000
0001
1000
0010
,
1000
0100
0010
0000
0010
0100
0000
0100
,
1000
0000
1000
0010
0000
0010
0100
0010
,
0001
0010
0100
0010
1000
0010
0000
0010
,
0001
0000
0001
0010
0000
0010
0100
0010
,
0100
1000
0100
1000
0100
0001
0000
0001
,
0100
0000
0100
0010
0000
0010
1000
0100
,
0001
0100
1000
0001
0010
0100
0000
0100
,
0010
0000
0010
0001
0000
0001
0010
1000
,
0010
0100
1000
0100
0010
0100
0000
0100
,
1000
0001
0100
0001
1000
0010
1000
0001
,
0100
0100
0110
0100
,
0011
0010
1010
0100
,
0101
0000
1001
0000
1000
0010
0100
0010
,
0001
0010
0100
0000
0010
1000
0100
0001
,
0100
0010
0100
0000
1000
0001
0010
0001
,
0100
0001
0010
0000
0001
1000
0100
1000
,
0010
1000
0200
0000
1300
0010
0000
0010
,
0001
0000
0110
0000
0001
0100
0000
0100
,
1000
0000
0110
0000
1000
0010
0001
0010
,
0100
0001
0010
1000
0010
0100
0001
0100
,
1000
0100
0010
0002
0000
0000
0003
0000
,
0000
2001
0000
0000
,
3010
0000
0000
0000
;

//---------------dance-single - ----------------
#NOTES:
     dance-single:
     CHALLENGE:
     Challenge:
     18:
     1.218212,1.365299,0.821684,0.160329,0.711459,851.000000,769.000000,82.000000,16.000000,0.000000,0.000000,1.218212,1.365299,0.821684,0.160329,0.711459,851.000000,769.000000,82.000000,16.000000,0.000000,0.000000:
// measure 0
1000
0100
0001
0100
1000
0010
0001
0000
,  // measure 1
0010
1000
0001
0100
1000
0100
0001
0000
,  // measure 2
1000
0100
0001
0100
1000
0001
0010
0000
,  // measure 3
1000
0010
0001
1000
0100
0001
0100
1000
,  // measure 4
0001
0010
0000
0001
0010
0000
0010
1000
0000
0010
1000
0000
,  // measure 5
0010
0001
0000
0010
0001
0000
1000
0001
0000
1000
0001
0000
,  // measure 6
0001
0100
0000
0001
0100
0000
0100
1000
0000
0100
1000
0000
,  // measure 7
0100
0010
0000
0100
0010
0000
1000
0001
0000
1000
0001
0000
,  // measure 8
0010
0001
0000
0010
0001
0000
1000
0010
0000
1000
0010
0000
,  // measure 9
0100
0001
0000
0100
0001
0000
1000
0100
0000
1000
0100
0000
,  // measure 10
1000
0001
0000
1000
0001
0000
0010
0100
0000
0010
0100
0000
,  // measure 11
1000
0001
0010
0100
0010
0100
1000
0001
,  // measure 12
0100
0001
0000
0010
0001
0000
1000
0010
0000
1000
0100
0000
,  // measure 13
0010
0001
0000
0010
1000
0000
0010
0001
0000
0010
0100
0000
,  // measure 14
0100
1000
0000
0100
0001
0000
0100
0010
0000
0100
1000
0000
,  // measure 15
0100
0001
0000
0100
1000
0000
0100
0010
0000
0100
0001
0000
,  // measure 16
0100
0010
0000
0010
1000
0000
0010
0001
0000
0010
0100
0000
,  // measure 17
0100
0001
0000
0100
1000
0000
0100
0010
0000
0010
0001
0000
,  // measure 18
0010
0100
0000
0100
1000
0000
1000
0100
0000
0100
0001
0000
,  // measure 19
0100
1000
0001
1000
0001
0010
0001
0100
,  // measure 20
0010
1000
1100
0000
1001
0000
0100
0001
,  // measure 21
0100
1000
0110
0000
1001
0000
0010
0001
,  // measure 22
0010
1000
0010
0001
0100
0010
0100
0001
,  // measure 23
1000
0100
0001
0100
1010
0000
0101
0000
,  // measure 24
0010
0001
0101
0000
0110
0000
0010
1000
,  // measure 25
0100
0001
0110
0000
1001
0000
0011
0000
,  // measure 26
0100
0001
0011
0000
1010
0000
1100
0000
,  // measure 27
0100
0001
0100
1000
0100
0010
0001
0010
,  // measure 28
0100
0010
1010
0000
0101
0000
0010
0001
,  // measure 29
1000
0010
0011
0000
1100
0000
0010
0100
,  // measure 30
0101
0000
1100
0000
0100
0010
0100
1000
,  // measure 31
0101
0000
1010
0000
1000
0001
1001
0000
,  // measure 32
0010
0100
1000
0100
0011
0000
0101
0000
,  // measure 33
0010
0001
0010
1000
0110
0000
1001
0000
,  // measure 34
0100
0000
0001
0000
0100
0000
0001
0000
0000
0010
0000
0000
0100
0000
0000
1000
0000
0000
0001
0000
0000
0100
0000
0000
,  // measure 35
1010
0000
0000
1001
0000
0000
0101
0000
0000
0000
0000
0000
1001
0000
0000
0000
0000
0000
1000
0000
0100
0000
0010
0000
,  // measure 36
0001
0000
0011
0000
1010
0000
0010
0100
,  // measure 37
0000
0100
0001
0000
0011
0000
0011
0000
,  // measure 38
1100
0000
1100
0000
0010
0100
0001
1000
,  // measure 39
0000
0100
0010
0001
0011
0000
1001
0000
,  // measure 40
1010
0000
1100
0000
0110
0000
0001
1000
,  // measure 41
0000
0000
0000
1000
0000
0000
0100
0000
0000
0000
0000
0000
0010
0000
0001
0000
0010
0000
0001
0000
0010
0000
0001
0000
,  // measure 42
0010
0000
0001
0000
0010
0000
0001
0000
0010
0000
0001
0000
0010
0000
0000
0000
0000
0000
0001
0000
0000
0100
0000
0000
,  // measure 43
0000
0100
1000
0100
0110
0000
0101
0000
,  // measure 44
0011
0000
1001
0000
1010
0000
1000
0100
,  // measure 45
0000
0100
0001
0000
1100
0000
1100
0000
,  // measure 46
0011
0000
0011
0000
1001
0000
0000
0110
,  // measure 47
0000
0001
1000
0010
0110
0000
1100
0000
,  // measure 48
0110
0000
0011
0000
1001
0000
0100
0001
,  // measure 49
0000
0000
0000
0001
0000
0000
0010
0000
0000
0000
0000
0000
0100
0000
1000
0000
0100
0000
1000
0000
0100
0000
1000
0000
,  // measure 50
0100
0000
1000
0000
0100
0000
1000
0000
0000
0000
0000
0000
0100
0000
0000
0010
0000
0000
0000
0000
0000
0010
0000
0000
,  // measure 51
0001
1000
0001
0100
1000
0100
0001
0000
,  // measure 52
0110
0000
0000
0000
0001
0010
0100
0000
1000
0000
0100
0000
0000
0000
1000
0000
,  // measure 53
0010
0100
0101
0000
1001
0000
0002
0010
,  // measure 54
0000
0100
0103
0000
1010
0000
2000
0100
,  // measure 55
0000
0010
3010
0000
1100
0000
0101
0000
,  // measure 56
1100
0000
0110
0000
0010
0001
1000
0010
,  // measure 57
0000
0100
0001
0010
1100
0000
0001
0200
,  // measure 58
0000
0010
0310
0000
0011
0000
1000
0020
,  // measure 59
0000
0100
0130
0000
0011
0000
1010
0000
,  // measure 60
0011
0000
0110
0000
0001
1000
0010
0100
,  // measure 61
0010
0000
0100
0001
0100
1000
0200
0001
,  // measure 62
0301
0000
0020
0100
0130
0000
2000
0010
,  // measure 63
3010
0000
0002
0100
0103
0000
0011
0000
,  // measure 64
1010
0000
1100
0000
0101
0000
1000
0100
,  // measure 65
0001
0100
1000
0000
0011
0000
0100
0010
,  // measure 66
0001
0010
0100
0000
1010
0000
0001
0010
,  // measure 67
1000
0010
0001
1000
0010
0001
0010
0000
,  // measure 68
0100
0010
0100
0000
0010
1000
0010
0000
,  // measure 69
0100
0001
0010
0000
0100
1000
0001
0000
,  // measure 70
0100
0010
0001
0000
0010
0100
1000
0000
,  // measure 71
0010
0100
0001
0000
1000
0010
0100
0000
,  // measure 72
0001
0100
1000
0000
1000
0100
0001
0000
,  // measure 73
1000
0010
0001
0000
0001
0010
1000
0000
,  // measure 74
0010
0100
0010
0001
0010
0100
0010
0000
,  // measure 75
1000
0000
0000
0010
0000
0000
0100
0000
0000
0000
0000
0000
0001
0000
0100
0000
0001
0000
0100
0000
0001
0000
0100
0000
,  // measure 76
0001
0100
0001
0100
0001
0100
0001
0100
0001
0100
0001
0100
,  // measure 77
0001
0100
0001
0100
0001
0100
0010
0001
0010
0001
0010
0001
,  // measure 78
0010
0001
0010
0001
0010
0001
0010
0001
0010
0001
0010
0001
,  // measure 79
0010
0001
0010
0001
0010
0001
0010
1000
0010
1000
0010
1000
,  // measure 80
0010
1000
0010
1000
0010
1000
0010
1000
0010
1000
0010
1000
,  // measure 81
0010
0000
1010
0000
2000
0001
3001
0000
,  // measure 82
0020
0100
0130
0000
2000
0100
3100
0000
,  // measure 83
0002
0010
0013
0000
0001
0010
1000
0010
,  // measure 84
0001
1000
0100
0001
0100
1000
0001
0010
,  // measure 85
1000
0000
0000
0010
0000
0000
0001
0000
0100
0000
0001
0000
0100
0000
0000
0010
0000
0000
0100
0000
0000
1000
0000
0000
,  // measure 86
0100
0001
0010
0100
0010
0001
1000
0010
,  // measure 87
0100
0000
0000
1000
0000
0000
0100
0000
0010
0000
0100
0000
0010
0000
0000
0100
0000
0000
0001
0000
0000
0100
0000
0000
,  // measure 88
0010
1000
0100
0001
0100
1000
0010
0100
,  // measure 89
0010
0000
0001
0000
0010
0000
0001
0000
0000
0010
0000
0000
0100
0000
0000
0010
0000
0000
1000
0000
0000
0010
0000
0000
,  // measure 90
0100
0001
0100
0010
0100
0001
1000
0100
,  // measure 91
0010
0000
0001
0000
0010
0000
0100
0000
0000
0010
0000
0000
0001
0000
0000
1000
0000
0000
0100
0000
0000
0010
0000
0000
,  // measure 92
0100
1000
0001
0010
1000
0010
0001
0100
,  // measure 93
0010
0000
1000
0000
0010
0000
1000
0000
0000
0010
0000
0000
0100
0000
0000
0010
0000
0000
0001
0000
0000
0010
0000
0000
,  // measure 94
1000
0010
0001
1000
0100
0001
0100
1000
,  // measure 95
0001
0000
0010
0000
0001
0000
0100
0000
0000
0010
0000
0000
0001
0000
0000
0010
0000
0000
1000
0000
0000
0010
0000
0000
,  // measure 96
0001
0000
0000
0100
0000
0000
0010
0000
1000
0000
0100
0000
1000
0000
0000
0010
0000
0000
0100
0000
0000
0010
0000
0000
,  // measure 97
0001
0010
0110
0000
2000
0001
3001
0000
,  // measure 98
0020
0001
0031
0000
2000
0100
3100
0000
,  // measure 99
0020
0100
0130
0000
1000
0100
0001
1000
,  // measure 100
0010
0001
0010
1000
0001
0100
1000
0001
,  // measure 101
0010
1000
0010
0001
1000
0010
1000
0001
,  // measure 102
0100
0001
1000
0100
1000
0001
0010
0001
,  // measure 103
0100
0000
0010
0000
1000
0001
1000
0000
0010
0000
0100
0000
0000
0000
0100
0000
,  // measure 104
0001
0000
1001
0000
1000
0010
0000
0010
,  // measure 105
0100
0000
0000
0000
0010
0100
0010
0100
0010
0000
1000
0000
0100
0000
0001
0000
,  // measure 106
0100
1000
0010
0001
0010
1000
0001
0100
,  // measure 107
1000
0100
0001
1001
0000
0000
0000
0000
,  // measure 108
0000
0000
0000
1000
0100
0010
0001
0010
0100
1000
0100
0010
,  // measure 109
0001
0000
0000
0000
;

//---------------dance-double - ----------------
#NOTES:
     dance-double:
     BASIC:
     Easy:
     9:
     0.000000,0.000000,0.000000,0.000000,0.000000,0.000000,0.000000,0.000000,0.000000,0.000000,0.000000,0.000000,0.000000,0.000000,0.000000,0.000000,0.000000,0.000000,0.000000,0.000000,0.000000,0.000000:
00000000
10000000
00000000
10000000
,
00000000
00010000
00000000
00010000
,
00000000
01000000
00000000
01000000
,
00000000
00001000
00000000
00001000
,
00011000
00000000
00011000
00000000
,
00010100
00000000
00010100
00000000
,
00000110
00000000
00000110
00000000
,
00000001
00000000
00001000
00000000
,
00000001
00000010
00000001
00000000
,
00001000
00000010
00001000
00000000
,
00000010
00000000
00000100
00000000
,
00010000
00000000
00100000
00000000
,
01100000
00000000
01100000
00000000
,
01001000
00000000
01001000
00000000
,
00011000
00000000
00011000
00000000
,
00000100
00000000
00000010
00000000
,
00000100
00010000
00000100
00000000
,
00010000
00001000
00010000
00000000
,
00001000
00100000
00001000
00100000
,
00010000
00000000
10010000
00000000
,
01000000
00000000
01100000
00000000
,
00100000
00000000
00101000
00000000
,
00001000
00000000
00011000
00000000
,
00010000
00000000
00010010
00000000
,
00000010
00000100
00000010
00000000
,
00000100
00000100
00000100
00000000
,
00000010
00000100
00000010
00000000
,
00001001
00000000
00000110
00000000
,
00001000
00000000
00001010
00000000
,
00000010
00000000
00010010
00000000
,
00010000
00000000
00011000
00000000
,
00001000
00000000
01001000
00000000
,
01000000
00100000
01000000
00000000
,
00100000
00100000
00100000
00000000
,
01000000
00100000
01000000
00010000
,
20020000
30030000
00000000
00001000
,
00000000
00001000
00000000
00010000
,
00000000
00010000
00000100
00001000
,
00000000
00001000
00000010
00000100
,
00000001
00000000
00000000
00001000
,
00000000
00001000
00000000
00000001
,
00000000
00000001
00000022
00000000
,
00000000
00000000
00000000
00000000
00000033
00000000
00000000
00001000
,
00000000
00000010
00010000
00000000
,
00010000
00000000
00001000
00000000
,
00001000
00000000
00010000
00000000
,
00010000
00000000
00001000
00000000
,
00010000
00000000
00100000
00000000
,
01000000
00000000
00010000
00000000
,
10000000
00100000
20200000
00000000
,
00000000
30300000
00000000
01000000
,
00000000
01000000
00000000
00000000
00010000
00000000
00000000
00000000
,
00010000
00000000
00100000
00000000
,
00001000
00000000
00010000
00001000
,
00000000
00010000
00000100
00010000
,
00000000
00000100
00001000
00000000
,
00001000
00000000
00000001
00000000
,
00000001
00000000
00000010
00000100
,
00000000
00000010
00001000
00000010
,
00000000
00000100
00010000
00000000
,
00010000
00000000
00001000
00000000
,
00001000
00000000
00010000
00100000
,
00000000
01000000
00010000
01000000
,
00000000
00100000
10000000
00000000
,
10000000
00000000
00010000
00000000
,
00010000
00000000
10000000
00000000
,
01000000
00000000
00100000
00000000
,
00001000
00100000
00001000
00000000
,
00010000
00000000
00001000
00000000
,
00000100
00000000
00000010
00000000
,
00000001
00000000
00001000
00000000
,
00000010
00000000
00000100
00000000
,
00000010
00000000
00010000
00000000
,
00001000
00000000
00100000
00000000
,
00010000
00000000
01000000
00000000
,
10000000
00000000
02020000
00000000
,
00000000
00000000
00000000
00000000
,
03030000
00000000
00022000
00000000
,
00000000
00000000
00000000
00000000
,
00033000
00000000
00000220
00000000
,
00000000
00000000
00000330
00000000
,
00001000
00000001
00001001
00000000
,
00000110
00000000
00000010
00010000
,
00001000
00010000
00001000
00000000
,
00100000
00000000
00010000
00000000
,
10000000
01000000
00100000
00000000
,
00001000
00000000
00100000
00000000
,
00001000
00010000
00000100
00000000
,
00001000
00000000
00000010
00000000
,
00000001
00000010
00001000
00000000
,
00000010
00000000
00000100
00000000
,
00000010
00010000
00001000
00000000
,
00010000
00000000
00001000
00000000
,
00100000
00010000
01000000
00000000
,
00100000
00000000
10000000
00000000
,
00100000
01000000
00001000
00000000
,
00010000
00000000
00001000
00000000
,
00010000
00000100
00000110
00000000
,
00001001
00000000
00000010
00000100
,
00010000
00001000
00100000
00000000
,
00110000
00000000
00010000
00000000
,
10010000
00000000
10000000
00000000
,
11000000
00000000
01000000
00000000
,
01100000
00000000
00001000
00000000
,
00001000
00000000
00010000
00000000
,
00010000
00000000
00000100
00000000
,
00001000
00000000
00000010
00000100
,
00000010
00001001
00000000
00000000
,
00000000
00021000
00000000
00000000
,
00031000
00000000
00000000
00000000
;
