#VERSION:0.83;
#TITLE:夜間行;
#SUBTITLE:;
#ARTIST:Des-ROW・組;
#TITLETRANSLIT:Yakankou;
#SUBTITLETRANSLIT:;
#ARTISTTRANSLIT:Des-ROW・UNION;
#GENRE:Des-REGGAE;
#ORIGIN:;
#TAGS:;
#CREDIT:YonabearCWY;
#BANNER:Yakankou.png;
#BACKGROUND:Yakankou-bg.png;
#PREVIEWVID:;
#JACKET:Yakankou-jacket.png;
#CDIMAGE:;
#DISCIMAGE:;
#LYRICSPATH:;
#CDTITLE:pop'n music.png;
#MUSIC:Yakankou.ogg;
#OFFSET:-10.000000;
#SAMPLESTART:19.340000;
#SAMPLELENGTH:15.000000;
#SELECTABLE:YES;
#DISPLAYBPM:102.000000:205.000000;
#BPMS:0.000000=102.500000
,128.000000=205.000000
;
#STOPS:;
#DELAYS:;
#WARPS:;
#TIMESIGNATURES:0.000000=4=4
;
#TICKCOUNTS:0.000000=4
;
#COMBOS:0.000000=1
;
#SPEEDS:0.000000=1.000000=0.000000=0
;
#SCROLLS:0.000000=1.000000
;
#FAKES:;
#LABELS:0.000000=Song Start
;
#BGCHANGES:0.000=amoeba3.mp4=1.000=1=0=1===CrossFade==,
8.000=fire1.mp4=1.000=0=0=1=====,
16.000=fabric1.mp4=1.000=0=0=1=====,
20.000=fabric1r.mp4=1.000=0=0=1=====,
24.000=kaliedoscope8.mp4=1.000=0=0=1=====,
32.000=rotation5.mp4=1.000=0=0=1=====,
40.000=room2.mp4=1.000=0=0=1=====,
46.000=lava1.mp4=1.400=0=0=1=====,
48.000=fire5.mp4=1.000=0=0=1=====,
56.000=fire4.mp4=1.000=0=0=1=====,
64.000=text22.mp4=1.000=0=0=1=====,
72.000=fire6.mp4=1.000=0=0=1=====,
78.000=lava1.mp4=1.400=0=1=1=StretchRewind====,
80.000=tunnel14.mp4=1.300=0=0=1=====,
84.000=tunnel14r.mp4=1.300=0=0=1=====,
88.000=lava1.mp4=1.400=0=1=1=StretchRewind====,
96.000=amoeba3.mp4=1.200=0=1=1=StretchRewind====,
104.000=kaliedoscope8.mp4=1.200=0=1=1=StretchRewind====,
112.000=fabric1.mp4=1.000=0=1=1=StretchRewind====,
116.000=demon3.mp4=1.200=0=0=1=====,
120.000=fabric1r.mp4=1.000=0=1=1=StretchRewind====,
124.000=fire5.mp4=1.000=0=1=1=StretchRewind====,
128.000=fire5.mp4=2.000=0=0=1=====,
136.000=text22.mp4=2.000=0=1=1=StretchRewind====,
144.000=fire4.mp4=2.000=0=1=1=StretchRewind====,
152.000=fire6.mp4=2.000=0=1=1=StretchRewind====,
160.000=fire1.mp4=2.000=0=1=1=StretchRewind====,
168.000=demon3.mp4=2.000=0=1=1=StretchRewind====,
176.000=lava1.mp4=2.000=0=1=1=StretchRewind====,
184.000=fabric1.mp4=2.000=0=1=1=StretchRewind====,
188.000=tunnel14.mp4=2.000=0=1=1=StretchRewind====,
192.000=Yakankou-bg.png=1.000=0=0=1=====,
99999=-nosongbg-=1.000=0=0=0 // don't automatically add -songbackground-
;
#KEYSOUNDS:;
#ATTACKS:
;

//---------------dance-single - ----------------
#NOTEDATA:;
#CHARTNAME:BEGINNER;
#CHARTHASH:404444572;
#STEPSTYPE:dance-single;
#BANNER:;
#DESCRIPTION:;
#CHARTSTYLE:;
#DIFFICULTY:Beginner;
#METER:4;
#METERF:4.000000;
#LASTSECONDHINT:104.536583;
#RADARVALUES:0.180955,0.230414,0.122887,0.075623,0.000000,134.000000,121.000000,13.000000,8.000000,0.000000,0.000000,0.000000,0.000000,0.000000,0.180955,0.230414,0.122887,0.075623,0.000000,134.000000,121.000000,13.000000,8.000000,0.000000,0.000000,0.000000,0.000000,0.000000;
#CREDIT:YonabearCWY;
#DISPLAYBPM:102.000000:205.000000;
#NOTES:
1000
0000
1000
0000
,
0001
0000
0001
0000
,
0010
0000
0010
0000
,
0100
0000
0100
0000
,
1001
1000
1000
0000
,
0001
0001
0001
0000
,
0110
0000
0110
0000
,
1001
0000
1001
0000
,
0100
0000
0100
0000
,
0010
0000
0010
0000
,
1000
0000
1000
0000
,
0001
0000
0001
0000
,
1000
1000
1000
1000
,
1000
0000
0001
0001
,
0001
0000
0010
0000
,
0100
0000
1000
0000
,
0001
0001
0001
0001
,
0001
0000
1000
1000
,
1001
0000
1001
0000
,
0110
0000
0110
0000
,
1000
1000
1000
0000
,
1000
0000
1000
0000
,
0001
0001
0001
0000
,
0001
0000
0001
0000
,
0100
0100
0100
0000
,
0100
0000
0100
0000
,
0010
0010
0010
0000
,
0010
0000
0010
0000
,
2002
3003
0100
0100
,
0220
0330
0010
0010
,
2002
0000
3003
0000
,
0001
1000
0001
1000
,
0001
0000
0001
0000
,
1000
0000
1000
0000
,
0010
0000
0010
0000
,
0100
0000
0100
0000
,
0001
0000
0001
0000
,
0010
0000
0010
0000
,
0100
1000
0100
0000
,
0010
0001
0010
0000
,
0001
1000
0001
0000
,
0100
0010
0100
0000
,
0001
0000
0001
0000
,
1000
0000
1000
0000
,
0010
1000
0010
0000
,
0100
0001
0100
0000
,
0001
0010
0001
0000
,
1000
0010
1000
0001
,
2002
0000
0000
3003
;

//---------------dance-single - ----------------
#NOTEDATA:;
#CHARTNAME:BASIC;
#CHARTHASH:3289704822;
#STEPSTYPE:dance-single;
#BANNER:;
#DESCRIPTION:;
#CHARTSTYLE:;
#DIFFICULTY:Easy;
#METER:8;
#METERF:8.000000;
#LASTSECONDHINT:104.536583;
#RADARVALUES:0.365961,0.368662,0.245775,0.094529,0.023632,271.000000,245.000000,26.000000,10.000000,0.000000,0.000000,0.000000,0.000000,0.000000,0.365961,0.368662,0.245775,0.094529,0.023632,271.000000,245.000000,26.000000,10.000000,0.000000,0.000000,0.000000,0.000000,0.000000;
#CREDIT:YonabearCWY;
#DISPLAYBPM:102.000000:205.000000;
#NOTES:
0100
0011
1000
0101
,
0010
1100
0001
1010
,
0100
0001
0100
0000
0010
0000
1001
0000
,
0010
0100
0010
0000
1000
0000
0110
0000
,
0001
0000
0010
0000
0001
0100
0001
0000
,
1000
0000
0010
0000
1000
0100
1000
0000
,
0010
0010
0010
0000
0100
0100
0100
0000
,
0010
0000
1000
0000
0001
0010
0100
1000
,
0001
0010
0000
0010
0000
0010
0000
0010
,
0100
1000
0000
1000
0000
1000
0001
0100
,
0010
0100
0000
0100
0000
0100
0000
0100
,
0010
1010
0100
0001
0011
0000
1001
0000
,
1000
0010
2000
0000
0100
0100
3100
0000
,
0010
0000
0000
0100
0000
0000
1000
0000
0002
0000
0010
0000
0013
0000
0000
0000
,
0001
0100
1000
0100
0001
0000
1000
0000
,
0100
0010
0001
0010
0100
0000
1001
0000
,
0010
0100
0002
0000
1000
1000
1003
0000
,
0100
0000
0000
0010
0000
0000
0100
0000
2000
0000
0001
0000
3001
0000
1000
0000
,
0001
0010
1000
0010
0001
0000
0100
0000
,
0010
1000
0100
0010
0100
0000
1001
0000
,
0120
0000
0000
0100
0000
0000
0100
0000
0000
0000
1000
0000
1030
0000
0000
0000
,
0010
0000
0100
0000
0001
0010
0011
0000
,
2001
0000
0000
0001
0000
0000
0001
0000
0000
0000
0010
0000
3010
0000
0000
0000
,
1000
0100
0010
0001
0200
0010
0310
0000
,
0100
0000
0001
0000
0010
0100
1000
0000
,
0100
0000
0010
0000
0001
1000
1001
0000
,
0010
0000
0100
0000
0001
1000
0010
0000
,
1000
0000
0000
0010
0000
0000
0100
0000
0000
0000
0001
0000
0001
0000
0100
0000
,
0110
0000
0010
1000
0001
0000
0001
0010
,
0100
0000
0100
1000
0010
0000
0010
0100
,
0001
0000
0001
1000
0010
0000
0010
0100
,
0001
0010
0100
0000
1000
0100
0010
0110
,
0010
0001
0010
0001
,
1000
0010
1000
0010
,
0110
0100
1000
0100
,
0001
0100
0010
1001
,
0010
0001
0100
0010
,
1000
0000
0100
0000
0010
0000
0001
1000
,
0000
0000
0100
0010
0000
0100
0010
0000
,
0100
0020
0000
0000
0000
0000
0030
0000
,
0011
0100
0010
1000
,
1100
1000
0010
0100
,
0101
0001
0010
0001
,
1001
1000
0010
1000
,
0110
0001
0010
0100
,
1010
0100
0010
0100
,
0001
0001
0010
0010
,
0100
1000
0100
0000
0010
0001
0010
0000
,
2002
0000
0000
3003
;

//---------------dance-single - ----------------
#NOTEDATA:;
#CHARTNAME:DIFFICULT;
#CHARTHASH:736675718;
#STEPSTYPE:dance-single;
#BANNER:;
#DESCRIPTION:;
#CHARTSTYLE:;
#DIFFICULTY:Medium;
#METER:11;
#METERF:11.000000;
#LASTSECONDHINT:104.536583;
#RADARVALUES:0.502352,0.529951,0.368662,0.226869,0.297765,372.000000,333.000000,39.000000,24.000000,0.000000,0.000000,0.000000,0.000000,0.000000,0.502352,0.529951,0.368662,0.226869,0.297765,372.000000,333.000000,39.000000,24.000000,0.000000,0.000000,0.000000,0.000000,0.000000;
#CREDIT:YonabearCWY;
#DISPLAYBPM:102.000000:205.000000;
#NOTES:
1000
0000
0000
0001
0010
0000
0000
0000
0100
0000
0000
1000
0010
0000
0000
0000
,
0100
0000
0000
0001
1000
0000
0000
0000
0010
0000
0100
0000
0001
0000
0000
0000
,
0010
0000
0000
0100
1000
0000
0000
0000
0010
0000
0000
0100
0001
0000
0000
0000
,
0100
0010
1000
0000
0001
0100
0110
0000
,
0010
1000
0100
1000
0100
0010
0001
0100
,
0001
0000
0100
0001
0010
0000
0001
0000
1000
0000
0010
1000
0002
0000
0000
0000
,
0103
0000
0001
1000
0020
0000
0000
0000
0031
0000
0010
0100
2000
0000
0000
0000
,
3100
0000
0001
0010
0200
0000
0010
0000
0310
0000
1000
0001
0020
0000
0100
0000
,
0130
1000
0001
0010
0001
0100
0010
1000
,
0100
0000
1000
0010
1000
0000
0001
0100
0001
0000
0010
0000
0010
0100
1000
0000
,
0010
0100
0001
0100
0010
1000
0100
0010
,
0001
1000
0020
0000
0000
0000
0130
0001
2000
0000
0000
0000
0000
0000
0000
0000
,
3010
0000
1000
0000
1100
0000
0000
0010
0000
0100
0000
0001
0100
0000
0010
0000
,
0110
0000
0000
1100
0000
0000
1000
0000
0001
0000
0010
0000
0010
0000
0110
0000
,
2000
0000
0000
3002
0000
0000
0203
0000
0000
0320
0000
0000
0130
0000
0010
0000
,
1000
0100
1000
0000
0010
0000
0100
0001
0100
0001
0000
0001
0010
0000
0001
0000
,
0101
0000
0001
0000
1000
0000
0000
0100
0000
1000
0000
0010
0100
0000
0001
0000
,
0011
0000
0000
1001
0000
0000
1000
0000
0010
0000
0100
0000
0100
0000
1001
0000
,
0020
0000
0000
2030
0000
0000
3200
0000
0000
0320
0000
0000
0031
0000
0100
0000
,
0010
1000
0000
1000
0001
0000
0001
0100
0000
0100
0010
0000
1000
0001
1000
0000
,
0110
0000
0000
1100
0000
0000
0201
0000
0000
0000
0010
0000
0310
0000
0000
0000
,
0100
0001
0010
0100
1000
0001
0110
0000
,
0011
0000
0000
1001
0000
0000
2100
0000
0000
0000
0001
0000
3001
0000
0000
0000
,
0100
0010
1000
0100
0010
0001
0001
0100
,
0001
0010
0001
0000
1000
0000
0010
0000
1000
0100
1000
0000
0001
0000
0100
0000
,
0001
0000
0010
0001
0010
0000
0001
0000
0100
0000
0010
1000
0020
0000
0000
0000
,
0130
0010
0100
0000
0001
0000
0010
0000
0100
1000
0001
0000
0100
0000
0010
0000
,
1000
0000
0010
0100
0010
0000
0100
0000
0001
0000
0010
0100
1000
0100
0010
0000
,
0012
0000
0000
1000
0000
1000
0000
0000
0100
0000
0000
1000
0000
1003
0000
0000
,
2010
0000
0000
0100
0000
0100
0000
0000
0001
0000
0000
0100
0000
3100
0000
0000
,
0120
0000
0000
1000
0000
1000
0000
0000
0001
0000
0000
0100
0000
0130
0000
0010
,
0100
0000
0001
0000
0010
0000
0100
1000
0100
0000
1000
0000
0010
0100
0010
0000
,
1001
0001
0011
0001
,
0101
0001
1001
0001
,
0010
0001
0010
0000
0001
0100
0001
0000
,
1000
0010
1000
0000
0010
0100
0010
0000
,
1010
0010
0011
0010
,
0110
0000
0010
0000
1010
0000
0010
0200
,
0000
0000
0301
0100
0000
1000
0100
0000
,
0010
0001
0000
0010
0100
0000
1001
0000
,
0100
0001
0100
0000
1100
0000
0110
0000
,
0010
0001
0010
0000
0110
0000
0011
0000
,
1000
0001
0000
0001
0010
0000
0010
0100
,
0000
0100
1000
0000
1001
0000
0110
0000
,
1000
0010
1000
0000
0101
0000
0011
0000
,
0010
0100
0010
0000
1010
0000
1100
0000
,
1000
0001
1000
0000
0010
0100
0010
0000
,
1000
0100
0010
0001
0100
0010
1000
0100
,
2002
0000
0000
3003
;

//---------------dance-single - ----------------
#NOTEDATA:;
#CHARTNAME:EXPERT;
#CHARTHASH:2344607894;
#STEPSTYPE:dance-single;
#BANNER:;
#DESCRIPTION:;
#CHARTSTYLE:;
#DIFFICULTY:Hard;
#METER:13;
#METERF:13.000000;
#LASTSECONDHINT:104.536583;
#RADARVALUES:0.611736,0.668200,0.226869,0.113434,0.453738,453.000000,429.000000,24.000000,12.000000,0.000000,0.000000,0.000000,0.000000,0.000000,0.611736,0.668200,0.226869,0.113434,0.453738,453.000000,429.000000,24.000000,12.000000,0.000000,0.000000,0.000000,0.000000,0.000000;
#CREDIT:YonabearCWY;
#DISPLAYBPM:102.000000:205.000000;
#NOTES:
0100
0000
0000
0001
0010
0000
0100
0000
1000
0000
0000
0010
0100
0000
1000
0000
,
0100
0000
0000
0001
1000
0000
0010
0000
0100
0000
0000
1000
0100
0000
0010
0000
,
0100
0000
0000
0001
0010
0000
0001
0000
1000
0000
0000
0100
0010
0000
0100
0000
,
1000
0000
0000
0010
0100
0000
0001
0000
0010
0001
0000
1000
0001
0000
0001
0000
,
1000
0000
0010
0000
1000
0000
0001
0000
0100
0000
0001
0010
0000
0010
0001
0000
,
0100
0000
0010
0000
1000
0000
0100
0000
0010
0000
0001
0010
0100
0000
0100
0000
,
0010
0000
0100
1000
0001
0000
0001
0000
1000
0000
0010
1000
0010
1000
0100
0000
,
0010
0000
0100
0001
0100
0000
1000
0000
0100
0000
0010
0001
0010
0001
1000
0000
,
0100
0000
1000
0000
0010
0000
0001
0000
0010
0000
0100
0001
0100
0001
0010
0000
,
0100
0000
1000
0000
0001
0000
0100
0000
1000
0100
0002
0000
0100
0000
0103
0000
,
0010
0000
0001
0000
1000
0000
0100
0000
0010
0000
0100
1000
0100
1000
0001
0000
,
0010
0001
0200
0000
0000
0000
0310
1000
0001
1000
0000
1000
0010
0000
0010
0000
,
0100
0000
0000
0100
0001
0000
0001
0000
0010
0000
0000
0001
1000
0000
1000
0000
,
0010
0000
0100
0010
0000
0100
0000
0001
1000
0000
0110
0000
0110
0000
0001
0000
,
0010
0100
0000
0100
0001
0000
1000
0010
0000
0010
0100
0000
0001
1000
0001
0000
,
1000
0000
0100
0000
0010
0001
0010
0001
0100
0001
0000
0001
1000
0000
1000
0000
,
2010
0000
0100
0001
0010
0000
0001
0100
,
3020
0000
0000
1000
0000
0100
0000
0130
0010
0000
1001
0000
2001
0000
0000
0000
,
3010
1000
0100
1000
0001
0000
0010
0001
1000
0001
0100
0000
0010
0000
0110
0000
,
0001
0010
1000
0010
0001
0000
0100
0010
1000
0100
0010
0001
0010
0100
1000
0000
,
1001
0000
0000
0101
0000
0000
1020
0000
0000
0000
0001
0000
0031
0000
0000
0100
,
0010
0000
1000
0010
0001
0000
0010
0000
1000
0000
1100
0000
0101
0000
0000
0000
,
0010
0000
0001
0000
0100
0001
0100
0000
0001
0000
0110
0000
1100
0000
0000
0100
,
0010
0000
0010
0001
0000
0001
1000
0000
0010
0000
1010
0000
0011
0000
0000
0000
,
0100
0010
0100
0010
1000
0000
0010
0100
0001
0100
0001
0000
0010
0000
0100
1000
,
0100
0010
0100
0010
0001
0000
1000
0010
1000
0100
0000
0100
0010
0000
0000
0000
,
0001
0010
0001
0000
1000
0010
1000
0000
0001
0100
0001
0000
1000
0100
1000
0000
,
0010
0000
0100
0001
0000
0001
0010
0000
0100
1000
0100
0000
1000
0000
0010
0000
,
0120
0000
0000
1000
0000
0100
0000
1030
0100
0000
0100
0010
0000
0010
0001
0000
,
0021
0000
0000
0001
0000
0100
0000
0031
0010
0000
0010
0100
0000
0100
1000
0000
,
0110
0000
1000
0001
0000
0001
0010
0000
1100
0000
0100
0010
0000
0010
0001
0000
,
0100
0000
0001
0000
0010
0100
0010
0100
0000
1000
0100
0000
0010
0001
1001
0000
,
0010
1000
0010
0100
0001
0010
0001
1000
,
0100
0001
0100
1000
0001
0100
1000
0100
,
0001
0010
0001
0100
0010
1000
0010
0001
,
0010
1000
0001
0010
1000
0010
0001
0000
,
0100
0001
0010
0100
1000
0010
0100
0001
,
1000
0100
0010
0001
0100
0010
0100
0001
,
0012
0000
0100
0100
0000
1000
1003
0000
,
2010
0010
0000
0001
3001
1000
1100
0000
,
0010
1000
0100
0001
0010
0001
0100
1000
,
0010
0100
0001
0010
0100
0001
0100
0010
,
0001
1000
0010
0001
0100
0001
0010
1000
,
0010
0100
0001
1000
0100
0010
1000
0001
,
0100
1000
0100
0010
0001
0100
0010
0001
,
1000
0001
0010
1000
0100
0010
0001
0100
,
0010
1000
0010
0100
0001
0010
0001
1000
,
0010
0010
0100
0100
0001
0001
1000
1000
,
2002
0000
0000
3003
;

//---------------dance-single - ----------------
#NOTEDATA:;
#CHARTNAME:CHALLENGE;
#CHARTHASH:4084222039;
#STEPSTYPE:dance-single;
#BANNER:;
#DESCRIPTION:;
#CHARTSTYLE:;
#DIFFICULTY:Challenge;
#METER:16;
#METERF:16.000000;
#LASTSECONDHINT:104.536583;
#RADARVALUES:0.781887,0.852531,0.397020,0.113434,0.912202,579.000000,537.000000,42.000000,12.000000,0.000000,0.000000,0.000000,0.000000,0.000000,0.781887,0.852531,0.397020,0.113434,0.912202,579.000000,537.000000,42.000000,12.000000,0.000000,0.000000,0.000000,0.000000,0.000000;
#CREDIT:YonabearCWY;
#DISPLAYBPM:102.000000:205.000000;
#NOTES:
// measure 0
1000
0010
0000
0010
1000
0000
0001
0100
0001
0100
0000
0100
0001
0000
1000
0010
,  // measure 1
0100
0010
0000
0010
0100
0000
0001
0100
0010
1000
0000
1000
0001
0000
0100
0001
,  // measure 2
0010
0001
0000
0001
0100
0000
0010
1000
0100
1000
0000
1000
0001
0000
0010
0100
,  // measure 3
0010
0000
0001
0000
0000
0000
0001
0000
0010
0000
0000
0000
0100
0000
1000
0000
0100
0000
0010
0000
0100
0000
1000
0000
0001
0000
0000
0000
1000
0000
0100
0010
,  // measure 4
0001
0000
0100
0010
1000
0000
0010
0100
0010
0000
0100
0001
0010
0100
0001
0100
,  // measure 5
0010
0000
0001
1000
0010
0001
0010
1000
0001
0000
0100
0010
1000
0100
0010
0000
,  // measure 6
0101
0000
0010
0100
1000
0100
0100
0000
1010
0000
0100
0010
0001
1000
1000
0100
,  // measure 7
0010
0000
0100
0001
0100
0000
0001
1000
0010
1000
0000
0100
0010
0000
0011
0000
,  // measure 8
1000
0100
0001
1000
0010
0001
1000
0100
0001
0100
1000
0001
0010
0100
0100
0000
,  // measure 9
1100
0000
0001
0010
1000
0100
1000
0010
0001
0100
0010
0000
0110
0000
1001
0000
,  // measure 10
0101
0000
0001
0010
1000
0001
0100
1000
0001
0010
1000
0010
0001
1000
0100
0010
,  // measure 11
0010
0001
0100
1000
0000
0010
1000
0100
0001
0100
0000
0001
0010
0000
0110
0000
,  // measure 12
2001
0000
0010
0000
0100
0100
0000
0010
0000
0100
0000
0010
3010
1000
0001
0010
,  // measure 13
0100
0000
0010
0001
0000
0001
0010
0000
0100
0000
1100
0000
0101
0000
0110
0000
,  // measure 14
0001
0001
0000
1000
1000
0000
0010
0010
0000
0100
0100
0001
0010
0100
1000
0100
,  // measure 15
0010
0001
0100
1000
0010
1000
0100
0001
0010
0001
0100
1000
0100
0001
1000
0000
,  // measure 16
1002
0000
0010
0000
0100
0100
0000
0010
0000
0100
0000
0010
0013
0001
1000
0100
,  // measure 17
0021
0000
0000
0031
0000
0010
1000
0000
0010
0000
0011
0000
1010
0000
0110
0000
,  // measure 18
0001
0001
0010
0100
0010
0000
1000
1000
0010
0001
0010
0000
0100
1000
0100
0010
,  // measure 19
0001
0000
0100
0000
0001
0000
1000
0000
0100
1000
0100
0010
0001
0000
1000
0001
0100
0000
0010
0100
0001
0000
0100
0010
0001
0000
0010
0000
0100
0000
1000
0000
,  // measure 20
2001
0000
0000
3010
1010
0000
1000
0000
1100
0000
1000
0000
1002
0000
0000
0013
,  // measure 21
0001
0010
0100
1000
0100
0000
0010
0001
1000
0000
0110
0000
0201
0000
0000
0000
,  // measure 22
0310
0100
0000
0100
1000
0000
0100
0010
0001
0000
0011
0000
0120
0000
0000
1030
,  // measure 23
0010
0100
0001
0010
0100
0000
1000
0100
0001
0100
1000
0000
0110
0000
0011
0000
,  // measure 24
0101
1000
0100
0001
1000
0010
0001
0010
1000
1000
1000
0000
0011
0000
1010
0000
,  // measure 25
0100
0020
0000
1000
1000
0000
0001
0031
0010
0000
0110
0000
1100
0000
0000
0000
,  // measure 26
1010
0001
1000
0010
0001
1000
0100
0001
0100
1000
1000
1000
0010
0100
0001
0010
,  // measure 27
0110
0000
0000
0000
1000
0000
1000
0000
0000
0000
0010
0000
0010
0000
0000
0000
0100
0001
0010
0001
0010
0000
0100
0000
1000
0000
0010
0000
0100
0000
0001
0000
,  // measure 28
0012
0000
1000
1000
0000
0100
0000
1000
1000
0000
0010
0013
0000
1001
0000
0100
,  // measure 29
2100
0000
0010
0010
0000
0100
0000
0001
0001
0000
0100
3100
0000
1100
0000
0010
,  // measure 30
0011
0000
1000
0010
0001
0010
0000
0100
1000
0000
0100
0010
0000
0100
0000
0001
,  // measure 31
0010
0000
0100
0000
1000
0000
0001
0000
0010
0000
0001
0100
0010
0000
1000
0010
0001
0000
0010
1000
0100
0000
0010
0000
0100
0000
1000
0000
1001
0000
0000
0000
,  // measure 32
0010
0001
0100
1000
0100
0001
0010
0001
,  // measure 33
1000
0000
0100
0000
0001
0000
1000
0000
0001
0000
0100
0000
1000
0001
1000
0000
,  // measure 34
0010
0001
1000
0001
0010
1000
0100
0010
,  // measure 35
0001
0000
0100
0000
1000
0000
0001
0000
0010
0000
0100
0000
0001
1000
0001
1000
,  // measure 36
0010
1000
0100
0001
0010
0001
0100
1000
,  // measure 37
0010
0100
0010
1000
0100
0010
1000
0010
,  // measure 38
0100
1000
0001
0001
1000
0010
0010
0100
,  // measure 39
0001
0001
0010
0100
1000
0001
0110
0000
,  // measure 40
0100
1000
0001
0010
1000
0100
1000
0010
,  // measure 41
0001
0000
0100
0000
0010
0000
0100
0000
0001
0000
0010
0000
1000
0001
1000
0000
,  // measure 42
0010
0001
0100
0010
1000
0010
0100
1000
,  // measure 43
0001
0000
1000
0000
0100
0000
0010
0000
1000
0000
0001
0000
1000
0100
0010
0100
,  // measure 44
0010
0001
0100
1000
0001
1000
0100
0001
,  // measure 45
1000
0010
0001
1000
0001
0010
1000
0001
,  // measure 46
0100
1000
0100
0000
0001
0000
0010
0000
0100
0010
0100
0010
1000
0000
0010
0000
,  // measure 47
0100
0000
0100
0000
1000
0000
1000
0000
0001
0000
0001
0000
0010
0100
1000
0100
,  // measure 48
2002
0000
0000
3003
;

//---------------dance-double - ----------------
#NOTEDATA:;
#CHARTNAME:BASIC;
#CHARTHASH:4063695417;
#STEPSTYPE:dance-double;
#BANNER:;
#DESCRIPTION:;
#CHARTSTYLE:;
#DIFFICULTY:Easy;
#METER:8;
#METERF:8.000000;
#LASTSECONDHINT:104.536583;
#RADARVALUES:0.326799,0.345620,0.198510,0.075623,0.009453,242.000000,221.000000,21.000000,8.000000,0.000000,0.000000,0.000000,0.000000,0.000000,0.326799,0.345620,0.198510,0.075623,0.009453,242.000000,221.000000,21.000000,8.000000,0.000000,0.000000,0.000000,0.000000,0.000000;
#CREDIT:YonabearCWY;
#DISPLAYBPM:102.000000:205.000000;
#NOTES:
00100000
00000000
00100000
00000000
01000000
00000000
10000000
00010000
,
00100000
00000000
00100000
00000000
00001000
00010000
00011000
00000000
,
00010000
00000000
00010000
00000000
00000100
00000000
00001000
00000010
,
00000100
00000000
00000100
00000000
00000001
00000000
00000001
00001000
,
00000110
00000000
00000100
00000000
00000010
00001000
00000010
00000000
,
00010000
00000000
00000100
00000000
00010000
00001000
00010000
00000000
,
00101000
00000000
00010000
01000000
10000000
00000000
01100000
00000000
,
01000000
00010000
00100000
00000000
00101000
00000000
00001000
00010000
,
00000100
00000100
00000000
00001000
00000000
00000010
00000000
00001000
,
00000000
00000001
00000000
00000100
00000010
00000100
00000000
00000000
,
00011000
00010000
00000000
00001000
00000000
00100000
00000000
01000000
,
00000000
00100000
00000000
01000000
00000000
10000000
00010000
10000000
,
00020000
00100000
00100000
01000000
,
01030000
00000000
00010000
00100000
00001000
00000000
00010000
00000100
,
00002000
00000010
00000010
00000100
,
00003100
00000000
00001000
00000100
00010000
00001000
00011000
00000000
,
02100000
00000000
00010000
00010000
00010000
00000000
10000000
10000000
,
13000000
00000000
01000000
00000000
00010000
00100000
00001000
00000000
,
00000210
00000000
00001000
00001000
00001000
00000000
00000001
00000001
,
00000301
00000000
00000100
00010000
00001000
00100000
00001000
00000000
,
01010000
00000000
11000000
00000000
00100000
00100000
00100000
00000000
,
01000000
00000000
00010000
00000000
00100000
00001000
00100000
00000000
,
00011000
00000000
00000100
00000000
00000010
00000010
00000010
00000000
,
00000001
00000000
00001000
00000000
00000100
00000010
00000100
00000000
,
00011000
00000000
00000000
00001000
00000000
00000000
00100000
00000000
00010000
00000000
00000000
00000000
01000000
00000000
00000000
00000000
,
10000000
01000000
00010000
00000000
01000000
00000000
10000000
00000000
,
01010000
00000000
00000000
00100000
00000000
00000000
00001000
00000000
00010000
00000000
00000000
00000000
00001000
00000000
00000010
00000000
,
00000001
00000000
00000110
00000000
00001000
00001000
00001000
00000000
,
00012000
00000000
00100000
00100000
00103000
00000000
00001000
00000000
,
00021000
00000000
00000100
00000100
00030100
00000000
00010000
00000000
,
00001000
00010000
00100000
00000000
00010000
00000000
00001000
00000100
,
00000010
00000000
00000100
00000000
00001000
00010000
00001000
00010000
,
00001000
00001000
00000000
00010000
,
00000000
00001000
00000000
00100000
,
00010000
10000000
00000000
10000000
,
00000000
01000000
00000000
00101000
,
00001000
00010000
00000100
00000010
,
00000100
00010000
00000010
00001000
,
00000000
00000010
00000000
00000010
,
00000000
00000100
00000000
00000100
,
00001001
00000001
00001000
00000001
,
00001000
00001000
00000100
00001000
,
00000100
00000100
00010000
00001000
,
00010000
00001000
00100000
00010000
,
00100000
10000000
00100000
00001000
,
00010000
00000100
00000010
00000100
,
00011000
00100000
00010000
01000000
,
10000000
01000000
00010000
00100000
,
00202000
00000000
00000000
00303000
;

//---------------dance-double - ----------------
#NOTEDATA:;
#CHARTNAME:DIFFICULT;
#CHARTHASH:1132801686;
#STEPSTYPE:dance-double;
#BANNER:;
#DESCRIPTION:;
#CHARTSTYLE:;
#DIFFICULTY:Medium;
#METER:11;
#METERF:11.000000;
#LASTSECONDHINT:104.536583;
#RADARVALUES:0.486147,0.506910,0.226869,0.151246,0.236322,360.000000,336.000000,24.000000,16.000000,0.000000,0.000000,0.000000,0.000000,0.000000,0.486147,0.506910,0.226869,0.151246,0.236322,360.000000,336.000000,24.000000,16.000000,0.000000,0.000000,0.000000,0.000000,0.000000;
#CREDIT:YonabearCWY;
#DISPLAYBPM:102.000000:205.000000;
#NOTES:
00100000
00000000
00000000
01000000
10000000
00000000
00000000
01000000
00100000
00000000
00000000
00000000
00010000
00000000
01000000
00000000
,
00010000
00000000
00000000
00100000
00001000
00000000
00000000
00010000
00001000
00000000
00000000
00000000
00000100
00000000
00001000
00000000
,
00000100
00000000
00000000
00000010
00000001
00000000
00000000
00000010
00000100
00000000
00000000
00000000
00000010
00000000
00001000
00000000
,
00000010
00000000
00000000
00001000
00000100
00000000
00000000
00010000
00001000
00000000
00000000
00100000
00010000
00000000
00100000
00000000
,
01000000
00000000
10000000
00000000
00010000
00000000
10000000
00000000
00010000
00000000
00100000
00000000
00010000
00000000
01000000
00010000
,
01000000
00000000
00001000
00000000
00100000
00000000
00001000
00000000
00010000
00000000
00001000
00000000
00010000
00000000
00000100
00001000
,
00000100
00000000
00001000
00000000
00000100
00000000
00000010
00000001
00000010
00000000
00000100
00000000
00001000
00000000
00010000
00001000
,
00010000
00000000
00001000
00000000
00010000
00000000
00100000
01000000
00100000
00000000
01000000
00000000
10000000
00010000
10000000
00000000
,
00100000
00100000
01000000
01000000
00010000
00100000
00001000
00000100
,
00000010
00000000
00000010
00000000
00000100
00000000
00000100
00000000
00000001
00002000
00000002
00000000
00000000
00000000
00003003
00000000
,
00001000
00001000
00000001
00000001
00000100
00000010
00001000
00010000
,
00100000
00010000
20000000
00000000
00000000
00000000
30010000
10000000
02000000
00000000
00000000
00000000
00000000
00000000
03000000
00000000
,
11000000
00000000
00000000
01000000
00000000
00100000
00000000
00000000
00101000
00000000
00000000
00001000
00000000
00010000
00000000
00000000
,
00010100
00000000
00000000
00000100
00000000
00000000
00000010
00000000
00000001
00000000
00001001
00000000
00001001
00000000
00000010
00000000
,
00000100
00010000
00000200
00000000
00010300
00001000
00020000
00000000
,
00031000
00100000
00001000
00010000
00100000
01000000
01100000
01000000
,
02001000
00000000
00000000
00001000
00000000
03001000
00000000
00000000
00012000
00000000
00000000
00010000
00000000
00013000
00000000
00000000
,
00010020
00000000
00000000
00010000
00000000
00010030
00000000
00000000
00000010
00000000
00000110
00000000
00000110
00000000
00001000
00000000
,
00000100
00000001
00000100
00001000
00000010
00001000
00000100
00010000
,
00001000
00100000
00010000
10000000
00100000
00010000
00100000
10000000
,
10010000
00000000
00000000
00100000
01000000
00000000
00100000
00000000
00100000
00000000
10000000
00000000
02010000
00000000
00000000
00000000
,
03001000
00000000
01000000
00100000
01000000
00000000
00010000
00000000
00100000
00001000
00100000
00000000
00001000
00000000
00000000
00000000
,
00010000
00000000
00000100
00000000
00000010
00000100
00000010
00000000
00000100
00000000
00010000
00000000
00001000
00010000
00001000
00000000
,
00010000
00000000
00000100
00001000
00000000
00001000
00000010
00000000
00000100
00000000
00001001
00000000
00001002
00000000
00000000
00000000
,
00000013
00000000
00000000
00000001
00000100
00000000
00000010
00000000
00001000
00000000
00000000
00001000
00000100
00000000
00010000
00000000
,
00001000
00000000
00000000
00100000
00000000
00000000
00010000
00000000
01000000
00000000
10010000
00000000
20010000
00000000
00000000
00000000
,
30100000
10000000
00100000
00000000
10000000
00000000
01000000
00000000
10000000
00010000
10000000
00000000
00100000
00000000
01000000
00000000
,
00010000
00000000
00100000
00001000
00000000
00001000
00010000
00000000
00001000
00010000
00001000
00000000
00010000
00000000
00000100
00000000
,
00000210
00000000
00000000
00001000
00000000
00001300
00000000
00000000
00001000
00000000
00010000
00000000
00100000
00000000
00010000
00000000
,
02010000
00000000
00000000
00010000
00000000
03010000
00000000
00000000
00100000
00000000
00001000
00000000
00010000
00000000
00001000
00000000
,
00000100
00000010
00000100
00010000
00000100
00001000
00010000
00100000
,
01000000
00000000
00100000
01000000
00100000
00000000
01000000
00000000
00010000
00000000
00100000
00010000
00100000
00000000
00001000
00000000
,
00010000
00000100
00010000
00000000
00000010
00001000
00000010
00000000
,
00001000
00000100
00000001
00000100
,
00001000
00000100
00001000
00000100
00010000
00000000
00001000
00000000
,
00010000
00001000
00010000
00001000
00100000
00000000
00010000
00000000
,
01000000
10000000
01000000
00010000
,
01000000
00000000
00001000
00000000
00010000
00000000
00001000
00010000
,
00000000
00000000
00001000
00000010
00000000
00001000
00000010
00000000
,
00001000
00000010
00000000
00000001
00000010
00000000
00001001
00000000
,
00000010
00000100
00000010
00000000
00000100
00000000
00011000
00000000
,
00100000
00010000
00100000
00000000
00010000
00000000
01000000
00000000
,
10000000
01000000
10000000
00000000
01000000
00000000
00101000
00000000
,
00001000
00010000
00001000
00010000
00000100
00000000
00001010
00000000
,
00000100
00000001
00000100
00000000
00000010
00000000
00001000
00000000
,
00000010
00010000
00000010
00000000
00010000
00000000
00001000
00000000
,
00100000
00001000
00100000
00000000
00010000
01000000
00010000
00000000
,
00100000
00000000
01000000
00000000
10000000
01000000
00100000
00010000
,
20020000
00000000
00000000
30030000
;

//---------------dance-double - ----------------
#NOTEDATA:;
#CHARTNAME:EXPERT;
#CHARTHASH:3118998757;
#STEPSTYPE:dance-double;
#BANNER:;
#DESCRIPTION:;
#CHARTSTYLE:;
#DIFFICULTY:Hard;
#METER:13;
#METERF:13.000000;
#LASTSECONDHINT:104.536583;
#RADARVALUES:0.607684,0.599075,0.189057,0.085076,0.430105,450.000000,430.000000,20.000000,9.000000,0.000000,0.000000,0.000000,0.000000,0.000000,0.607684,0.599075,0.189057,0.085076,0.430105,450.000000,430.000000,20.000000,9.000000,0.000000,0.000000,0.000000,0.000000,0.000000;
#CREDIT:YonabearCWY;
#DISPLAYBPM:102.000000:205.000000;
#NOTES:
00001000
00000000
00000100
00010000
00000100
00000000
00010000
00000000
00001000
00000000
00100000
00001000
00100000
00000000
00001000
00000000
,
00010000
00000000
00001000
00100000
00001000
00000000
01000000
00000000
00100000
00000000
00010000
00001000
00010000
00000000
00001000
00000000
,
00000100
00000000
00000010
00000100
00000010
00000000
00000100
00000000
00001000
00000000
00010000
00001000
00010000
00000000
00001000
00000000
,
00010000
00000000
00100000
01000000
00100000
00000000
01000000
00000000
10000000
00000000
01000000
00010000
01000000
00010000
01000000
00000000
,
10010000
00000000
00000000
00100000
01000000
00000000
00000000
00010000
00100000
00000000
00000000
00001000
00010000
00001000
00000100
00000000
,
00000110
00000000
00000000
00001000
00000100
00000000
00000000
00000100
00000010
00000000
00000000
00010000
00000100
00000000
00001000
00000000
,
00000010
00000000
00000000
00000100
00001000
00000000
00010000
00000000
00001000
00000000
00000000
00010000
00001000
00000000
01000000
00000000
,
00010000
00000000
00000000
00010000
00100000
00000000
01000000
00000000
10000000
00000000
00010000
01000000
00010000
01000000
00000000
00100000
,
10000000
01000000
00100000
00001000
00100000
00010000
00100000
00001000
,
00010000
00000000
00000100
00000000
00000010
00000000
00000100
00000000
00010000
00001000
00010000
00000000
00000100
00000000
00001000
00000000
,
00010000
01000000
00010000
00001000
00000100
00010000
00001000
00000100
,
00000010
00001000
00000010
00001000
00000000
00000000
00001000
00000100
00001000
00000100
00000000
00000100
00010000
00000000
00011000
00000000
,
00001000
00100000
00010000
01000000
10000000
01000000
00010000
00100000
,
00101000
00000000
00001000
00010000
00000000
00010000
00001000
00000000
00020000
00000000
00000100
00000000
00030100
00000000
00001000
00000000
,
00000010
00001000
00000000
00001000
00000100
00000000
00000010
00000001
00000000
00000001
00001000
00000000
00000010
00000100
00000010
00000000
,
00001000
00000100
00001000
00000100
00010000
00001000
00010000
00000000
00001000
00100000
00000000
00100000
00001000
00000000
00010000
00000000
,
00011000
00001000
00000100
00000001
00000100
00001000
00010000
00001000
,
00001100
00000000
00001000
00010000
00000000
00010000
00001000
00000000
00200000
00000000
00001000
00000000
00301000
00000000
00100000
00000000
,
00010000
00000000
01000000
00000000
10000000
00000000
01000000
00100000
01000000
00000000
00100000
00000000
10000000
00010000
10000000
00000000
,
00100000
00000000
01000000
00000000
00010000
00000000
00100000
00000000
00001000
00010000
00001000
00010000
00000100
00010000
00000100
00000000
,
00001100
00000000
00000000
00000010
00000001
00000000
00001000
00000000
00001000
00000000
00000010
00000000
00010000
00000000
00000100
00000000
,
00001100
00000000
00000000
00011000
00000000
00000000
01010000
00000000
01000000
10000000
01000000
00000000
10000000
00000000
00010000
00000000
,
00110000
00000000
00100000
00001000
00000000
00001000
00010000
00000000
00000100
00010000
00000100
00000000
00001000
00000000
00000100
00000000
,
00000010
00000001
00000010
00000001
00001000
00000000
00000100
00001000
00000010
00001000
00000010
00000000
00020010
00000000
00000000
00000000
,
00031000
00100000
00000000
00100000
00010000
00000000
10000000
00100000
00000000
00100000
01000000
00000000
00100000
01000000
00100000
00000000
,
02000000
00000000
00000000
00010000
00000000
00000000
00010000
00000000
03010000
00000000
01000000
00000000
00100000
00000000
00010000
00000000
,
00001000
00010000
00000000
00010000
00000100
00000000
00001000
00000010
00000000
00000010
00000100
00000000
00000001
00000000
00000010
00000000
,
00000100
00001000
00000100
00000010
00000100
00000000
00001000
00000100
00000001
00000100
00001000
00000000
00000100
00000000
00010000
00000000
,
00012000
00000000
00000000
00100000
00000000
00100000
00000000
00103000
00001000
00000000
00001000
00010000
00000000
00010000
00001000
00000000
,
00021000
00000000
00000000
00000100
00000000
00000100
00000000
00030100
00010000
00000000
00010000
00001000
00000000
00001000
00010000
00000000
,
00001000
00100000
01000000
00100000
00000000
01000000
10000000
00000000
01000000
00100000
00010000
00100000
00000000
00001000
00010000
00000000
,
00000100
00010000
00000100
00000010
00000100
00000000
00001000
00000000
00000001
00000010
00001000
00000010
00000001
00000000
00000101
00000000
,
00000010
00000100
00001000
00010000
00001000
00000010
00001000
00010000
,
00001000
00100000
00001000
01000000
00010000
00001000
00010000
00000000
,
01000000
00010000
00001000
00010000
00100000
01000000
10000000
00100000
,
00010000
00100000
10000000
00010000
01000000
00001000
00101000
00000000
,
00001000
00010000
00000100
00000010
00000100
00000010
00000001
00001000
,
00000010
00000100
00010000
00000100
00010000
00100000
01000000
10000000
,
10020000
00000000
00100000
00100000
00000000
01000000
01000000
00000000
,
10000000
10030000
00000000
01000000
00100000
00001000
00011000
00000000
,
00010000
00000100
00000010
00000001
00001000
00000100
00000010
00010000
,
00000010
00000100
00001000
00010000
00001000
00010000
00100000
01000000
,
00100000
00010000
10000000
01000000
00010000
01000000
10000000
00100000
,
01000000
00010000
00001000
00000100
00000010
00000100
00000101
00000000
,
00000001
00000010
00001000
00000010
00000001
00000100
00000010
00010000
,
00001000
00000100
00001000
00100000
00010000
01000000
00010000
10000000
,
01000000
01000000
10000000
00100000
01000000
01000000
00010000
00100000
,
00001000
00001000
00010000
00010000
00000100
00000100
00000010
00000010
,
00000022
00000000
00000000
00000033
;

//---------------dance-double - ----------------
#NOTEDATA:;
#CHARTNAME:CHALLENGE;
#CHARTHASH:2986918964;
#STEPSTYPE:dance-double;
#BANNER:;
#DESCRIPTION:;
#CHARTSTYLE:;
#DIFFICULTY:Challenge;
#METER:16;
#METERF:16.000000;
#LASTSECONDHINT:104.536583;
#RADARVALUES:0.744076,0.783406,0.283586,0.085076,0.822399,551.000000,521.000000,30.000000,9.000000,0.000000,0.000000,0.000000,0.000000,0.000000,0.744076,0.783406,0.283586,0.085076,0.822399,551.000000,521.000000,30.000000,9.000000,0.000000,0.000000,0.000000,0.000000,0.000000;
#CREDIT:YonabearCWY;
#DISPLAYBPM:102.000000:205.000000;
#NOTES:
00000100
00000010
00001000
00000100
00000010
00000000
00000100
00000000
00010000
00001000
00100000
00010000
00001000
00000000
00010000
00000000
,
00100000
01000000
10000000
00010000
00100000
00000000
01000000
00000000
00100000
00010000
00001000
00000100
00001000
00000000
00000110
00000000
,
00000001
00000010
00000100
00000001
00000100
00000000
00001000
00000000
00000100
00010000
00000100
00001000
00010000
00000000
00100000
00000000
,
00010000
00000000
10000000
00000000
00010000
00000000
01000000
00000000
00100000
00000000
00000000
00000000
01000000
00000000
00000000
00000000
00010000
00000000
00100000
00000000
00001000
00000000
00010000
00000000
00001000
00000000
00000000
00000000
00010000
00000000
00000100
00001000
,
00000010
00000000
00001000
00000010
00000001
00000000
00000110
00000000
00000010
00000000
00001000
00000100
00010000
00000000
00011000
00000000
,
00001000
00000000
00100000
00010000
01000000
00010000
01000000
00100000
10000000
01000000
00100000
00010000
00100000
00000000
00101000
00000000
,
00001000
00010000
01000000
00010000
00001000
00000000
00011000
00000000
00010000
00000100
00000010
00000100
00010000
00000000
00011000
00000000
,
00001000
00000000
00100000
00010000
00100000
00010000
00000000
00001000
00010000
00000000
00001000
00000100
00001000
00000100
00000000
00001000
,
00010000
00100000
10000000
00100000
00010000
00100000
01000000
00100000
00001000
00010000
00001000
00000000
00010000
00000100
00010000
00000000
,
00000100
00001000
00000100
00000001
00000100
00001000
00000100
00001000
00010000
00100000
00010000
00000000
01000000
00000000
00010000
00000000
,
00100000
00000000
00001000
00100000
01000000
00100000
00001000
00010000
00001000
00100000
00001000
00010000
00000100
00010000
00000100
00000000
,
00001000
00000010
00000100
00000020
00000000
00000000
00010030
00000100
00002000
00000100
00000000
00003100
00010000
00000000
00011000
00000000
,
00101000
00000000
00100000
00000000
00010000
00020000
00000000
01000000
00000000
00100000
00000000
01000000
01030000
00000000
01001000
00000000
,
00100000
00010000
00001000
00000100
00010000
00001000
00000100
00000010
00000100
00000000
00001001
00000000
00001001
00000000
00000010
00000000
,
00000100
00000100
00000000
00010000
00010000
00000000
00001000
00001000
00000000
00100000
00100000
00000000
00010000
00100000
01000000
00000000
,
10000000
01000000
00100000
00010000
01000000
00100000
00010000
00001000
00010000
00001000
00000000
00001000
00010000
00000100
00000010
00000000
,
00000110
00000000
00001000
00000000
00000001
00000002
00000000
00000010
00000000
00000100
00000000
00000010
00000013
00000001
00001000
00000000
,
00010010
00000000
00000010
00000100
00001000
00010000
00000100
00001000
00010000
00100000
01100000
00000000
01100000
00000000
00010000
00000000
,
10000000
10000000
00000000
01000000
01000000
00000000
00100000
00100000
00000000
00001000
00001000
00000000
00010000
00001000
00010000
00000000
,
00000100
00000000
00000100
00000000
00000000
00000000
00001000
00000000
00001000
00000000
00000000
00000000
00000010
00000000
00000010
00000000
00000000
00000000
00000100
00000001
00000100
00000000
00000001
00000010
00000001
00000000
00000010
00000000
00000100
00010000
00000100
00010000
,
00000100
00000000
00000000
00010000
00001000
00000000
00100000
00000000
00010000
00000000
00001000
00000000
00010000
00000000
01100000
00000000
,
10010000
00000000
10000000
01000000
00010000
01000000
10000000
00000000
00100000
00000000
01000000
00000000
01010000
00000000
00000000
00000000
,
00011000
00000000
00010000
00000100
00000000
00000100
00000010
00000000
00000100
00001000
00000100
00000000
00000011
00000000
00001100
00000000
,
00000001
00000100
00001000
00000100
00000001
00000000
00001000
00000010
00000001
00000010
00001000
00000000
00000110
00000000
00010010
00000000
,
00010000
00000100
00010000
00000100
00001000
00000100
00001000
00000000
00000100
00010000
00000100
00000000
00010000
00000000
00001000
00000000
,
00100000
00001000
00100000
00001000
00010000
00001000
00010000
00100000
01000000
00000000
10010000
00000000
10010000
00000000
00000000
00000000
,
01000000
00010000
00100000
00000000
00001000
00100000
00010000
00000000
00100000
00001000
00010000
00001000
00010000
00000100
00000010
00000000
,
00000100
00001000
00000000
00001000
00000010
00000000
00000010
00000100
00000000
00000100
00000001
00000010
00000100
00001000
00000100
00010000
,
00001000
00000000
00200000
00001000
00000000
00010000
00000000
00001000
00001000
00000000
00010000
00310000
00000000
00011000
00000000
00001000
,
00000200
00000000
00010000
00010000
00000000
00001000
00000000
00010000
00010000
00000000
00001000
00001300
00000000
00011000
00000000
00001000
,
00100000
01000000
00100000
00001000
00000000
00010000
00001000
00010000
00000100
00000010
00000100
00010000
00000000
00001000
00010000
00001000
,
00100000
00000000
01000000
00000000
10000000
00000000
01000000
00000000
00100000
00000000
00001000
00000000
00010000
00000000
00001000
00010000
00001000
00000000
00010000
00000100
00010000
00000000
00000100
00000000
00001000
00000000
00010000
00100000
00010000
00000000
00001000
00000000
,
00000100
00000010
00000001
00001000
00000010
00000100
00001000
00000100
,
00000010
00000000
00010000
00000000
00000010
00000000
00001000
00000000
00000100
00000000
00010000
00000000
00001000
00010000
00001000
00000000
,
00010000
00001000
00100000
00001000
00010000
00100000
01000000
00100000
,
00001000
00000000
00100000
00000000
01000000
00000000
00001000
00000000
00010000
00000000
00100000
00000000
01000000
00100000
00010000
00100000
,
00010000
00100000
00001000
00010000
00000100
00000010
00000001
00001000
,
00000010
00000100
00001000
00010000
00001000
00100000
00001000
01000000
,
02010000
00000000
10000000
10000000
00000000
00010000
00010000
00000000
,
00100000
03100000
00000000
01000000
00001000
00100000
00101000
00000000
,
00010000
00001000
00010000
00000000
00000100
00000000
00000010
00000000
00000001
00000000
00001000
00000000
00000100
00000000
00000010
00000000
,
00010000
00000000
00001000
00000000
01000000
00000000
00100000
00000000
00010000
00000000
10000000
00000000
00100000
01000000
00100000
01000000
,
00010000
01000000
00100000
00010000
00001000
00100000
00010000
00001000
,
00000100
00000000
00000001
00000000
00000100
00000000
00001000
00000000
00000010
00000000
00000100
00000000
00000001
00001000
00000010
00001000
,
00000010
00010000
00001000
00000100
00010000
00001000
00100000
01000000
,
00010000
00000000
00100000
00000000
01000000
00000000
00010000
00000000
00001000
00000000
00100000
00000000
00010000
00001000
00010000
00000000
,
00001000
00000010
00000001
00000010
00001000
00000001
00000100
00000010
,
00001000
00000000
00001000
00000000
00000100
00000000
00000100
00000000
00010000
00000000
00010000
00000000
00001000
01000000
00001000
01000000
,
02002000
00000000
00000000
03003000
;
