#VERSION:0.83;
#TITLE:Water Melon Woman;
#SUBTITLE:;
#ARTIST:NAKATEK;
#TITLETRANSLIT:;
#SUBTITLETRANSLIT:;
#ARTISTTRANSLIT:;
#GENRE:TECHNO'80;
#ORIGIN:;
#TAGS:;
#CREDIT:YonabearCWY;
#BANNER:Water Melon Woman.png;
#BACKGROUND:Water Melon Woman-bg.png;
#PREVIEWVID:;
#JACKET:Water Melon Woman-jacket.png;
#CDIMAGE:;
#DISCIMAGE:;
#LYRICSPATH:;
#CDTITLE:pop'n music.png;
#MUSIC:Water Melon Woman.ogg;
#OFFSET:-8.340000;
#SAMPLESTART:8.320003;
#SAMPLELENGTH:17.000000;
#SELECTABLE:YES;
#BPMS:0.000000=115.580002
;
#STOPS:;
#DELAYS:;
#WARPS:;
#TIMESIGNATURES:0.000000=4=4
;
#TICKCOUNTS:0.000000=4
;
#COMBOS:0.000000=1
;
#SPEEDS:0.000000=1.000000=0.000000=0
;
#SCROLLS:0.000000=1.000000
;
#FAKES:;
#LABELS:0.000000=Song Start
;
#BGCHANGES:0.000=web1.mp4=1.000=1=0=1===CrossFade==,
6.500=web1.mp4=0.001=0=0=1=====,
7.000=wave2.mp4=0.001=0=0=1=====,
8.000=wave2.mp4=1.000=0=0=1=====,
16.000=wave3.mp4=1.000=0=0=1=====,
22.500=wave3.mp4=0.001=0=0=1=====,
23.000=fireworks2.mp4=0.001=0=0=1=====,
24.000=fireworks2.mp4=1.000=0=0=1=====,
32.000=bubble1.mp4=1.000=0=0=1=====,
38.500=bubble1.mp4=0.001=0=0=1=====,
39.000=wave1.mp4=0.001=0=0=1=====,
40.000=wave1.mp4=1.000=0=0=1=====,
48.000=grid1a.mp4=1.000=0=0=1=====,
54.500=grid1a.mp4=0.001=0=0=1=====,
55.000=pentagon1.mp4=0.001=0=0=1=====,
56.000=pentagon1.mp4=1.000=0=0=1=====,
64.000=circle11.mp4=1.000=0=0=1=====,
70.500=circle11.mp4=0.001=0=0=1=====,
71.000=helix1.mp4=0.100=0=0=1=====,
72.000=helix1.mp4=1.000=0=0=1=====,
80.000=web1.mp4=1.000=0=1=1=StretchRewind====,
86.500=web1.mp4=0.001=0=0=1=====,
87.000=wave2.mp4=0.001=0=1=1=StretchRewind====,
88.000=wave2.mp4=1.000=0=0=1=====,
96.000=wave3.mp4=1.000=0=1=1=StretchRewind====,
102.500=wave3.mp4=0.001=0=0=1=====,
103.000=fireworks1.mp4=0.001=0=0=1=====,
104.000=fireworks1.mp4=1.000=0=0=1=====,
112.000=bubble1.mp4=1.000=0=1=1=StretchRewind====,
118.500=bubble1.mp4=0.001=0=0=1=====,
119.000=wave1.mp4=0.100=0=1=1=StretchRewind====,
120.000=wave1.mp4=1.000=0=0=1=====,
128.000=grid1a.mp4=1.000=0=1=1=StretchRewind====,
134.500=grid1a.mp4=0.001=0=0=1=====,
135.000=pentagon1.mp4=0.001=0=1=1=StretchRewind====,
136.000=pentagon1.mp4=1.000=0=0=1=====,
144.000=circle11.mp4=1.000=0=1=1=StretchRewind====,
150.500=circle11.mp4=0.001=0=0=1=====,
151.000=helix1.mp4=0.001=0=1=1=StretchRewind====,
152.000=helix1.mp4=1.000=0=0=1=====,
160.000=bubble1.mp4=1.000=0=1=1=StretchRewind====,
168.000=fireworks2.mp4=1.000=0=1=1=StretchRewind====,
176.000=lines4.mp4=1.000=0=0=1=====,
191.000=Water Melon Woman-bg.png=1.000=0=0=1=====,
99999=-nosongbg-=1.000=0=0=0 // don't automatically add -songbackground-
;
#KEYSOUNDS:;
#ATTACKS:
;

//---------------dance-single - ----------------
#NOTEDATA:;
#CHARTNAME:BEGINNER;
#CHARTHASH:3729390080;
#STEPSTYPE:dance-single;
#BANNER:;
#DESCRIPTION:;
#CHARTSTYLE:;
#DIFFICULTY:Beginner;
#METER:1;
#METERF:0.000000;
#LASTSECONDHINT:107.492111;
#RADARVALUES:0.000000,0.000000,0.000000,0.000000,0.000000,0.000000,0.000000,0.000000,0.000000,0.000000,0.000000,0.000000,0.000000,0.000000,0.000000,0.000000,0.000000,0.000000,0.000000,0.000000,0.000000,0.000000,0.000000,0.000000,0.000000,0.000000,0.000000,0.000000;
#CREDIT:YonabearCWY;
#NOTES:
0000
1000
0000
1000
,
1000
0000
0000
0000
,
0000
0001
0001
0001
,
0000
0001
0000
0000
,
0000
0001
0000
0001
,
0001
0000
0000
0000
,
0000
1000
1000
1000
,
0000
1000
0000
0000
,
0000
1000
1000
0000
,
0000
1000
1000
0000
,
0000
0001
0001
0000
,
0000
0001
0001
0000
,
0000
0100
0000
0100
,
0100
0000
0000
0000
,
0000
0010
0000
0010
,
0010
0000
0000
0000
,
0000
0100
0000
0100
,
0100
0000
0000
0000
,
0010
0000
0010
0000
,
0010
0000
0000
0000
,
0000
1000
0000
1000
,
1000
0000
0000
0000
,
0000
0001
0000
0001
,
0001
0000
0000
0000
,
0000
0010
0000
0010
,
0010
0000
0000
0000
,
0000
0100
0000
0100
,
0100
0000
0000
0000
,
0000
1000
0000
1000
,
1000
0000
0000
0000
,
0000
0001
0000
0001
,
0001
0000
0000
0000
,
1000
1000
1000
1000
,
0000
0000
0000
0000
,
0001
0001
0001
0001
,
0000
0000
0000
0000
,
0010
0010
0010
0010
,
0000
0000
0000
0000
,
0100
0100
0100
0100
,
0000
0000
0000
0000
,
1000
0000
1000
0000
,
0001
0000
0001
0000
,
0100
0000
0100
0000
,
0010
0000
0010
0000
,
1000
0000
0000
0000
,
1000
0000
0000
0000
,
0001
0000
0000
0000
,
0001
0000
0000
1001
;

//---------------dance-single - ----------------
#NOTEDATA:;
#CHARTNAME:BASIC;
#CHARTHASH:1200124601;
#STEPSTYPE:dance-single;
#BANNER:;
#DESCRIPTION:;
#CHARTSTYLE:;
#DIFFICULTY:Easy;
#METER:4;
#METERF:4.000000;
#LASTSECONDHINT:107.492111;
#RADARVALUES:0.000000,0.000000,0.000000,0.000000,0.000000,0.000000,0.000000,0.000000,0.000000,0.000000,0.000000,0.000000,0.000000,0.000000,0.000000,0.000000,0.000000,0.000000,0.000000,0.000000,0.000000,0.000000,0.000000,0.000000,0.000000,0.000000,0.000000,0.000000;
#CREDIT:YonabearCWY;
#NOTES:
0000
1000
0000
1000
,
0000
0001
0001
0000
,
0000
0001
0000
0001
,
0000
1000
1000
0000
,
0000
0010
0000
0010
,
0000
0100
0100
0000
,
0000
0010
0010
0000
,
0000
0100
0100
0100
,
1001
0000
0000
0000
,
0010
0010
0010
0010
,
0110
0000
0000
0000
,
0100
0100
0100
0100
,
1001
0000
0010
0010
,
0010
0000
0100
0000
,
1001
0000
0100
0100
,
0100
0000
0010
0000
,
0110
0000
1000
1000
,
1000
0000
0001
0000
,
0110
0000
0000
0000
,
0100
0100
0100
0100
,
0100
0000
0100
0000
,
0100
0100
0100
0000
,
0010
0010
0010
0000
,
0010
0000
0010
0000
,
0001
0000
0001
0001
,
0001
0000
1000
1000
,
1000
0000
1000
0000
,
1000
1000
1000
1000
,
1001
0000
0010
0100
,
0110
0000
1000
0001
,
1001
0000
0010
1000
,
1010
0000
0100
0001
,
0101
0000
0001
0001
,
0001
0000
1000
0000
,
0110
0000
0100
0100
,
0110
0000
0010
1000
,
1010
0000
0100
0001
,
0101
0000
0001
0001
,
1000
0000
1000
1000
,
0001
0000
0100
0010
,
0110
0000
0000
0000
,
0010
0000
0000
0000
,
0100
0000
0000
0000
,
0010
0000
0000
0000
,
1000
1000
1000
0000
,
0001
0001
0001
0000
,
0100
0100
0100
0000
,
0010
0010
0010
1001
;

//---------------dance-single - ----------------
#NOTEDATA:;
#CHARTNAME:DIFFICULT;
#CHARTHASH:747931713;
#STEPSTYPE:dance-single;
#BANNER:;
#DESCRIPTION:;
#CHARTSTYLE:;
#DIFFICULTY:Medium;
#METER:6;
#METERF:6.000000;
#LASTSECONDHINT:107.492111;
#RADARVALUES:0.000000,0.000000,0.000000,0.000000,0.000000,0.000000,0.000000,0.000000,0.000000,0.000000,0.000000,0.000000,0.000000,0.000000,0.000000,0.000000,0.000000,0.000000,0.000000,0.000000,0.000000,0.000000,0.000000,0.000000,0.000000,0.000000,0.000000,0.000000;
#CREDIT:YonabearCWY;
#NOTES:
0000
1000
0000
1000
0000
1000
0000
0000
,
0000
0001
0000
0001
0000
0001
0100
0000
,
0000
0010
0000
0010
0000
0010
0000
0000
,
0000
0100
0000
0100
0000
0100
0000
0000
,
0000
0001
0000
0001
0000
0001
0000
0000
,
0000
1000
0000
1000
0000
1000
0010
0000
,
0000
0100
0000
0100
0000
0100
0000
0000
,
0000
0010
0000
0010
0000
0010
0000
0000
,
1000
1000
0001
0001
,
1000
0000
1000
0000
0001
0100
0001
0000
,
0010
0010
1000
1000
,
0010
0010
0001
0001
,
0110
0000
0000
1000
0010
0000
0000
0000
,
0100
0000
0001
0000
0010
0100
0010
0000
,
1001
0000
0000
0100
0001
0000
0000
0000
,
0010
1000
0010
1001
,
0110
0000
0000
0001
1000
0000
0000
0000
,
0001
0000
0100
0000
0010
1000
0010
0000
,
0100
0001
0100
0010
,
1000
0100
0011
1100
,
0000
0001
0000
0001
0000
0001
0000
0000
,
0000
1000
0000
1000
0000
1000
0010
0000
,
0000
0100
0000
0100
0000
0100
0000
0000
,
0000
0010
0000
0010
0000
0010
0000
0000
,
0000
0100
0000
0100
0000
0100
0000
0000
,
0000
0001
0000
0001
0000
0001
0010
0000
,
0000
0010
0000
0010
0000
0010
0000
0000
,
0000
1000
0000
1000
0000
1000
0000
0000
,
0110
0001
0100
0001
,
0010
0000
1000
0000
0010
0001
0010
0000
,
1001
0100
0010
1000
,
0100
0000
1000
0000
0010
0100
0010
0000
,
0101
0000
0000
0001
1000
0000
0000
0000
,
0010
0000
0010
0000
0010
0100
0010
0000
,
1010
0000
0000
0100
0001
0000
0000
0000
,
0010
0001
0010
0000
0001
0000
1001
0000
,
0110
0000
0000
1000
0100
0000
0000
0000
,
0010
0000
0010
0000
0010
0100
0010
0000
,
0100
0000
1000
0001
1000
0000
0010
0000
,
0100
0001
0011
1100
,
1001
0000
0000
1000
0001
0000
0000
0000
,
1001
0000
0000
0001
1000
0000
0000
0000
,
0110
0000
0000
0100
0010
0000
0000
0000
,
0110
0000
0000
0010
0000
0000
0110
0000
,
1001
0000
0000
1000
0010
0000
0000
0000
,
1001
0000
0000
0001
0100
0000
0000
0000
,
0110
0000
0000
0010
1000
0000
0000
0000
,
0110
0000
0000
0100
0001
0000
1001
0000
;

//---------------dance-single - ----------------
#NOTEDATA:;
#CHARTNAME:EXPERT;
#CHARTHASH:3785854646;
#STEPSTYPE:dance-single;
#BANNER:;
#DESCRIPTION:;
#CHARTSTYLE:;
#DIFFICULTY:Hard;
#METER:8;
#METERF:8.000000;
#LASTSECONDHINT:107.492111;
#RADARVALUES:0.000000,0.000000,0.000000,0.000000,0.000000,0.000000,0.000000,0.000000,0.000000,0.000000,0.000000,0.000000,0.000000,0.000000,0.000000,0.000000,0.000000,0.000000,0.000000,0.000000,0.000000,0.000000,0.000000,0.000000,0.000000,0.000000,0.000000,0.000000;
#CREDIT:YonabearCWY;
#NOTES:
0000
1000
0000
1000
0000
1000
0001
0000
,
0000
0010
0000
0010
0000
0110
0110
0000
,
0000
1000
0000
1000
0000
1000
0001
1000
,
0000
0001
0000
0001
0000
0001
1000
0000
,
0000
0100
0000
0100
0000
0100
0010
0000
,
0000
0001
0000
0001
0000
1001
1001
0000
,
0000
0010
0000
0010
0000
0010
1000
0010
,
0000
0100
0000
0100
0000
0100
0001
0100
,
0010
0000
0010
0000
0100
0001
0100
0000
,
0010
0000
0010
1000
0001
0000
0100
0010
,
1000
0000
1000
0000
0001
0100
0010
0000
,
0010
1000
0100
0001
0100
0010
0010
0000
,
1001
0000
0000
1000
0010
1000
1000
0010
,
1000
0000
0010
0001
0010
0100
0010
0000
,
1001
0000
0000
0010
0001
0001
0010
0001
,
0010
0000
0100
1000
0001
0000
1001
0000
,
0110
0000
0000
1000
0001
0001
1000
0001
,
1000
0000
0010
0100
0010
0000
0001
0000
,
0010
0100
1000
0100
,
0001
0000
1000
0100
0001
0100
1000
0000
,
0000
0010
0000
0010
0000
0010
1000
0000
,
0000
0001
0000
0001
0000
0101
0101
0000
,
0000
0010
0000
0010
0000
0010
0001
1000
,
0000
0010
0000
0010
0000
0010
1000
0001
,
0000
0100
0000
0100
0000
0100
0010
0000
,
0000
1000
0000
1000
0000
1010
1010
0000
,
0000
0001
0000
0001
0000
0001
0100
1000
,
0000
1000
0000
1000
0000
1000
0100
0001
,
0100
0000
0100
0000
0001
0100
0010
0000
,
0100
0000
0100
0000
0010
1000
0100
0000
,
1000
0000
1000
0000
0001
0010
0100
0010
,
1000
0000
1000
0000
0010
0100
0010
0001
,
0011
0000
0001
1000
1000
0001
1000
0000
,
0100
0000
0001
0000
0100
1000
1000
0000
,
0110
0000
0100
0001
0001
0010
0001
0000
,
0010
0001
1000
0100
0010
0100
1000
0000
,
0110
0000
0001
1000
1000
0001
1000
0000
,
0010
0100
0100
0010
0001
0010
0010
0100
,
1000
0000
0100
0010
0000
0100
0000
0001
,
1000
0000
0010
0100
0010
0000
1001
0000
,
0110
0000
0000
1000
0010
0000
0000
0000
,
0110
0000
0000
0001
0100
0000
0000
0000
,
1001
0000
0000
0100
0001
0000
0000
0000
,
1001
0000
0010
0100
1000
0000
0110
0000
,
0011
0000
1000
0010
1000
0010
0010
0000
,
1100
0000
0001
0100
0001
0010
0010
0000
,
1001
0000
0100
0010
0100
0010
0010
0000
,
1001
0000
0010
0100
1000
0100
1001
0000
;

//---------------dance-single - ----------------
#NOTEDATA:;
#CHARTNAME:CHALLENGE;
#CHARTHASH:3468349282;
#STEPSTYPE:dance-single;
#BANNER:;
#DESCRIPTION:;
#CHARTSTYLE:;
#DIFFICULTY:Challenge;
#METER:13;
#METERF:13.000000;
#LASTSECONDHINT:107.492111;
#RADARVALUES:0.561039,0.542614,0.300000,0.127273,0.340909,432.000000,399.000000,33.000000,14.000000,0.000000,0.000000,0.000000,0.000000,0.000000,0.561039,0.542614,0.300000,0.127273,0.340909,432.000000,399.000000,33.000000,14.000000,0.000000,0.000000,0.000000,0.000000,0.000000;
#CREDIT:YonabearCWY;
#NOTES:
// measure 0
1000
0000
0000
0000
0000
0001
0100
0000
0000
0010
0000
0000
0001
0000
0000
0010
0000
0000
0100
0000
0000
0000
0000
0000
,  // measure 1
0001
0000
0000
1000
0000
0000
0000
0000
0000
0000
1000
0000
0001
0000
0000
0000
0000
0000
0100
0000
0000
0000
0000
0000
0010
0000
0000
0000
0000
0000
1100
0000
0000
0000
0000
0000
0012
0000
0000
0000
0000
0000
0000
0000
0000
0000
0000
0000
,  // measure 2
0103
0000
0000
0100
0000
0000
0100
0000
0000
0000
0000
0010
0000
0000
1000
0100
0000
0000
1000
0000
0000
0001
0000
0000
,  // measure 3
0010
0000
0000
0010
0000
0000
0001
0000
0000
0000
0000
0100
0000
0000
0001
1000
0000
0000
0010
0000
0000
0001
0000
0000
,  // measure 4
0110
0000
0000
0000
0000
0001
1000
0000
0000
0100
0000
0000
0010
0000
0000
0100
0000
0000
1000
0000
0000
0000
0000
0000
,  // measure 5
0001
0000
0000
0100
0000
0000
0000
0000
0000
0000
0100
0000
0001
0000
0000
0000
0000
0000
1000
0000
0000
0000
0000
0000
0010
0000
0000
0000
0000
0000
0101
0000
0000
0000
0000
0000
2010
0000
0000
0000
0000
0000
0000
0000
0000
0000
0000
0000
,  // measure 6
3100
0000
0000
0100
0000
0000
0100
0000
0000
0000
0000
1000
0000
0000
0001
0010
0000
0000
0001
0000
0000
0100
0000
0000
,  // measure 7
0010
0000
0000
0001
0000
0000
0001
0000
0000
0010
0000
0100
0000
0000
0010
1000
0000
0000
0010
0000
0000
0100
0001
1000
,  // measure 8
0002
0000
0000
0000
0000
0000
0010
0000
0000
0000
0000
0000
0100
0000
0000
0000
0000
0000
0013
0000
0000
0001
1000
0100
,  // measure 9
2000
0000
3010
0100
0001
0110
1002
0000
,  // measure 10
0203
0010
1000
0001
,  // measure 11
0320
0000
0130
0010
0001
0010
0010
0100
,  // measure 12
0010
1000
1000
0001
0100
0001
1001
0000
,  // measure 13
0100
0100
0100
0100
1000
1001
0110
0000
,  // measure 14
0010
0001
0001
1000
0010
0010
1100
0000
,  // measure 15
0010
0000
0000
0010
0000
0000
0010
0000
0000
0010
0000
0000
0001
0000
0000
1000
0100
0010
0001
0000
0000
0001
0000
0000
,  // measure 16
0100
0010
0010
1000
0001
0100
0110
0000
,  // measure 17
0100
0100
0100
0100
0010
1001
0210
0000
,  // measure 18
0301
0100
1000
0100
0001
1000
0010
0001
,  // measure 19
0010
0000
0000
1000
0000
0000
0100
0000
0000
1000
0010
1000
0001
0000
0000
0100
0000
0000
0100
0000
0000
0001
0000
0000
,  // measure 20
0011
0000
0000
0000
0000
1000
0100
0000
0000
0010
0000
0000
0100
0000
0000
1000
0000
0000
0001
0000
0000
0000
0000
0000
,  // measure 21
0100
0000
0000
0001
0000
0000
0000
0000
0000
0000
0001
0000
0010
0000
0000
0000
0000
0000
0001
0000
0000
0000
0000
0000
1000
0000
0000
0000
0000
0000
0101
0000
0000
0000
0000
0000
2010
0000
0000
0000
0000
0000
0000
0000
0000
0000
0000
0000
,  // measure 22
3001
0000
0000
0001
0000
0000
0001
0000
0000
0001
0000
1000
0000
0000
0010
0100
0000
0000
0010
0000
0000
0001
0000
0000
,  // measure 23
0010
0000
0000
0010
0000
0000
0010
0000
0000
0010
0000
0100
0000
0000
0100
1000
0000
0000
0100
0000
0010
0001
0000
0000
,  // measure 24
1010
0000
0000
0000
0000
0100
0001
0000
0000
0010
0000
0000
0100
0000
0000
0010
0000
0000
0001
0000
0000
0000
0000
0000
,  // measure 25
1000
0000
0000
0010
0000
0000
0000
0000
0000
0000
0010
0000
0100
0000
0000
0000
0000
0000
0001
0000
0000
0000
0000
0000
0010
0000
0000
0000
0000
0000
1100
0000
0000
0000
0000
0000
0012
0000
0000
0000
0000
0000
0000
0000
0000
0000
0000
0000
,  // measure 26
1003
0000
0000
1000
0000
0000
1000
0000
0000
1000
0000
0010
0000
0000
0010
0100
0000
0000
0001
0000
0000
0010
0000
0000
,  // measure 27
0100
0000
0000
0100
0000
0000
0100
0000
0000
0100
0000
0001
0000
0000
1000
0010
0000
0000
0100
0000
0000
1000
0001
0010
,  // measure 28
0002
0000
0000
0000
0000
0000
0103
0000
0000
0010
0000
0000
0001
0000
0000
0010
0000
0000
0100
0000
0000
1000
0100
0010
,  // measure 29
0200
0000
0310
1000
0001
0110
2001
0000
,  // measure 30
3200
0000
1300
0100
0010
0100
1000
0100
,  // measure 31
0001
0000
0100
1000
0010
0000
0010
0000
0100
0000
0001
0000
0001
0000
1000
0000
,  // measure 32
0010
0100
0100
0001
0010
0010
1001
0000
,  // measure 33
0100
0010
0001
0010
0100
1010
0101
0010
,  // measure 34
0100
1000
1000
0001
0100
0100
1001
0000
,  // measure 35
0100
0000
0000
0100
0000
0000
0100
0000
0000
0100
0000
0000
0010
0000
0000
0000
0000
0010
0001
0000
0000
1000
0010
1000
,  // measure 36
0001
0100
0100
0001
1000
1000
0110
0000
,  // measure 37
0001
0001
0001
0001
1000
0110
1001
0000
,  // measure 38
0100
0010
0001
1000
0010
0100
0001
0010
,  // measure 39
0100
0001
0100
1000
1100
0001
1001
0000
,  // measure 40
0010
1000
0010
1000
0001
0000
1000
0010
1000
0010
0100
0000
0000
0000
0000
0000
,  // measure 41
0001
0100
0010
0100
0010
0000
0100
0010
0100
0010
1000
0000
0000
0000
0000
0000
,  // measure 42
0100
0010
0100
0010
0001
0000
0010
0100
0010
0100
1000
0000
0000
0000
0000
0000
,  // measure 43
0001
0100
1000
0100
0001
0000
1000
0100
0001
0100
1000
0000
0110
0000
0000
0000
,  // measure 44
0001
0010
0001
0000
1000
0000
0010
0100
0010
0001
0010
0000
0100
0000
0010
0000
,  // measure 45
1000
0100
1000
0001
1000
0000
0100
1000
0100
0010
0100
0000
1000
0000
0010
0000
,  // measure 46
0100
0001
0100
0000
0010
0000
1000
0100
0001
0100
1000
0000
0010
0000
0100
0000
,  // measure 47
0001
0010
1000
0010
0001
0000
1000
0010
0001
0010
1000
0000
1001
0000
0000
0000
;
