#TITLE:笑ってぽん;
#SUBTITLE:;
#ARTIST:Rina Genga;
#TITLETRANSLIT:Waratte PON;
#SUBTITLETRANSLIT:;
#ARTISTTRANSLIT:;
#GENRE:SMILING POP;
#CREDIT:YonabearCWY;
#BANNER:Warrate PON.png;
#BACKGROUND:Warrate PON-bg.png;
#LYRICSPATH:;
#CDTITLE:cdtitle.png;
#MUSIC:Warrate PON.ogg;
#OFFSET:-7.380000;
#SAMPLESTART:72.936798;
#SAMPLELENGTH:15.000000;
#SELECTABLE:YES;
#BPMS:0.000000=131.770004
;
#STOPS:
;
#BGCHANGES:0.000=ferriswheel1.mp4=1.600=1=0=1===CrossFade==,
8.000=bear2.mp4=1.000=0=0=1=====,
14.000=star2.mp4=0.100=0=0=1=====,
15.000=star2b.mp4=0.100=0=0=1=====,
15.750=star2b.mp4=1.000=0=0=1=====,
16.000=WP.mp4=1.000=1=0=1===CrossFade==,
43.500=bear5.mp4=1.000=1=0=1===CrossFade==,
48.000=ddr4.mp4=1.000=0=0=1=====,
64.000=beads3.mp4=1.000=0=0=1=====,
72.000=balloon1.mp4=1.000=0=0=1=====,
76.000=candy2.mp4=1.200=0=0=1=====,
80.000=dots3.mp4=1.000=0=0=1=====,
88.000=star1.mp4=1.000=0=0=1=====,
96.000=bear4.mp4=1.000=0=0=1=====,
104.000=star1r.mp4=1.000=0=0=1=====,
112.000=rainbow1.mp4=1.000=0=0=1=====,
128.000=sun3.mp4=1.000=0=0=1=====,
135.500=star1.mp4=1.400=0=1=1=StretchRewind====,
139.500=star1r.mp4=1.400=0=1=1=StretchRewind====,
142.000=star1r.mp4=0.100=0=0=1=====,
143.000=star2a.mp4=0.100=0=0=1=====,
143.750=star2a.mp4=1.000=0=0=1=====,
144.000=WP2.mp4=1.000=1=0=1===CrossFade==,
176.000=ferriswheel1.mp4=1.600=1=0=1===CrossFade==,
184.000=balloon1.mp4=1.000=0=1=1=StretchRewind====,
192.000=heart2.mp4=1.400=0=1=1=StretchRewind====,
200.000=ddr4.mp4=1.400=0=1=1=StretchRewind====,
208.000=heart8.mp4=1.000=0=0=1=====,
211.500=Warrate PON-bg.png=1.000=0=0=1=====,
99999=-nosongbg-=1.000=0=0=0 // don't automatically add -songbackground-
;
#KEYSOUNDS:;
#ATTACKS:;

//---------------dance-single - ----------------
#NOTES:
     dance-single:
     BEGINNER:
     Beginner:
     2:
     0.000000,0.000000,0.000000,0.000000,0.000000,0.000000,0.000000,0.000000,0.000000,0.000000,0.000000,0.000000,0.000000,0.000000,0.000000,0.000000,0.000000,0.000000,0.000000,0.000000,0.000000,0.000000:
0000
1000
0000
1000
,
0000
0001
0000
0001
,
0100
0000
0100
0000
,
0010
0000
0010
0010
,
0000
0000
0000
1000
,
1000
0000
0000
0001
,
0001
0000
0000
0010
,
0010
0000
0000
0100
,
0100
0000
0000
0010
,
0010
0000
0000
0100
,
0100
0000
0000
0000
0000
0000
0000
2002
,
0000
0000
0000
3003
,
0000
0100
0000
0100
,
0000
0100
0000
0000
,
0000
0010
0000
0010
,
0000
0010
0000
0000
,
0000
1000
0000
1000
,
0000
1000
0000
0000
,
0000
0001
0000
0001
,
0000
0001
0000
0000
,
0000
1000
1000
0000
,
1000
0000
0000
0000
,
0000
0001
0001
0000
,
0001
0000
0000
0000
,
0000
0010
0010
0000
,
0010
0000
0000
0000
,
0000
0100
0100
0000
,
0100
0000
0000
0000
,
0000
1000
0000
1000
,
0000
1000
0000
0000
,
0000
0100
0000
0100
,
0000
0100
0000
0000
,
0000
0010
0000
0010
,
0000
0010
0000
0000
,
0000
0001
0000
0001
,
0000
0001
0000
0000
,
0000
1000
1000
1000
,
0000
0000
0100
0000
,
0000
0010
0010
0010
,
0000
0000
0001
0000
,
0000
0001
0001
0001
,
0000
0000
0010
0000
,
0000
0100
0100
0100
,
0000
0000
1000
1000
,
0000
0010
0000
0010
,
0000
0010
0010
0010
,
0000
0100
0000
0100
,
0000
0100
0100
0100
,
0000
0001
0000
0001
,
0000
0001
0001
0001
,
0000
0000
1000
0000
1000
0000
0000
2002
,
0000
0000
0000
3003
,
0000
0000
0000
0000
0000
0000
0000
0110
;

//---------------dance-single - ----------------
#NOTES:
     dance-single:
     BASIC:
     Easy:
     6:
     0.000000,0.000000,0.000000,0.000000,0.000000,0.000000,0.000000,0.000000,0.000000,0.000000,0.000000,0.000000,0.000000,0.000000,0.000000,0.000000,0.000000,0.000000,0.000000,0.000000,0.000000,0.000000:
0000
1000
0000
1000
,
0000
1000
0000
1000
,
0001
0001
0001
0001
,
1000
1000
1001
0110
,
0000
0100
0000
0100
0000
0100
0000
0000
,
0010
0010
0010
0000
,
0000
1000
0000
1000
0000
1000
0000
0000
,
0001
0001
0001
0000
,
0000
0010
0000
0010
0000
0010
0000
0000
,
0100
0100
0100
0000
,
0000
1000
0000
1000
0000
1000
0000
2002
,
0000
0000
0000
3003
,
0000
0100
0000
0100
,
0000
0010
0000
0010
,
0000
1000
0000
1000
,
0000
0001
0000
0001
,
0000
0010
0010
0000
,
0000
0100
0100
0000
,
0000
0001
0001
0000
,
0000
1000
1000
0000
,
0010
0010
0010
0010
,
0010
0000
0010
0000
,
0100
0100
0100
0100
,
0100
0000
1001
0000
,
1000
1000
1000
1000
,
1000
0000
0100
0000
,
0001
0001
0001
0001
,
0001
0000
0110
0000
,
0000
1000
0000
1000
,
0000
0100
0000
0100
,
0000
0010
0000
0010
,
0000
0001
0000
0001
,
0000
0100
0000
0100
,
0000
0010
0000
0010
,
0000
1000
0000
1000
,
1001
0010
0010
0010
,
1001
0000
0100
0000
,
0100
0000
0010
0010
,
0010
0000
0000
1000
0000
0000
0100
0000
,
1000
0001
0100
0001
,
0110
0000
0001
0000
,
0001
0000
1000
1000
,
1000
0000
0000
0010
0000
0000
0100
0000
,
0001
0010
1100
0011
,
0000
1000
0000
1000
0000
1000
0000
0000
,
0001
0001
0001
0000
,
0000
0010
0000
0010
0000
0010
0000
0000
,
0100
0100
0100
0000
,
0000
1000
0000
1000
0000
0010
0000
0000
,
0100
0100
0001
0000
,
0000
0010
0000
0010
0000
0100
0000
2002
,
0000
0000
0000
3003
,
0000
0200
0000
0000
0000
0300
0000
1001
;

//---------------dance-single - ----------------
#NOTES:
     dance-single:
     DIFFICULT:
     Medium:
     8:
     0.000000,0.000000,0.000000,0.000000,0.000000,0.000000,0.000000,0.000000,0.000000,0.000000,0.000000,0.000000,0.000000,0.000000,0.000000,0.000000,0.000000,0.000000,0.000000,0.000000,0.000000,0.000000:
0000
0100
0100
0000
1000
0001
1000
0000
,
0010
0000
0010
0000
0100
0000
0100
0010
,
0000
0100
0000
0001
0000
0100
0000
0010
,
0000
1000
0000
0001
1001
0000
0110
0000
,
0000
1000
1000
0000
0001
0000
0100
0000
,
0001
0001
0000
0010
0001
0000
0100
0000
,
0000
0010
0010
0000
0100
0001
0100
0000
,
0001
0000
0000
0001
0000
0000
1000
0000
0100
0000
0000
0000
1001
0000
0000
0000
,
0000
0010
0010
0000
0100
1000
0100
0000
,
1000
1000
0000
0001
0010
0000
0100
0000
,
0000
0010
0010
0000
0001
1000
0001
0000
,
0220
0000
0000
0330
,
0000
1000
1000
0100
,
0021
0000
0000
0031
0100
0000
0010
0000
,
1000
0100
0010
0001
,
1000
0010
1000
0000
0001
0100
0001
0000
,
0000
0010
0010
0100
,
2001
0000
0000
3100
0010
0000
0100
0000
,
1001
0110
0001
0100
,
0001
0000
0010
0000
0100
1000
0100
0000
,
1000
1000
1000
0000
0001
0001
0001
0000
,
1000
1000
0001
0001
,
0100
0100
0100
0000
0010
0010
0010
0000
,
0210
0000
0000
0310
0100
0000
0010
0000
,
1000
0100
1000
0000
0100
0010
0100
0000
,
0010
0001
1000
0000
0001
0000
0100
0000
,
0010
0100
0010
0000
0100
1000
0100
0000
,
0010
0100
0001
0000
0010
0000
0001
0000
,
2000
0010
0100
0010
,
3200
0000
0000
0001
0001
0000
0000
0010
,
0320
0001
1000
0100
,
0032
1000
0010
1000
,
0023
0100
0001
1000
,
0230
0000
0000
0001
0001
0000
0000
1000
,
2300
0010
0001
0010
,
3100
1000
0100
1000
0001
0000
0110
0000
,
0000
1000
0000
0010
0000
0100
0000
0001
,
0000
0010
0000
0001
0000
1000
0001
1000
,
0000
0010
0000
0100
0000
0001
0000
0010
,
0000
0100
0000
1000
0100
1000
0100
0010
,
0000
0001
0000
0100
0000
0001
0000
0010
,
0000
0100
0000
0010
0000
0001
1000
0001
,
0210
0000
0001
0000
1000
0000
0301
0100
,
0000
0010
1000
0000
0110
0000
1001
0000
,
0000
0100
0100
0000
0010
0000
1000
0000
,
0001
0001
0000
0100
0001
0000
0010
0001
,
0000
0100
0100
0000
0010
1000
0010
0000
,
0100
0000
0000
0100
0000
0000
0001
0000
1000
0000
0000
0000
0101
0000
0000
0000
,
0000
0010
0010
0000
0100
1000
0100
0000
,
1000
1000
0000
0001
0100
0000
0010
1000
,
0000
0100
0100
0000
0010
0001
0010
2001
,
0000
0000
0000
0000
0010
0000
3100
0100
,
0000
1000
0100
0010
0001
0000
0100
1001
;

//---------------dance-single - ----------------
#NOTES:
     dance-single:
     EXPERT:
     Hard:
     10:
     0.472749,0.452525,0.142640,0.104603,0.066565,348.000000,333.000000,15.000000,11.000000,0.000000,0.000000,0.472749,0.452525,0.142640,0.104603,0.066565,348.000000,333.000000,15.000000,11.000000,0.000000,0.000000:
// measure 0
0110
0000
0001
0000
0010
0100
0000
1000
,  // measure 1
0010
0000
0000
0100
0000
0000
0001
0000
0010
0000
0000
0000
0100
0000
0000
0000
,  // measure 2
0010
0001
1000
0010
0001
0010
1000
0001
,  // measure 3
0100
1000
0100
0001
1001
0000
0110
0000
,  // measure 4
0000
1000
1000
1000
1000
0100
0010
0001
,  // measure 5
0010
0100
0100
0100
0100
1000
0001
1000
,  // measure 6
0000
0010
0010
0010
0010
0100
0001
0000
,  // measure 7
1000
0000
0000
1000
0000
0000
1000
0000
0001
0000
0010
0000
0001
0000
0101
0000
,  // measure 8
0000
0010
0010
0010
0010
0001
1000
0100
,  // measure 9
0010
0001
0001
0001
0001
0100
0010
1000
,  // measure 10
0000
0100
0100
0100
0100
1000
0001
0210
,  // measure 11
0000
0000
0001
0000
1000
0000
0301
0100
,  // measure 12
0010
0000
0000
0000
0100
0000
0000
0000
0010
0000
0000
1000
0001
0000
0000
0000
,  // measure 13
0010
0000
0001
0100
0010
0000
1000
0100
,  // measure 14
0010
0000
0001
0010
1000
0010
0001
1000
,  // measure 15
0010
0000
0100
0000
0000
0000
0001
0000
0000
0000
0010
0000
0100
0000
1000
0001
,  // measure 16
1000
0000
0000
0000
0001
0000
0000
0000
0100
0000
0000
0010
0001
0000
0000
0000
,  // measure 17
1000
0000
0100
0010
0001
0000
0100
0010
,  // measure 18
1000
0000
0110
0000
0001
0000
0010
0100
,  // measure 19
1000
0000
0002
0000
0000
0000
1000
0000
1000
0000
0000
0000
0013
0000
0001
0100
,  // measure 20
0001
0010
0010
0010
0001
1000
0001
1000
,  // measure 21
0100
1000
1000
1000
0000
0010
0100
0010
,  // measure 22
0001
0010
0000
0100
0001
0100
1000
0000
,  // measure 23
0110
0000
0001
1000
0001
0000
0010
0100
,  // measure 24
0010
0100
0100
0100
1000
0001
0100
0001
,  // measure 25
0010
0001
0001
0001
0100
0010
0000
1000
,  // measure 26
0100
0001
0100
0010
0000
0001
0010
0100
,  // measure 27
1000
0000
0010
0100
0010
0000
0100
0001
,  // measure 28
0200
1000
0001
1000
,  // measure 29
0320
0000
0000
1000
0000
0000
0031
0000
0010
0000
1000
0000
,  // measure 30
0002
0000
1000
1000
1000
0000
0100
0000
,  // measure 31
2003
0000
0010
0010
0010
0000
3100
0000
,  // measure 32
0012
0000
0000
0103
0010
0001
0010
0100
,  // measure 33
2100
0000
0000
3001
1000
0100
1000
0010
,  // measure 34
0000
0010
0000
0100
0000
0100
0001
1000
,  // measure 35
0001
1000
1000
0001
1001
0000
0110
0000
,  // measure 36
0000
1000
0010
1000
0000
0001
0100
0001
,  // measure 37
0000
0010
0100
0010
0000
0100
1000
0001
,  // measure 38
0100
0000
1000
0000
0010
0000
0100
0001
,  // measure 39
0010
0000
0000
0000
0100
0000
1000
0000
0001
1000
0000
0001
1000
0000
0100
0000
,  // measure 40
0000
0010
0001
0010
0000
0100
1000
0100
,  // measure 41
0000
1000
0001
1000
0000
0001
0010
0001
,  // measure 42
0100
0000
0010
0000
0001
0000
0100
0020
,  // measure 43
0100
0000
0100
0030
0110
0000
1001
0000
,  // measure 44
0000
0010
0010
0010
0010
0100
0001
0010
,  // measure 45
0001
0000
1000
0000
1000
0000
1000
0000
1000
0000
0000
0100
0010
0000
0001
0000
,  // measure 46
0000
0100
0100
0100
0100
0010
1000
0001
,  // measure 47
0010
0000
0000
0100
0000
0000
0010
0000
0100
1000
0100
0000
1000
0000
0001
0000
,  // measure 48
0000
0010
0010
0010
0010
0001
0100
0010
,  // measure 49
1000
0100
0100
0100
0100
0010
0001
1000
,  // measure 50
0001
1000
1000
1000
1000
0010
1000
2002
,  // measure 51
0000
0000
0000
0000
0000
0000
0003
0000
3010
0100
0010
0000
1000
0000
0100
0000
,  // measure 52
0000
0010
0010
0010
0010
0000
0100
1001
;
