#VERSION:0.83;
#TITLE:Twilight Tour Medley;
#SUBTITLE:;
#ARTIST:Nicolas Tremblay;
#TITLETRANSLIT:;
#SUBTITLETRANSLIT:;
#ARTISTTRANSLIT:;
#GENRE:NITRO EGYPT;
#ORIGIN:;
#TAGS:;
#CREDIT:YonabearCWY;
#BANNER:Twilight Tour Medley.png;
#BACKGROUND:Twilight Tour Medley-bg.png;
#PREVIEWVID:;
#JACKET:Twilight Tour Medley-jacket.png;
#CDIMAGE:;
#DISCIMAGE:;
#LYRICSPATH:;
#CDTITLE:cdtitle.png;
#MUSIC:Twilight Tour Medley.ogg;
#OFFSET:-1.500000;
#SAMPLESTART:13.488000;
#SAMPLELENGTH:15.000000;
#SELECTABLE:YES;
#BPMS:0.000000=160.000000
;
#STOPS:;
#DELAYS:;
#WARPS:;
#TIMESIGNATURES:0.000000=4=4
;
#TICKCOUNTS:0.000000=4
;
#COMBOS:0.000000=1
;
#SPEEDS:0.000000=1.000000=0.000000=0
;
#SCROLLS:0.000000=1.000000
;
#FAKES:;
#LABELS:0.000000=Song Start
;
#BGCHANGES:0.000=rotation5.mp4=1.000=1=0=1===CrossFade==,
16.000=waterfall1.mp4=1.000=0=0=1=====,
32.000=TT1.mp4=1.000=1=0=1===CrossFade==,
40.000=bagpipe1.mp4=1.000=1=0=1===CrossFade==,
48.000=tunnel2.mp4=1.400=0=0=1=====,
56.000=bagpipe2.mp4=1.000=0=0=1=====,
64.000=TT1.mp4=1.000=1=0=1=Checkerboard2File2x2=symbols2.mp4=CrossFade==,
80.000=symbols3.mp4=1.000=1=0=1=Checkerboard2File2x2=TT1.mp4=CrossFade==,
96.000=TT1.mp4=1.000=1=0=1===CrossFade==,
112.000=rotation5.mp4=1.000=1=1=1=StretchRewind==CrossFade==,
120.000=waterfall1.mp4=1.000=0=0=1=====,
128.000=TT2.mp4=1.000=1=0=1===CrossFade==,
144.000=bagpipe1.mp4=1.000=1=1=1=StretchRewind==CrossFade==,
152.000=bagpipe2.mp4=1.000=0=1=1=StretchRewind====,
160.000=TT2.mp4=1.000=1=0=1=Checkerboard2File2x2=fire4.mp4=CrossFade==,
176.000=fire6.mp4=1.000=1=0=1=Checkerboard2File2x2=TT2.mp4=CrossFade==,
192.000=TT2.mp4=1.000=1=0=1===CrossFade==,
208.000=symbols2.mp4=1.000=1=1=1=StretchRewind==CrossFade==,
216.000=symbols3.mp4=1.000=0=1=1=StretchRewind====,
224.000=fire4.mp4=1.000=0=1=1=StretchRewind====,
232.000=wheel1.mp4=1.000=0=0=1=====,
240.000=fire6.mp4=1.000=0=1=1=StretchRewind====,
248.000=wheel1.mp4=1.000=0=0=1=====,
256.000=Twilight Tour Medley-bg.png=1.000=0=0=1=====,
99999=-nosongbg-=1.000=0=0=0 // don't automatically add -songbackground-
;
#KEYSOUNDS:;
#ATTACKS:
;

//---------------dance-single - ----------------
#NOTEDATA:;
#CHARTNAME:BEGINNER;
#CHARTHASH:1644135919;
#STEPSTYPE:dance-single;
#BANNER:;
#DESCRIPTION:;
#CHARTSTYLE:;
#DIFFICULTY:Beginner;
#METER:4;
#METERF:4.000000;
#LASTSECONDHINT:97.500000;
#RADARVALUES:0.173616,0.244976,0.086124,0.000000,0.000000,127.000000,118.000000,9.000000,0.000000,0.000000,0.000000,0.000000,0.000000,0.000000,0.173616,0.244976,0.086124,0.000000,0.000000,127.000000,118.000000,9.000000,0.000000,0.000000,0.000000,0.000000,0.000000,0.000000;
#CREDIT:YonabearCWY;
#NOTES:
1000
0000
0000
0000
,
1000
0000
0000
0000
,
0001
0001
0001
0000
,
0001
0000
0000
0000
,
1000
0000
0000
0000
,
1000
0000
0000
0000
,
0001
0001
0001
0001
,
0001
0000
0000
0000
,
1000
0000
1000
0000
,
0100
0000
0100
0000
,
0010
0000
0010
0000
,
0001
0000
0001
0000
,
0010
0000
0010
0000
,
0100
0000
0100
0000
,
1000
0000
1000
0000
,
0001
0000
0001
0000
,
1001
0000
0100
0100
,
0100
0000
0100
0000
,
0100
0000
0010
0000
,
0010
0000
0010
0000
,
0110
0000
1000
1000
,
1000
0000
1000
0000
,
1000
0000
0001
0000
,
0001
0000
0001
0000
,
1001
0000
0000
0000
,
0010
0010
0010
0010
,
0010
0000
0010
0000
,
0010
0000
0000
0000
,
0110
0000
0000
0000
,
0100
0100
0100
0100
,
0100
0000
0100
0000
,
0100
0000
0010
0000
,
0010
0010
0010
0000
,
0010
0000
0000
0000
,
0100
0100
0100
0000
,
0100
0000
0000
0000
,
0001
0001
0001
0000
,
0001
0000
0000
0000
,
1000
1000
1000
0000
,
1000
0000
0000
0000
,
0010
0000
0000
0000
,
0010
0000
0000
0000
,
0100
0000
0000
0000
,
0100
0000
0000
0000
,
0001
0001
0001
0000
,
0001
0000
0000
0000
,
1000
1000
1000
0000
,
1000
0000
0000
0000
,
0010
0000
0000
0000
,
0010
0000
0000
0000
,
0100
0000
0000
0000
,
0100
0000
0000
0000
,
0001
0000
0000
0000
,
0001
0000
0000
0000
,
1000
0000
0000
0000
,
1000
0000
0000
0000
,
0110
0000
0000
0000
,
0100
0100
0100
0000
,
0110
0000
0000
0000
,
0010
0010
0010
0000
,
1001
0000
0000
0000
,
1000
1000
1000
0000
,
1001
0000
0000
0000
,
0001
0001
0001
0001
,
1001
0000
0000
0000
;

//---------------dance-single - ----------------
#NOTEDATA:;
#CHARTNAME:BASIC;
#CHARTHASH:1866548789;
#STEPSTYPE:dance-single;
#BANNER:;
#DESCRIPTION:;
#CHARTSTYLE:;
#DIFFICULTY:Easy;
#METER:7;
#METERF:7.000000;
#LASTSECONDHINT:97.500000;
#RADARVALUES:0.352700,0.428708,0.220096,0.162679,0.000000,258.000000,235.000000,23.000000,17.000000,0.000000,0.000000,0.000000,0.000000,0.000000,0.352700,0.428708,0.220096,0.162679,0.000000,258.000000,235.000000,23.000000,17.000000,0.000000,0.000000,0.000000,0.000000,0.000000;
#CREDIT:YonabearCWY;
#NOTES:
1000
1000
1000
0000
,
0001
0001
0001
0000
,
0100
0100
0100
0000
,
0010
0010
0010
0000
,
1000
0000
1000
0000
1000
0010
0000
0000
,
0100
0000
0100
0000
0100
0001
0000
0000
,
0010
0000
0010
0000
0010
0100
0000
1000
,
0001
0000
0001
0000
0001
1000
0001
0000
,
0110
0001
0110
1000
,
1100
0001
0101
1000
,
2010
0000
0000
3001
0100
0000
0001
0000
,
0012
0000
0000
1003
0010
0000
1000
0000
,
1100
0010
0110
0100
,
0011
1000
1001
0001
,
0120
0000
0000
0130
1000
0000
0010
0000
,
0210
0000
0000
0301
0200
0000
0000
0000
,
0310
0100
0010
0000
0100
0000
0010
0000
,
0100
0000
0001
1000
,
0001
0000
1000
0001
,
1000
0100
0001
0100
,
1000
0001
1000
0000
0010
0000
0100
0000
,
0010
0000
0100
0001
,
0100
0000
0001
0010
,
0001
1000
0010
1000
,
0220
0000
0330
0000
,
0001
0001
1000
1000
,
0001
0010
1100
0000
,
0100
0010
0001
1000
,
0010
0100
0010
0000
0100
0010
0100
0000
,
0010
1000
0100
0010
,
0001
1000
0000
0001
1000
0000
0010
0000
,
0100
0000
0001
0000
0100
0010
0100
0000
,
2002
0000
0000
3003
,
1000
0010
0100
0010
,
0022
0000
0000
0033
,
0001
0000
1000
0100
1000
0000
0010
0000
,
2200
0000
0000
3300
,
0010
0100
0010
0001
,
0220
0000
0000
0330
,
0100
0001
0100
0000
0001
0100
0001
0000
,
0010
0000
0010
0000
,
0100
0100
0010
0010
,
0100
0000
0100
0000
,
1000
1000
0001
0001
,
1000
0010
0100
0010
,
0101
0000
1000
0010
1000
0000
0000
0000
,
0001
0010
0100
1000
,
0110
0000
1000
0001
1000
0000
0000
0000
,
0001
0000
0001
0001
,
1000
0000
1000
1000
,
0010
0000
0010
0010
,
0100
0000
0100
0100
,
0100
0010
0100
0010
,
1000
0001
1000
0001
,
0010
0100
0010
0100
,
1000
0100
0001
0100
,
2100
0000
0000
0000
3010
0100
0010
0000
,
0100
0100
0010
0010
,
0102
0000
0000
0000
1003
0010
1000
0000
,
0001
0001
1000
1000
,
0010
0100
0001
0100
,
0001
1000
0010
1000
,
0010
0100
0001
1000
,
0100
0010
0001
0100
,
1001
0000
0000
0000
;

//---------------dance-single - ----------------
#NOTEDATA:;
#CHARTNAME:DIFFICULT;
#CHARTHASH:1978630068;
#STEPSTYPE:dance-single;
#BANNER:;
#DESCRIPTION:;
#CHARTSTYLE:;
#DIFFICULTY:Medium;
#METER:10;
#METERF:10.000000;
#LASTSECONDHINT:97.500000;
#RADARVALUES:0.582365,0.520574,0.315789,0.133971,0.028708,426.000000,393.000000,33.000000,14.000000,0.000000,0.000000,0.000000,0.000000,0.000000,0.582365,0.520574,0.315789,0.133971,0.028708,426.000000,393.000000,33.000000,14.000000,0.000000,0.000000,0.000000,0.000000,0.000000;
#CREDIT:YonabearCWY;
#NOTES:
1000
0000
0010
0000
0001
0010
1000
0010
,
0001
0000
0010
0100
0010
0000
1001
0000
,
0100
0010
0001
1000
0100
0010
0100
0010
,
0001
1000
0010
0000
0100
0100
0100
0000
,
0001
0000
0100
0000
1000
0100
0001
0100
,
1000
0000
0100
0001
0100
0010
0100
0000
,
0010
1000
0010
1000
0100
0010
0001
0100
,
0001
0100
0020
0000
1030
1000
1001
0000
,
0010
2000
0000
3100
0001
0200
0000
0310
,
1000
0020
0000
1030
0010
0002
0000
1003
,
0001
0100
0110
0000
1000
0010
0110
0000
,
0001
0001
0001
1000
1000
1000
0001
0000
,
0010
0002
0000
0103
1000
0200
0000
0310
,
0001
0020
0000
0130
0001
0200
0000
0310
,
1000
0100
0001
0100
1000
0001
0010
0000
,
0100
1000
0001
0010
1000
0010
0001
0000
,
0010
0100
0000
0010
0100
0100
1000
1000
,
0001
0100
0000
0010
0011
0000
1010
0000
,
0010
0100
0010
0000
1100
0000
0101
0000
,
1000
0100
0001
1000
0010
0001
0100
0000
,
0001
1000
0000
0001
0100
0100
0010
0010
,
1000
0100
0000
0010
1100
0000
1001
0000
,
0100
0010
0100
0000
0011
0000
0110
0000
,
0001
0010
0010
0100
0100
0010
0010
0100
,
1000
0010
0100
0000
0010
1000
0100
0000
,
1000
0001
0010
0100
0010
0001
1000
0010
,
0100
1000
0100
0010
1000
0001
0100
0001
,
0010
0001
0100
0000
0010
1000
0100
0000
,
1000
0100
0000
0010
0001
0100
1000
0000
,
0100
0001
0010
0000
0001
1000
0010
0000
,
0100
0010
0001
0000
0010
0100
1000
0000
,
0100
0010
0100
0001
0010
0010
0010
0000
,
0101
1100
1010
0011
,
0001
1000
0000
0000
0100
0000
0010
0000
0010
0000
0010
0000
0100
0000
0000
0000
,
0011
1001
1100
1001
,
0100
0001
0000
0000
0001
0000
1000
0000
1000
0010
0000
0000
0100
0000
0000
0000
,
0110
1010
0110
0101
,
0010
0100
0000
0000
1000
0000
0100
0000
0100
0000
0100
0000
0010
0000
0000
0000
,
1100
1010
0101
0011
,
0001
1000
0000
0000
0100
0000
0010
0000
0001
0010
0000
0000
0100
0000
0000
0000
,
1000
0100
0001
0100
1000
0100
0010
0100
,
1000
0101
1000
0110
,
0001
0010
1000
0010
0001
0010
0100
0000
,
0011
1000
0101
1000
,
0010
0100
0020
0000
1030
0100
2000
0000
,
3010
0100
0010
0001
0010
0100
0200
0000
,
0301
0010
2000
0000
3010
0001
0200
0000
,
0310
1000
0100
0001
0100
0010
0100
0000
,
0000
1000
0000
1000
0000
0001
0100
0001
,
0000
0010
0000
0010
0000
0010
0100
0000
,
0010
0001
0010
0000
0100
0001
0100
0000
,
0010
0010
0010
0000
0100
0100
0100
0100
,
0000
0010
0000
0010
0000
0100
1000
0100
,
0000
1000
0000
1000
0000
0001
0100
0000
,
0010
0100
0010
0000
1000
0001
1000
0000
,
0001
0001
0001
0000
0010
0010
0010
0010
,
0010
0000
0001
0000
0100
1000
0100
0001
,
0100
0000
0010
0000
1000
0010
0001
0010
,
0100
0000
0010
0000
1000
0100
0010
0100
,
0001
0000
0100
1000
0000
0001
0100
0001
,
1000
0010
0100
0010
0001
0000
0010
0000
,
0100
0010
0100
1000
0100
0001
0001
0000
,
0100
0010
1000
0100
0010
0000
0100
0000
,
1000
0001
0010
0100
1000
0001
0100
0010
,
1001
0000
0000
0000
;

//---------------dance-single - ----------------
#NOTEDATA:;
#CHARTNAME:EXPERT;
#CHARTHASH:109498493;
#STEPSTYPE:dance-single;
#BANNER:;
#DESCRIPTION:;
#CHARTSTYLE:;
#DIFFICULTY:Hard;
#METER:14;
#METERF:14.000000;
#LASTSECONDHINT:97.500000;
#RADARVALUES:0.730007,0.734928,0.028708,0.191388,0.334928,534.000000,531.000000,3.000000,20.000000,0.000000,0.000000,0.000000,0.000000,0.000000,0.730007,0.734928,0.028708,0.191388,0.334928,534.000000,531.000000,3.000000,20.000000,0.000000,0.000000,0.000000,0.000000,0.000000;
#CREDIT:YonabearCWY;
#NOTES:
// measure 0
1000
0010
0100
0000
0001
0100
0010
1000
,  // measure 1
0100
0010
0100
0000
1000
0001
0010
0100
,  // measure 2
0010
0001
1000
0100
0010
0100
1000
0010
,  // measure 3
0100
0001
0200
0000
0000
0000
0000
0000
0310
0000
0100
0000
0100
0000
0000
0000
,  // measure 4
0001
0000
0010
0000
1000
0010
0001
0010
,  // measure 5
1000
0000
0010
0000
0100
0010
0010
0000
,  // measure 6
0100
1000
0100
0001
0100
1000
0010
0001
,  // measure 7
0010
0100
0100
0000
0100
0010
0010
0010
,  // measure 8
1000
0010
2000
0000
0001
0000
0000
0000
3100
0010
0200
0000
1000
0000
0000
0000
,  // measure 9
0310
0001
0020
0000
0100
0000
0000
0000
0031
1000
0002
0000
0010
0000
0000
0000
,  // measure 10
0103
0001
0200
0000
0000
0000
0301
0010
0001
0010
0001
0000
1000
0000
0010
0000
,  // measure 11
1000
0001
2000
0000
0000
0000
3010
1000
0010
1000
0010
0000
1000
0000
0100
0000
,  // measure 12
0010
0001
0020
0000
1000
0000
0000
0000
0130
1000
0200
0000
0001
0000
0000
0000
,  // measure 13
1300
0001
2000
0000
0010
0000
0000
0000
3001
1000
0002
0000
0100
0000
0000
0000
,  // measure 14
0013
0001
0020
0000
0000
0000
0130
1000
0100
1000
0000
0100
0010
0000
0010
0000
,  // measure 15
0001
1000
0002
0000
0000
0000
1003
0100
1000
0100
0000
0010
0001
0000
1000
0000
,  // measure 16
0010
1000
0100
1000
0200
0000
0000
0000
1300
0000
0010
0000
0100
0000
0001
0000
,  // measure 17
0100
0100
0000
0010
1000
0100
0010
0001
,  // measure 18
0001
1000
0000
0001
1000
1000
0010
0010
,  // measure 19
0100
0001
0010
0100
1000
0010
0001
0100
,  // measure 20
1000
0001
0000
0010
0001
0001
0100
0010
,  // measure 21
0010
1000
0000
0100
0010
0001
0001
1000
,  // measure 22
0010
0010
0000
0100
0001
0001
1000
1000
,  // measure 23
0010
0100
0010
0001
0010
1000
0100
0001
,  // measure 24
0010
0100
0010
0100
2000
0000
0000
0000
0100
0000
0100
0000
0000
0000
0001
0000
,  // measure 25
3001
0000
0100
0001
0100
0000
0001
0010
0001
0000
1000
0100
1000
0000
0010
0000
,  // measure 26
0100
0001
0100
0001
0010
0000
0001
0100
1000
0000
0100
0000
0000
0000
0010
0000
,  // measure 27
0100
0001
0100
0001
1000
0000
0010
1000
0010
1000
0002
0000
0000
0000
0100
0000
,  // measure 28
0103
0000
0010
1000
0020
0000
0000
0000
0130
0001
0200
0000
0000
0000
0000
0000
,  // measure 29
0310
1000
0100
1000
0100
0000
0010
0001
2000
0000
0000
0000
0000
0000
0100
0000
,  // measure 30
3100
1000
0000
1000
0010
0000
0100
0001
0200
0000
0000
0000
0000
0000
0001
0000
,  // measure 31
0301
0010
0001
0000
0100
0000
0010
1000
0010
0000
0100
0000
0100
0000
0001
0000
,  // measure 32
1000
0100
0001
0010
1000
0100
0001
0010
,  // measure 33
1000
0100
0000
0100
0010
0000
0001
0000
0010
0000
0100
0000
0100
0000
1000
0000
,  // measure 34
0001
0100
1000
0010
0001
0100
1000
0010
,  // measure 35
0001
0100
0001
0000
1000
0000
0010
0000
1000
0100
1000
0000
0001
0000
0000
0000
,  // measure 36
0100
0010
1000
0100
0010
1000
0100
0010
,  // measure 37
1000
0100
1000
0000
0010
0000
0100
0000
0001
0000
0010
0000
0010
0000
1000
0000
,  // measure 38
0010
0100
0001
0010
0100
0001
0010
0100
,  // measure 39
0001
1000
0001
0000
0100
0000
0010
0000
1000
0010
1000
0000
0100
0000
0000
0000
,  // measure 40
1000
0100
0001
0100
1000
0001
0100
1000
,  // measure 41
0100
0001
0000
0000
0011
0000
0000
0000
0010
1000
0000
0000
1100
0000
0000
0000
,  // measure 42
0001
0010
1000
0010
0001
1000
0010
0001
,  // measure 43
0010
0100
0010
0100
1000
0000
0100
0000
0010
0100
0010
0100
0001
0000
0010
0000
,  // measure 44
0100
1000
0001
0100
1000
0001
0100
1000
,  // measure 45
0100
0010
0000
0010
0100
0000
1000
0000
0001
0000
1000
0000
1000
0000
0001
0000
,  // measure 46
0010
0001
1000
0010
0001
1000
0010
0001
,  // measure 47
0010
0100
0000
0100
0010
0000
0001
0000
1000
0000
0001
0000
0001
0000
0001
0000
,  // measure 48
1000
0010
0100
0001
0010
0100
0100
0100
,  // measure 49
1000
0010
0001
1000
0100
0100
0100
0001
,  // measure 50
1000
0100
1000
0010
0100
0001
0001
0001
,  // measure 51
0100
0010
1000
0100
0001
0001
0001
0100
,  // measure 52
1000
0010
0001
0010
1000
0001
0010
0010
,  // measure 53
0010
0001
1000
0100
0001
0100
0100
0100
,  // measure 54
1000
0001
0010
0100
0010
0010
0010
0001
,  // measure 55
1000
0100
0010
0100
0100
0100
1000
0001
,  // measure 56
0010
0001
0010
0000
0001
0000
0100
0000
1000
0000
0010
0000
0001
0000
1000
0000
,  // measure 57
0100
1000
0100
0000
1000
0000
0010
0000
0001
0000
0100
0000
1000
0000
0001
0000
,  // measure 58
0010
0100
0010
0000
0100
0000
1000
0000
0100
0000
0001
0000
0100
0000
1000
0000
,  // measure 59
0010
0100
0010
0000
0001
0000
0010
0000
1000
0000
0010
0000
0001
0000
0010
0000
,  // measure 60
0100
0001
0001
0010
0001
0001
0001
0001
,  // measure 61
1000
0000
0010
0000
0010
0000
1000
0000
0100
1000
0100
1000
0010
0000
0010
0000
,  // measure 62
0100
0010
0010
0100
0010
0100
0100
0100
,  // measure 63
0100
0001
0001
0010
1000
1000
0010
0001
,  // measure 64
1001
0000
0000
0000
;

//---------------dance-double - ----------------
#NOTEDATA:;
#CHARTNAME:BASIC;
#CHARTHASH:2147483647;
#STEPSTYPE:dance-double;
#BANNER:;
#DESCRIPTION:;
#CHARTSTYLE:;
#DIFFICULTY:Easy;
#METER:5;
#METERF:5.000000;
#LASTSECONDHINT:97.500000;
#RADARVALUES:0.304853,0.306220,0.153110,0.114833,0.000000,223.000000,207.000000,16.000000,12.000000,0.000000,0.000000,0.000000,0.000000,0.000000,0.304853,0.306220,0.153110,0.114833,0.000000,223.000000,207.000000,16.000000,12.000000,0.000000,0.000000,0.000000,0.000000,0.000000;
#CREDIT:YonabearCWY;
#NOTES:
10000000
10000000
10000000
10000000
,
10010000
00000000
00100000
01000000
,
00001000
00000000
00001000
00000000
,
00010000
00000000
00010000
00000010
,
00000100
00000100
00000100
00000100
,
00000110
00000000
00000001
00001000
,
00000010
00000000
00000010
00000000
,
00000100
00000000
00000100
00000000
,
00000010
00010000
00001000
00010000
,
00001000
00100000
00010000
00100000
,
02000000
03000000
01000000
10000000
,
00020000
00030000
00010000
01000000
,
00001000
00100000
00001000
00010000
,
00001000
00010000
00000100
00000010
,
00000002
00000003
00000001
00001000
,
00000020
00000030
00000010
00000100
,
00002002
00003003
00001000
00000010
,
00001000
00000000
00000010
00010000
,
00000010
00000000
00010000
00001000
,
00010000
00001000
00100000
00001000
,
00100000
00000000
00010000
01000000
,
00100000
00000000
10000000
00100000
,
01000000
00100000
00010000
00001000
,
01000000
00001000
00100000
00001000
,
00022000
00033000
00010000
00001000
,
00010000
00000000
00010000
00000000
,
00000010
00001000
00000010
00000000
,
00000100
00000000
00000100
00000000
,
00000001
00000010
00000001
00000000
,
00001000
00000000
00001000
00000000
,
00000010
00000100
00001000
00000000
,
00000100
00010000
00001000
00000000
,
00100000
00100000
00010000
00010000
,
10000000
00000000
10000000
00000000
,
00010000
00010000
01000000
01000000
,
00001000
00001000
00001000
00010000
,
00000100
00000100
00000010
00000010
,
00000001
00001000
00000010
00000000
,
00001000
00001000
00000100
00000100
,
00010000
00001000
00010000
00100000
,
01000000
00100000
10000000
00100000
,
10010000
00000000
10010000
00000000
,
01000000
00001000
00100000
00001000
,
00011000
00000000
00011000
00000000
,
00000100
00000010
00000001
00001000
,
00001001
00000000
00001001
00000000
,
00000010
00000100
00001000
00010000
,
00011000
00000000
00011000
00000000
,
00100000
00000000
01000000
00100000
,
01000000
00000000
00100000
00010000
,
00100000
00100000
00001000
00001000
,
00010000
00000100
00000010
00000100
,
00000110
00000000
00000100
00010000
,
00000100
00000000
00010000
00001000
,
00010000
00010000
00001000
00001000
,
00100000
01000000
10000000
01000000
,
01100000
00000000
10000000
00010000
,
20000000
30000000
00100000
01000000
,
00200000
00300000
01000000
00010000
,
00100000
00001000
00010000
00000100
,
00000101
00000000
00001000
00000010
,
00002000
00003000
00000010
00010000
,
00000020
00000030
00000010
00001000
,
00000100
00010000
00100000
01000000
,
01100000
00000000
00000000
00000000
;

//---------------dance-double - ----------------
#NOTEDATA:;
#CHARTNAME:DIFFICULT;
#CHARTHASH:2147483647;
#STEPSTYPE:dance-double;
#BANNER:;
#DESCRIPTION:;
#CHARTSTYLE:;
#DIFFICULTY:Medium;
#METER:9;
#METERF:9.000000;
#LASTSECONDHINT:97.500000;
#RADARVALUES:0.501709,0.489952,0.191388,0.105263,0.000000,367.000000,347.000000,20.000000,11.000000,0.000000,0.000000,0.000000,0.000000,0.000000,0.501709,0.489952,0.191388,0.105263,0.000000,367.000000,347.000000,20.000000,11.000000,0.000000,0.000000,0.000000,0.000000,0.000000;
#CREDIT:YonabearCWY;
#NOTES:
01000000
00000000
00100000
00000000
00010000
00100000
01000000
00100000
,
00000000
00001000
00000000
00010000
00001000
00000000
00010100
00000000
,
00001000
00000100
00000010
00000001
00000100
00000000
00000010
00010000
,
00002000
00000000
00000000
00013000
00001000
00100000
00001000
00000000
,
00010000
00000000
00100000
00000000
01000000
00100000
01000000
00000000
,
00010000
00100000
00000000
00001000
00100000
00000000
00001000
00000000
,
00010000
00000100
00000010
00000000
00000100
00001000
00000100
00000000
,
00001000
00000001
00002000
00000000
00003010
00000010
00000110
00000000
,
00000100
00000001
00000010
00000000
00000001
00001000
00000010
00000000
,
00000100
00000010
00010000
00000000
00001000
00010000
00000100
00000000
,
00010000
00001000
00010000
00100000
,
01000000
10000000
01000000
00010000
,
00100000
00010000
01000000
00000000
00010000
00100000
00001000
00000000
,
00010000
00001000
00000100
00000000
00001000
00010000
00100000
00000000
,
01000000
00010000
00100000
00001000
,
00000100
00000000
00000010
00000000
00000100
00000100
00000110
00000000
,
00002002
00000000
00003003
00000000
00000010
00001000
00000100
00000010
,
00000100
00001000
00010000
00000000
00100000
00000000
00010000
00000000
,
01000000
00100000
01000000
00000000
00010000
00100000
00010000
00000000
,
10000000
01000000
00100000
00000000
01000000
00010000
00001000
00000000
,
00100000
00001000
00010000
00000100
,
00001000
00000010
00001000
00000000
00000001
00000000
00000010
00000000
,
00000100
00010000
00000100
00000000
00010000
00001000
00010000
00000000
,
00001000
00100000
00001000
00000000
01000000
01000000
01000000
00000000
,
02200000
00000000
03300000
00000000
10000000
00100000
00010000
00000000
,
00100000
01000000
00001000
00100000
,
00001000
00010000
00000100
00000010
00000100
00000000
00001000
00000000
,
00000102
00000000
00000000
00001000
00001003
00000000
00000110
00000000
,
00000010
00010000
00001000
00000000
00010000
00001000
00000100
00000000
,
00001000
00010000
00100000
01000000
00010000
00100000
00010000
00000000
,
01000000
00000000
00010000
00000000
10000000
00100000
10000000
00000000
,
00010000
00000000
01000000
00000000
00001000
00010000
00001000
00000000
,
00010000
00000100
00000010
00000100
00010000
00000010
00001000
00000010
,
00000100
00000000
00000001
00001000
00000001
00000000
00000100
00000000
,
00000010
00001000
00000100
00010000
00000100
00010000
00001000
00100000
,
00001000
00000000
00100000
00010000
10000000
00000000
00100000
00000000
,
00010000
00100000
10000000
01000000
00010000
01000000
00100000
00010000
,
00001000
00000000
00010000
00001000
00022000
00000000
00033000
00000000
,
00001000
00010000
00000100
00000010
00000100
00010000
00001000
00000100
,
00000010
00000000
00001000
00000001
00002002
00000000
00003003
00000000
,
00000010
00001000
00000010
00010000
,
00000100
00010000
00001000
00000000
00010000
00001000
00100000
00000000
,
00010000
00100000
01000000
10000000
,
00010000
01000000
00100000
00000000
01000000
00001000
00100000
00000000
,
00001000
00010000
00000100
00000010
,
00000100
00010000
00000100
00001000
00000010
00000100
00000100
00000000
,
00000010
00001000
00000001
00000010
,
00000100
00001000
00010000
00100000
00001000
00100000
00100000
00000000
,
00101000
00000000
00011000
00000000
00001000
01000000
00001000
00000000
,
00100000
00010000
00100000
10000000
,
00100000
00000000
00001000
00000000
00010000
00001000
00010000
00000000
,
00000100
00000000
00001000
00000000
00000010
00001000
00000010
00000100
,
00000101
00000000
00001001
00000000
00001000
00000100
00001000
00000000
,
00000010
00000100
00001000
00010000
,
00001000
00100000
00010000
00000000
00100000
00000000
00010000
00000000
,
10000000
01000000
00100000
00000000
00010000
00100000
01000000
00100000
,
00101000
00000000
00011000
00000000
00000100
00010000
00010000
00000000
,
00000100
00000000
00001000
00000000
00000100
00000010
00000010
00000000
,
00000101
00000000
00001010
00000000
00000010
00000100
00000010
00000000
,
00010010
00000000
00011000
00000000
00001000
00100000
00010000
01000000
,
01000000
00000000
00100000
10000000
01000000
00000000
00010000
00000000
,
01000000
00000000
00100000
00001000
00010000
00000000
00001000
00000000
,
00010000
00000100
00000010
00000000
00000100
00001000
00000001
00000000
,
00000010
00000001
00001000
00000000
00000010
00000100
00001000
00010000
,
00011000
00000000
00000000
00000000
;

//---------------dance-double - ----------------
#NOTEDATA:;
#CHARTNAME:EXPERT;
#CHARTHASH:2147483647;
#STEPSTYPE:dance-double;
#BANNER:;
#DESCRIPTION:;
#CHARTSTYLE:;
#DIFFICULTY:Hard;
#METER:13;
#METERF:13.000000;
#LASTSECONDHINT:97.500000;
#RADARVALUES:0.709501,0.673684,0.047847,0.191388,0.267943,519.000000,514.000000,5.000000,20.000000,0.000000,0.000000,0.000000,0.000000,0.000000,0.709501,0.673684,0.047847,0.191388,0.267943,519.000000,514.000000,5.000000,20.000000,0.000000,0.000000,0.000000,0.000000,0.000000;
#CREDIT:YonabearCWY;
#NOTES:
00010000
00100000
10000000
00000000
00100000
00010000
01000000
00001000
,
00000000
00010000
00000000
00001000
00000000
00010000
00000100
00000000
,
00001000
00000100
00000010
00000001
00000100
00001000
00000100
00000001
,
00001000
00000010
00002000
00000000
00000000
00000000
00000010
00000000
00003010
00000000
00010000
00000000
00001000
00000000
00000000
00000000
,
00100000
00000000
00010000
00000000
01000000
10000000
01000000
00100000
,
01000000
01000000
00000000
00010000
00000000
00100000
00001000
00000000
,
00010000
00001000
00000100
00000010
00001000
00000001
00000010
00000100
,
00001000
00000100
00010000
00000000
00001000
00100000
00010000
01000000
,
10000000
00000000
01000000
00100000
00000000
00100000
10000000
00000000
00010000
00000000
01000000
00010000
00000000
00010000
00100000
00000000
,
00001000
00000000
00010000
00000100
00000000
00000100
00001000
00000000
00000010
00000000
00000100
00000000
00000100
00000000
00000010
00000000
,
00001000
00000000
00000100
00000010
00000000
00000010
00000001
00000000
00000100
00000000
00000001
00000000
00000010
00000000
00000100
00000000
,
00001000
00000000
00000100
00010000
00000000
00010000
00001000
00000000
00100000
00000000
00010000
00000000
01000000
00000000
00000000
00000000
,
00100000
00000000
01000000
00010000
00000000
00010000
10000000
00000000
00100000
00000000
01000000
00010000
00000000
00010000
00100000
00000000
,
00001000
00000000
00010000
00001000
00000000
00001000
01000000
00000000
00100000
00000000
01000000
00000000
00010000
00000000
00001000
00000000
,
00000100
00000000
00000010
00000100
00000000
00000100
00000001
00000000
00001000
00000000
00000100
00000010
00000000
00000010
00000001
00000000
,
00001000
00000000
00000010
00001000
00000000
00001000
00000100
00000000
00010000
00000000
00001000
00000000
00100000
00000000
00001000
00000000
,
00010000
00001000
01000000
00000000
00100000
10000000
01000000
00010000
,
01000000
01000000
00000000
10000000
01000000
00100000
00001000
00010000
,
00001000
00001000
00000000
00000100
00001000
00000100
00000010
00001000
,
00000001
00000001
00001000
00001000
00000010
00000100
00001000
00010000
,
00001000
00100000
00002000
00000000
00013000
00001000
00100000
00010000
,
01000000
10000000
02000000
00000000
03010000
01000000
00100000
00010000
,
00100000
01000000
00001000
00100000
00001000
00010000
00000100
00000010
,
00000100
00010000
00001000
00010000
00000100
00001000
00000010
00000100
,
00000001
00001000
00000100
00001000
00000200
00000000
00000000
00000000
00010000
00000000
00010000
00000000
00000000
00000000
00001000
00000000
,
00001300
00000100
00010000
00001000
00010000
00100000
01000000
00010000
,
10000000
00100000
02000000
00000000
03010000
01000000
10000000
01000000
,
00100000
00010000
00001000
00100000
00001000
00010000
00000100
00001000
,
00010000
00001000
00000200
00000000
00001300
00000100
00000020
00000000
,
00000031
00000010
00001000
00000010
00000001
00000100
00000020
00000000
,
00010030
00000010
00000100
00001000
00010000
00001000
00200000
00000000
,
01300000
00100000
01000000
10000000
01000000
00010000
01000000
10000000
,
00100000
10000000
00100000
00000000
10000000
00000000
01000000
00000000
00100000
00000000
00010000
00000000
01000000
00000000
00001000
00000000
,
00100000
00001000
00000000
00001000
00010000
00000000
00000100
00000000
00001000
00000000
00000010
00000000
00000010
00000000
00000000
00000000
,
00001000
00000001
00001000
00000000
00000001
00000000
00000010
00000000
00000100
00000000
00000010
00000000
00000100
00000000
00001000
00000000
,
00010000
00100000
00010000
00000000
00100000
00000000
01000000
00000000
00100000
00000000
00010000
00000000
00010000
00000000
00000000
00000000
,
10000000
00010000
01000000
00000000
00100000
00000000
00010000
00000000
00100000
00000000
01000000
00000000
00001000
00000000
00100000
00000000
,
00001000
00010000
00000000
00010000
00000100
00000000
00001000
00000100
00000010
00000000
00000100
00000000
00000100
00000000
00000000
00000000
,
00001000
00000100
00000001
00000000
00000100
00000000
00001000
00000000
00000010
00000000
00000100
00000000
00001000
00000000
00010000
00000000
,
00001000
00100000
00001000
00100000
00010000
00000000
01000000
00000000
10000000
00000000
01000000
00000000
00010000
00000000
01000000
00000000
,
00100000
20000000
00000000
31000000
00100000
00020000
00000000
00130000
,
00001000
00010000
00001000
00010000
00000200
00000000
00000000
00000000
00001300
00000010
00001000
00000010
00000002
00000000
00000000
00000000
,
00000013
00000100
00001000
00000100
00000010
00010000
00001000
00010000
,
00000100
00010000
00001000
00000000
00010000
00000000
00001000
00000000
00100000
00010000
10000000
00010000
20000000
00000000
00000000
00000000
,
30100000
02000000
00000000
03010000
00100000
00002000
00000000
00013000
,
00001000
00100000
00010000
00100000
00001000
00010000
00000100
00010000
,
00001000
00020000
00000000
00030100
00001000
00000020
00000000
00000130
,
00000001
00001000
00000010
00010000
00000100
00010000
00001000
00010000
,
00100000
01000000
00010000
10000000
01000000
00010000
02000000
00100000
,
03100000
01000000
10000000
01000000
00010000
00001000
00100000
00001000
,
00010000
00000100
00000010
00000100
00000100
00000100
00001100
00000000
,
00000010
00000001
00001000
00000010
00000010
00000010
00010010
00000000
,
00001000
00100000
00010000
01000000
00100000
00010000
00002000
00100000
,
00103000
00001000
01000000
00010000
01000000
00100000
10000000
01000000
,
00100000
01000000
00010000
00001000
00010000
00000100
00001100
00000000
,
00000001
00000010
00000100
00000010
00001000
00010000
00100000
00010000
,
00001000
00010000
00001000
00000000
00010000
00000000
00001000
00000000
01000000
00000000
00010000
00000000
00110000
00000000
00000000
00000000
,
10000000
00100000
01000000
00000000
00010000
00000000
01000000
00000000
00001000
00000000
00100000
00000000
00010000
00000000
00001000
00000000
,
00000100
00001000
00000100
00000000
00001000
00000000
00000010
00000000
00000010
00000000
00000100
00000000
00000001
00000000
00000001
00000000
,
00000010
00000100
00000010
00000000
00000100
00001000
00000100
00000000
00010000
00000000
00001000
00000000
00010000
00000000
00100000
00000000
,
01000000
00100000
10000000
00100000
10000000
00000000
00010000
00000000
00010000
00000000
00010000
00000000
01000000
00000000
00010000
00000000
,
00100000
00001000
00100000
00000000
00001000
00000000
00010000
00000000
00010000
00000000
00001000
00000000
00010000
00000000
00000100
00000000
,
00000010
00000001
00000010
00000000
00000001
00001000
00000001
00000000
00000100
00000000
00000100
00000000
00000100
00000000
00000010
00000000
,
00001000
00000000
00000100
00010000
00000100
00000000
00010000
00000000
00001000
00100000
00001000
00000000
00100000
00000000
01000000
00000000
,
11000000
00000000
00000000
00000000
;
