#VERSION:0.83;
#TITLE:Train;
#SUBTITLE:;
#ARTIST:School;
#TITLETRANSLIT:;
#SUBTITLETRANSLIT:;
#ARTISTTRANSLIT:;
#GENRE:TETSUDOU;
#ORIGIN:;
#TAGS:;
#CREDIT:YonabearCWY;
#BANNER:Train.png;
#BACKGROUND:Train-bg.png;
#PREVIEWVID:;
#JACKET:Train-jacket.png;
#CDIMAGE:;
#DISCIMAGE:;
#LYRICSPATH:;
#CDTITLE:pop'n music.png;
#MUSIC:Train.ogg;
#OFFSET:-6.060000;
#SAMPLESTART:55.798000;
#SAMPLELENGTH:15.000000;
#SELECTABLE:YES;
#BPMS:0.000000=120.000000
;
#STOPS:;
#DELAYS:;
#WARPS:;
#TIMESIGNATURES:0.000000=4=4
;
#TICKCOUNTS:0.000000=4
;
#COMBOS:0.000000=1
;
#SPEEDS:0.000000=1.000000=0.000000=0
;
#SCROLLS:0.000000=1.000000
;
#FAKES:;
#LABELS:0.000000=Song Start
;
#BGCHANGES:0.000=boy1.mp4=1.200=1=0=1===CrossFade==,
4.000=boy8.mp4=1.000=0=0=1=====,
12.000=boy5.mp4=1.000=0=0=1=====,
13.000=boy6.mp4=1.000=0=0=1=====,
14.000=boy5.mp4=1.000=0=0=1=====,
17.000=boy6.mp4=1.000=0=1=1=StretchRewind====,
18.000=boy2a.mp4=1.000=0=0=1=====,
20.000=boy8.mp4=1.000=0=1=1=StretchRewind====,
28.000=boy2.mp4=1.200=0=0=1=====,
32.000=girl2a.mp4=1.000=0=0=1=====,
36.000=tunnel2.mp4=1.200=0=0=1=====,
44.000=tunnel12.mp4=1.200=0=0=1=====,
52.000=wheel1.mp4=1.200=0=0=1=====,
60.000=arrows1.mp4=1.200=0=0=1=====,
68.000=train4.mp4=2.000=0=0=1=====,
76.000=boy10.mp4=1.000=0=0=1=====,
80.000=boy5.mp4=1.000=0=1=1=StretchRewind====,
82.000=boy1a.mp4=1.000=0=0=1=====,
82.500=boy6.mp4=1.000=0=1=1=StretchRewind====,
83.000=boy2a.mp4=1.000=0=0=1=====,
84.000=tunnel4.mp4=1.200=0=0=1=====,
92.000=boy11.mp4=1.400=0=0=1=====,
96.000=boy12.mp4=1.400=0=0=1=====,
99.500=boy7.mp4=1.000=0=0=1=====,
103.500=arrows1.mp4=1.200=0=1=1=StretchRewind====,
107.500=tunnel15.mp4=1.000=0=0=1=====,
112.000=boy7.mp4=1.200=0=1=1=StretchRewind====,
115.500=aliens2.mp4=1.000=0=0=1=====,
123.500=train4.mp4=2.000=0=1=1=StretchRewind====,
132.000=girl2a.mp4=1.000=0=1=1=StretchRewind====,
140.000=tunnel2.mp4=1.200=0=1=1=StretchRewind====,
148.000=tunnel4.mp4=1.200=0=1=1=StretchRewind====,
156.000=wheel1.mp4=1.200=0=1=1=StretchRewind====,
164.000=boy1.mp4=1.200=0=1=1=StretchRewind====,
168.000=boy11.mp4=1.200=0=1=1=StretchRewind====,
172.000=boy8.mp4=1.000=0=0=1=====,
176.000=boy7.mp4=1.200=0=1=1=StretchRewind====,
180.000=boy2.mp4=1.200=0=1=1=StretchRewind====,
184.000=boy12.mp4=1.200=0=1=1=StretchRewind====,
188.000=boy10.mp4=1.000=0=1=1=StretchRewind====,
192.000=boy5.mp4=1.000=0=1=1=StretchRewind====,
194.000=boy6.mp4=1.000=0=1=1=StretchRewind====,
195.000=boy2a.mp4=1.000=0=0=1=====,
196.000=arrows1.mp4=1.200=0=1=1=StretchRewind====,
200.000=train4.mp4=2.000=0=1=1=StretchRewind====,
204.000=Train-bg.png=1.000=0=0=1=====,
99999=-nosongbg-=1.000=0=0=0 // don't automatically add -songbackground-
;
#KEYSOUNDS:;
#ATTACKS:
;

//---------------dance-single - ----------------
#NOTEDATA:;
#CHARTNAME:BEGINNER;
#CHARTHASH:2147483647;
#STEPSTYPE:dance-single;
#BANNER:;
#DESCRIPTION:;
#CHARTSTYLE:;
#DIFFICULTY:Beginner;
#METER:3;
#METERF:3.000000;
#LASTSECONDHINT:110.059998;
#RADARVALUES:0.117706,0.153018,0.050446,0.050446,0.000000,98.000000,92.000000,6.000000,6.000000,0.000000,0.000000,0.000000,0.000000,0.000000,0.117706,0.153018,0.050446,0.050446,0.000000,98.000000,92.000000,6.000000,6.000000,0.000000,0.000000,0.000000,0.000000,0.000000;
#CREDIT:YonabearCWY;
#NOTES:
0000
0000
0000
0000
,
2000
0000
0000
3000
,
1000
1000
1000
1000
,
1000
0000
0000
0000
,
1000
0000
0000
0000
,
0002
0000
0000
0003
,
0001
0001
0001
0001
,
0001
0000
0000
0000
,
0001
0000
0000
0000
,
1000
1000
1000
0000
,
1000
0000
1000
0000
,
0001
0001
0001
0000
,
0001
0000
0001
0000
,
0100
0100
0100
0000
,
0100
0000
0100
0000
,
0010
0010
0010
0000
,
0010
0000
0010
0000
,
1000
0000
0000
0000
,
1000
0000
0000
0000
,
0001
0000
0000
0000
,
0001
0000
0000
0000
,
0100
0000
0000
0000
,
0100
0000
0000
0000
,
0010
0000
0000
0000
,
0010
0000
0000
0000
,
0000
1000
1000
0000
,
0000
0001
0001
0000
,
0000
0010
0010
0000
,
0000
0100
0100
0000
,
0000
1000
1000
0000
,
0000
0010
0010
0000
,
0000
0100
0100
0000
,
0000
0001
0001
0000
,
1001
0000
0000
0000
,
0010
0010
0010
0000
,
0110
0000
0000
0000
,
0100
0100
0100
0000
,
0001
0000
0001
0000
,
0001
0000
0000
0000
,
1000
0000
1000
0000
,
1000
0000
0000
0000
,
0020
0000
0000
0030
,
0010
0010
0010
0010
,
0010
0000
0010
0000
,
0010
0000
0000
0000
,
0200
0000
0000
0300
,
0100
0100
0100
0100
,
0100
0000
0100
0000
,
0100
0000
0000
0000
,
1001
0000
0000
0000
,
0110
0000
0000
0000
,
1001
0000
0000
2002
0000
0000
0000
0000
,
3003
0000
0000
0000
;

//---------------dance-single - ----------------
#NOTEDATA:;
#CHARTNAME:BASIC;
#CHARTHASH:2147483647;
#STEPSTYPE:dance-single;
#BANNER:;
#DESCRIPTION:;
#CHARTSTYLE:;
#DIFFICULTY:Easy;
#METER:5;
#METERF:5.000000;
#LASTSECONDHINT:110.059998;
#RADARVALUES:0.204185,0.218598,0.260636,0.201782,0.000000,170.000000,139.000000,31.000000,24.000000,0.000000,0.000000,0.000000,0.000000,0.000000,0.204185,0.218598,0.260636,0.201782,0.000000,170.000000,139.000000,31.000000,24.000000,0.000000,0.000000,0.000000,0.000000,0.000000;
#CREDIT:YonabearCWY;
#NOTES:
0000
0000
0000
0000
,
2002
0000
0000
3003
,
1000
1000
1000
1000
,
1000
0000
1000
0000
,
0001
0000
0001
0000
,
0220
0000
0000
0330
,
0010
0010
0010
0010
,
0010
0000
0010
0000
,
0100
0000
0100
0100
,
1001
0000
0010
0100
,
0010
0000
0010
0001
,
0110
0000
0100
0010
,
0100
0000
0100
1000
,
2001
0000
3001
1000
,
0001
0000
0001
1000
,
0120
0000
0130
0010
,
0100
0000
0001
0010
,
0200
1000
1300
0010
,
0200
0001
0301
0010
,
2002
0000
3003
0010
,
0100
0001
0010
1001
,
0020
0001
0031
0100
,
0020
1000
1030
0001
,
0220
0000
0330
1000
,
0001
0000
0010
0000
0001
0000
0000
1001
,
0000
0000
1000
0000
1000
0000
0000
0110
,
0000
0000
0001
0000
0001
0000
0000
1100
,
0000
0010
0010
0000
,
0101
0000
0100
0000
0100
0000
0000
0110
,
0000
0000
0010
0000
0010
0000
0000
1001
,
0000
0000
0001
0000
0001
0000
0000
0101
,
0000
1000
1000
0000
,
1010
0010
0010
0000
,
2002
0000
0000
3003
,
0010
0010
0010
0000
,
0100
0100
0220
0330
,
1000
1000
0001
0001
,
1000
0000
1000
0000
,
0001
0000
0001
0000
,
0010
0000
0010
0000
,
0100
0000
0100
0000
,
2002
0000
0000
3003
,
0100
0100
0100
0100
,
0110
0000
0110
0000
,
1001
0000
1001
0000
,
0220
0000
0000
0330
,
0010
0010
0010
0010
,
0110
0000
1001
0000
,
0011
0000
1100
0000
,
0001
0000
0000
1000
0000
0000
0001
0000
,
1000
0000
0000
0010
0000
0000
0100
0000
,
0110
0000
0000
2002
0000
0000
0000
0000
,
3003
0000
0000
0000
;

//---------------dance-single - ----------------
#NOTEDATA:;
#CHARTNAME:DIFFICULT;
#CHARTHASH:2136908053;
#STEPSTYPE:dance-single;
#BANNER:;
#DESCRIPTION:;
#CHARTSTYLE:;
#DIFFICULTY:Medium;
#METER:9;
#METERF:9.000000;
#LASTSECONDHINT:110.059998;
#RADARVALUES:0.359125,0.371616,0.277451,0.201782,0.050446,299.000000,266.000000,33.000000,24.000000,0.000000,0.000000,0.000000,0.000000,0.000000,0.359125,0.371616,0.277451,0.201782,0.050446,299.000000,266.000000,33.000000,24.000000,0.000000,0.000000,0.000000,0.000000,0.000000;
#CREDIT:YonabearCWY;
#NOTES:
0000
0000
0000
0000
,
0220
0000
0000
0330
,
1000
0010
0001
0010
,
1100
0000
0001
0100
1000
0000
0101
0000
,
0010
0000
0100
0010
0001
0220
0000
0330
,
2002
0000
0000
3003
,
0001
0100
1000
0100
,
0011
0000
1000
0010
0001
0000
1010
0000
,
0100
0000
0010
0100
0001
2002
0000
3003
,
0100
0000
0010
1000
0100
0000
1001
0000
,
0010
0001
0100
0000
0001
0100
0010
0000
,
0110
0000
1000
0001
0010
0000
0100
0000
,
1000
0000
0100
0010
0001
0010
0100
0000
,
1000
0000
0001
1000
0010
0000
1100
0000
,
0001
0000
0100
0010
0001
0010
1001
0000
,
0110
0000
0001
1000
0100
0000
1001
0000
,
0100
0010
1000
0010
0100
0001
0010
0010
,
0100
0000
0000
0100
0000
0000
1000
0000
0001
0000
0000
0000
0010
0000
0000
0000
,
0001
0000
0000
0100
0000
0000
0001
0000
0010
0000
0001
0000
0001
0000
0000
0000
,
1000
0010
0100
0001
,
0110
0000
0010
0100
1000
0001
1001
0000
,
1000
0000
0000
1000
0000
0000
0010
0000
0100
0000
0000
0000
0001
0000
0010
0000
,
0100
0000
0000
0010
0000
0000
0010
0000
0001
0000
1000
0000
1000
0000
0010
0000
,
1000
0001
0100
0100
0000
0010
1000
0100
,
1100
0000
0000
0100
0000
0000
0011
0000
0000
1000
0000
0000
0001
0000
2001
0000
,
0000
0010
0010
0000
0100
0000
3010
1002
,
0000
0100
0100
0000
0010
0000
1003
0010
,
0001
0010
1000
0000
0001
0100
0010
0100
,
0001
0000
0001
0000
1000
0000
0000
0100
0000
0000
0010
0000
0001
0000
0210
0000
,
0000
0001
0001
0000
1000
0000
0310
0120
,
0000
1000
1030
0000
0010
0100
0001
0100
,
0010
0000
1000
0100
0001
0100
1000
0000
,
0010
0000
0010
0000
0010
0000
0000
1001
0000
0000
0100
0000
0001
0000
0010
0000
,
2100
0000
0001
0001
0000
0010
3010
0000
,
0100
1000
0001
0010
,
0120
0000
1000
1000
0000
0001
0031
0000
,
0100
0010
1000
0100
,
0011
0000
1000
0010
0100
0001
0100
0010
,
0000
0100
0010
1000
0001
0010
0100
0010
,
0001
0000
1000
0100
0001
0100
1000
0010
,
0000
0100
0001
0100
0010
1000
0010
0000
,
2002
0000
0000
3003
,
0010
0001
0100
1000
,
0100
0001
0010
0000
0100
1000
0001
0000
,
1000
0100
0010
0001
0010
2002
0000
3003
,
0220
0000
0000
0330
,
0100
1000
0010
0001
,
0010
1000
0100
0000
1000
0001
0010
0000
,
0001
0100
0010
1000
0100
2002
0000
3003
,
1000
0000
0010
0000
1000
0000
0000
0001
0000
0000
0010
0000
0001
0000
0010
0000
,
0100
0000
0000
1000
0000
0000
0001
0000
0000
0010
0000
0000
0100
0000
1000
0000
,
1001
0000
0000
0110
0000
0000
2002
0000
0000
0000
0000
0000
0000
0000
0000
0000
,
3003
0000
0000
0000
;

//---------------dance-single - ----------------
#NOTEDATA:;
#CHARTNAME:EXPERT;
#CHARTHASH:2147483647;
#STEPSTYPE:dance-single;
#BANNER:;
#DESCRIPTION:;
#CHARTSTYLE:;
#DIFFICULTY:Hard;
#METER:11;
#METERF:11.000000;
#LASTSECONDHINT:112.059998;
#RADARVALUES:0.445603,0.467883,0.235413,0.252228,0.180763,371.000000,343.000000,28.000000,30.000000,0.000000,0.000000,0.000000,0.000000,0.000000,0.445603,0.467883,0.235413,0.252228,0.180763,371.000000,343.000000,28.000000,30.000000,0.000000,0.000000,0.000000,0.000000,0.000000;
#CREDIT:YonabearCWY;
#NOTES:
0000
0000
0000
0000
,
0022
0000
0000
0030
,
1003
0010
1000
0010
0100
0001
0010
0001
,
0100
0000
0000
0010
1000
0000
0010
0000
0100
0000
0001
0000
0010
0000
0000
0001
,
1000
0000
0000
0100
0010
0000
0000
0001
0100
0000
0220
0000
0000
0000
0330
0000
,
2002
0000
0000
0003
,
3010
0100
0010
0100
0001
0010
0100
1000
,
0001
0000
0000
0100
0010
0000
0100
0000
0001
0000
0010
0000
0100
0000
0000
1000
,
0010
0000
0000
0100
0001
0000
0010
0000
0000
0000
0100
0000
2001
0000
0000
0000
,
3100
0000
1000
0100
0010
0000
0110
0000
,
1000
0000
0001
0000
0010
0000
0100
0010
0000
0001
0000
0100
0000
0010
0000
1000
,
0001
0010
0100
0000
0010
0001
1001
0000
,
0010
0000
0100
0000
0001
0000
0000
1000
0100
0000
1000
0000
0010
0000
0010
0000
,
0100
0000
0001
1000
0010
0000
1001
0000
,
0100
0000
0010
0000
0001
0000
0100
0010
0000
0100
0000
0001
0010
0000
0100
0000
,
1000
0001
0100
0000
0010
1000
1100
0000
,
1000
0001
0100
0010
0010
0100
0001
0010
,
0100
1000
0010
1000
0010
0100
0100
0001
,
0010
0001
1000
0010
0001
0010
0010
0100
,
0001
0100
1000
0100
0010
1000
0100
0010
,
0100
0000
1000
0000
0201
0000
0000
0000
0310
0000
0010
0000
0010
1000
0000
0000
,
0100
0010
0001
1000
0010
0001
0010
0100
,
0010
0001
1000
0100
0001
0100
1000
0100
,
0010
1000
0001
1000
0100
0010
0001
0001
,
1000
0000
0100
0010
0000
0001
0010
0000
0100
1000
0000
0001
1000
0000
1002
0000
,
0000
0010
0013
0000
0001
0100
1000
0210
,
0000
0001
0301
0000
0010
0100
0010
2100
,
0000
0001
3001
1000
0010
0100
0010
0001
,
0010
0100
1001
0000
0100
0010
0100
1002
,
0000
0000
0100
0000
0103
0000
0000
0010
1000
0000
0001
0000
0010
0000
0120
0000
,
0000
0000
0001
0000
0031
0000
0000
1000
0010
0000
0100
0000
1000
0000
0210
0000
,
0000
0000
1000
0000
1300
0000
0000
0010
0100
0000
0001
0000
0010
0000
0010
0000
,
0001
0000
1000
0000
0010
0000
0000
1000
0000
0100
0010
0000
0001
0000
0100
0010
,
0100
0001
0010
0020
0000
0000
0000
0030
,
0001
0000
0100
0000
0010
0000
0000
1000
0000
0000
0010
0000
0100
0000
0000
0000
,
1100
0000
0001
0100
0200
0000
0000
0000
,
0310
0000
0100
0000
0001
0000
0000
0010
0100
1000
0200
0000
1000
0000
1300
0000
,
0010
0000
0100
0000
0001
0000
0010
0000
0100
0000
0000
0010
0000
0000
1100
0000
,
0000
0000
0010
0000
0100
0000
1000
0000
0100
0000
0001
0000
0100
0001
0000
0010
,
0001
0000
0100
0000
0010
0000
1000
0000
0001
0000
0000
1000
0000
0000
0011
0000
,
0000
0100
0010
0000
0000
1000
0100
0000
1000
0000
0001
0000
0010
0000
0100
0010
,
0200
0001
1000
0301
,
1000
0100
0010
0001
0100
0010
1000
0001
,
0020
0000
0001
0001
0100
0000
1000
0000
,
0230
0000
0010
0310
0001
0220
0000
0330
,
2001
0010
0100
3010
,
0100
1000
0100
0010
0001
0100
0010
0001
,
0020
0000
1000
0100
0130
0010
0001
0010
,
0200
0000
0001
1000
1300
0010
0001
0010
,
0100
0000
0010
0000
1000
0100
1000
0200
0000
0000
0310
0000
0002
0200
0303
0000
,
1010
0000
0000
1100
0000
0000
0110
0000
0000
0101
0000
0000
0001
0000
1000
0000
,
1100
0000
0000
0011
0000
0000
2002
0000
0000
0000
0000
0000
0000
0000
0000
0000
,
0000
0000
0000
0000
,
3003
0000
0000
0000
;

//---------------dance-single - ----------------
#NOTEDATA:;
#CHARTNAME:CHALLENGE;
#CHARTHASH:885878348;
#STEPSTYPE:dance-single;
#BANNER:;
#DESCRIPTION:;
#CHARTSTYLE:;
#DIFFICULTY:Challenge;
#METER:14;
#METERF:14.000000;
#LASTSECONDHINT:112.059998;
#RADARVALUES:0.666603,0.690684,0.151337,0.235413,0.802926,555.000000,537.000000,18.000000,28.000000,0.000000,0.000000,0.000000,0.000000,0.000000,0.666603,0.690684,0.151337,0.235413,0.802926,555.000000,537.000000,18.000000,28.000000,0.000000,0.000000,0.000000,0.000000,0.000000;
#CREDIT:YonabearCWY;
#NOTES:
// measure 0
1000
0000
0010
0100
0000
0100
0001
0000
0001
0010
0000
0010
0100
0010
0100
1000
,  // measure 1
0001
0000
1000
0000
0100
0000
0000
0010
0001
0000
0000
0100
0010
0000
0000
1000
,  // measure 2
0100
1000
0001
0000
0020
0000
0000
0130
1000
0100
0010
0000
0200
0000
0000
0000
,  // measure 3
1300
0000
0010
0000
0001
0000
0010
1000
0010
0000
0100
0000
1000
0100
1000
0000
,  // measure 4
0100
0000
0001
0000
0010
0000
0001
1000
0001
0000
0100
0010
0100
0020
0000
0000
,  // measure 5
0031
0000
0010
0000
0100
0000
0000
0010
1000
0000
0000
0001
0100
0000
0000
0001
,  // measure 6
0010
0001
1000
0000
0200
0000
0000
0310
0001
0010
1000
0000
0020
0000
0000
0000
,  // measure 7
0031
0000
0100
0000
0010
0000
1000
0100
1000
0100
0010
0000
0100
2000
0000
0000
,  // measure 8
3001
0000
0100
0000
0010
0000
0100
0001
0100
0000
1002
0000
0000
0000
0000
0000
,  // measure 9
0013
0000
0000
0000
0000
0000
0001
0000
0000
0100
0000
0000
0001
0000
0000
0100
0000
0000
0001
0000
0000
0000
0000
0000
0010
0000
0000
0000
0000
0000
0001
0000
0000
1000
0000
0000
0100
0000
0010
0000
0100
0000
1000
0000
0000
0010
0000
0000
,  // measure 10
0100
0001
0100
0000
0010
1000
0000
0010
0000
0100
0000
0001
0000
0100
0010
0000
,  // measure 11
0100
0000
0000
0000
0000
0000
0001
0000
0000
1000
0000
0000
0001
0000
0000
1000
0000
0000
0001
0000
0000
0000
0000
0000
0100
0000
0000
0010
0000
0000
0100
0000
0001
0000
0010
0000
0001
0000
0000
1000
0000
0000
0010
0000
0000
0000
0000
0000
,  // measure 12
0100
0000
0000
0010
0000
0000
0100
0000
0000
0010
0000
0000
1000
0000
0000
0000
0000
0000
0001
0000
0000
0100
0000
0000
0010
0000
0000
0100
0000
0000
0010
0000
1000
0000
0001
0000
1000
0000
0000
0000
0000
0000
0100
0000
0000
0010
0000
0000
,  // measure 13
0001
0000
0000
1000
0000
0000
0100
0000
0000
1000
0000
0000
0100
0000
0000
0000
0000
0000
0010
0000
0000
0001
0000
0000
0010
0000
0000
0001
0000
0000
1000
0000
0100
0000
0010
0000
0001
0000
0000
0010
0000
0000
0100
0000
0000
0000
0000
0000
,  // measure 14
1000
0000
0010
0100
0010
0100
0001
0000
0010
0002
0000
0000
1003
0020
0000
0000
,  // measure 15
0130
0000
0000
0000
0000
0000
0010
0000
0000
1000
0000
0000
0010
0000
0000
0100
0000
0000
0001
0000
0000
0000
0000
0000
0100
0000
0000
0010
0000
0000
0100
0000
0001
0000
0010
0000
0001
0000
0000
1000
0000
0000
0010
0000
0000
0000
0000
0000
,  // measure 16
1100
0000
0000
0000
0000
0000
0100
0000
0010
0000
0001
0000
0010
0000
0000
0100
0000
0000
0010
0000
0000
0000
0000
0000
0100
0000
0000
0001
0000
0000
0100
0000
0000
1000
0000
0000
0100
0000
0000
0000
0000
0000
1000
0000
0000
0000
0000
0000
,  // measure 17
0001
0000
0100
0010
0000
0010
1000
0001
0100
0000
0010
0000
0010
0000
0100
0000
,  // measure 18
0001
0000
0010
0001
0000
1000
0010
0000
0100
0000
0001
0000
0001
0000
1000
0000
,  // measure 19
0010
1000
0100
0001
0100
0010
0001
0010
,  // measure 20
1000
0000
0000
0000
0000
0000
0010
0000
0000
0000
0000
0000
0100
0000
0000
0000
0000
0000
1000
0000
0001
0000
0100
0000
0001
0000
0000
0000
0000
0000
0001
0000
0000
0000
0000
0000
0001
0000
0000
0010
0000
0000
0100
0000
0000
1000
0000
0000
,  // measure 21
0100
0000
1000
0010
0000
0100
0001
0010
0001
0000
0100
0000
0100
0000
0001
0000
,  // measure 22
0010
0000
0001
1000
0000
0100
0010
0000
0100
0000
1000
0000
1000
0000
0010
0000
,  // measure 23
0100
0000
0001
0000
0001
0000
0001
0000
0010
0000
0001
0000
1000
0010
0100
0000
,  // measure 24
0010
0000
0100
0001
0000
1000
0010
0000
0010
0100
0000
0100
0001
0010
0012
0000
,  // measure 25
0000
0000
1003
0000
0010
0000
0001
0010
1000
0010
0001
0000
0010
0000
1200
0000
,  // measure 26
0000
0000
0310
0000
0100
0000
0001
1000
0100
0000
0010
0001
0010
0100
2001
0000
,  // measure 27
0000
0000
3010
0000
1000
0000
0001
0100
0010
0000
0010
0000
0100
0010
0000
0010
,  // measure 28
1000
0000
0101
0000
0001
0010
0000
0110
0000
0100
1000
0100
0010
0001
0021
0000
,  // measure 29
0000
0000
0130
0000
0010
0000
0001
0100
1000
0100
0001
0000
0010
0000
0201
0000
,  // measure 30
0000
0000
0310
0000
0100
0000
1000
0001
0010
0000
0100
0000
1000
0010
0120
0000
,  // measure 31
0000
0000
0031
0000
0010
0000
0100
0001
1000
0010
1000
0000
0100
0000
1000
0100
,  // measure 32
1000
0000
1010
0000
0010
0100
0000
0101
0000
0001
0010
0100
1000
0010
0100
0001
,  // measure 33
0100
0000
0001
0010
0001
0000
2000
0100
0000
0000
0010
0000
3010
0000
0100
0000
,  // measure 34
0002
1000
2003
3010
0200
0001
0302
0103
,  // measure 35
0010
0000
1000
0100
1000
0000
0100
0020
0000
0000
0001
0000
0031
0000
0100
0000
,  // measure 36
0010
0000
1000
0000
0100
1000
0100
1000
0001
0010
0100
0000
1000
0000
0010
0000
,  // measure 37
0100
0000
0001
0010
0001
0010
0100
0000
1000
0100
0000
0010
0000
0001
0100
0001
,  // measure 38
0000
0010
0000
0001
1000
0001
1000
0100
0010
0100
0001
0100
0000
1000
0010
0000
,  // measure 39
0100
0010
1000
0010
0100
0000
0001
0000
0010
0001
0000
1000
0000
0001
0200
0000
,  // measure 40
0000
0310
1000
0000
0100
0010
0001
0010
0100
1000
0001
1000
0001
0000
0010
0100
,  // measure 41
1100
0000
1000
0000
0001
0000
0000
0010
0100
0000
0000
1000
0001
0000
0000
0100
,  // measure 42
0010
0000
0100
0000
0001
0000
0010
0000
0100
0010
0100
0000
0010
0000
0001
1000
,  // measure 43
0100
1000
0001
0000
0010
0001
0100
0000
0001
1000
0010
0000
1000
0200
0000
0000
,  // measure 44
1300
0000
0010
0100
0010
0001
0010
0000
0100
0001
1002
0000
0000
0000
0000
0000
,  // measure 45
0013
0000
0001
0000
1000
0000
0000
0100
0010
0000
0000
0001
0100
0000
0000
0010
,  // measure 46
1000
0000
0010
0000
0100
0010
0001
0000
0010
0000
0100
0010
1000
0010
0100
0000
,  // measure 47
0001
1000
0010
0100
0010
0000
0100
0001
0100
0000
0001
0010
0100
2000
0000
0000
,  // measure 48
3010
1000
0100
1000
0001
0000
0100
0010
0001
0010
0210
0000
0000
0000
0000
0000
,  // measure 49
0301
0100
0010
0100
0010
1000
0001
0100
0000
0010
1000
0100
0001
0100
1000
0001
,  // measure 50
0010
0000
1000
0010
0000
0001
0010
0000
0001
0100
0000
1000
0100
0000
0010
0000
,  // measure 51
0110
0000
0000
1100
0000
0000
2002
0000
0000
0000
0000
0000
0000
0000
0000
0000
,  // measure 52
0000
0000
0000
0000
,  // measure 53
3003
0000
0000
0000
;

//---------------dance-double - ----------------
#NOTEDATA:;
#CHARTNAME:CHALLENGE;
#CHARTHASH:2147483647;
#STEPSTYPE:dance-double;
#BANNER:;
#DESCRIPTION:;
#CHARTSTYLE:;
#DIFFICULTY:Challenge;
#METER:14;
#METERF:14.000000;
#LASTSECONDHINT:112.059998;
#RADARVALUES:0.634173,0.690684,0.269043,0.218598,0.647385,528.000000,496.000000,32.000000,26.000000,0.000000,0.000000,0.000000,0.000000,0.000000,0.634173,0.690684,0.269043,0.218598,0.647385,528.000000,496.000000,32.000000,26.000000,0.000000,0.000000,0.000000,0.000000,0.000000;
#CREDIT:YonabearCWY;
#NOTES:
00100000
00000000
00010000
01000000
00000000
01000000
00010000
00000000
00100000
00001000
00000000
00001000
00100000
00001000
00010000
00001000
,
00020000
00000100
00000100
00000000
00001000
00001000
00031000
00000000
,
00010000
00000100
00000010
00000100
00010000
00000010
00001000
00000100
,
00001000
00000000
00000010
00000000
00000100
00000001
00000100
00000000
00000010
00000000
00001000
00000000
00000100
00010000
00000000
00000000
,
00001000
00000000
00100000
00000000
00010000
01000000
00010000
01000000
00100000
00000000
20020000
00000000
00000000
00000000
30030000
00000000
,
00012000
00100000
00100000
00000000
00010000
00010000
00013000
00000000
,
01000000
00001000
00100000
00001000
01000000
00001000
00010000
00100000
,
01000000
00000000
00010000
00000000
00100000
00001000
00100000
00000000
00001000
00000000
00010000
00000000
00000100
00010000
00000000
00000000
,
00001000
00000000
00000100
00000000
00000010
00001000
00000010
00001000
00000001
00000020
00000200
00000000
00000000
00000000
00000330
00000000
,
00010100
00000000
00000000
00000000
00000000
00000000
00010000
00000000
00000000
00001000
00000000
00000000
00010000
00000000
00000000
00001000
00000000
00000000
00100000
00000000
00000000
00000000
00000000
00000000
00010000
00000000
00000000
00000000
00000000
00000000
01000000
00000000
00010000
00000000
00100000
00000000
01000000
00000000
00000000
10000000
00000000
00000000
01000000
00000000
00000000
00100000
00000000
00000000
,
00010000
00000000
00100000
00001000
00100000
00001000
00000000
00010000
00000000
00000100
00000000
00001000
00000000
00000100
00000000
00000010
,
00000001
00000000
00000000
00001000
00000000
00000000
00000001
00000000
00000000
00001000
00000000
00000000
00000010
00000000
00000000
00001000
00000000
00000000
00000010
00000000
00000000
00000000
00000000
00000000
00000100
00000000
00000000
00000010
00000000
00000000
00000000
00000000
00000000
00000010
00000000
00000000
00001000
00000000
00000100
00000000
00010000
00000000
00000100
00000000
00000000
00010000
00000000
00000000
,
00001000
00000000
00000000
00010000
00000000
00000000
00001000
00000000
00000000
00000000
00000000
00000000
00100000
00000000
00000000
00000000
00000000
00000000
00010000
00000000
00000000
00000000
00000000
00000000
01000000
00000000
00000000
00100000
00000000
00000000
10000000
00000000
01000000
00000000
00100000
00000000
00010000
00000000
00000000
00100000
00000000
00000000
00010000
00000000
00000000
00000000
00000000
00000000
,
00101000
00000000
00000000
00000000
00000000
00000000
00001000
00000000
00000000
00010000
00000000
00000000
00001000
00000000
00000000
00010000
00000000
00000000
00000100
00000000
00000000
00000000
00000000
00000000
00001000
00000000
00000000
00000100
00000000
00000000
00000010
00000000
00000001
00000000
00000010
00000000
00000100
00000000
00000000
00000010
00000000
00000000
00000001
00000000
00000000
00001000
00000000
00000000
,
00000100
00000000
00010000
00001000
00010000
00000000
00001000
00000000
00010000
00100000
00000000
00000000
01000000
00010000
00000000
00000000
,
11000000
00000000
00000000
00000000
00000000
00000000
00100000
00000000
00000000
01000000
00000000
00000000
00010000
00000000
00000000
01000000
00000000
00000000
00010000
00000000
00000000
00000000
00000000
00000000
00100000
00000000
00000000
00000000
00000000
00000000
00001000
00000000
00100000
00000000
00010000
00000000
00100000
00000000
00000000
00001000
00000000
00000000
00010000
00000000
00000000
00000000
00000000
00000000
,
00011000
00000000
00000000
00000000
00000000
00000000
00010000
00000000
00001000
00000000
00000100
00000000
00000010
00000000
00000000
00000000
00000000
00000000
00000100
00000000
00000000
00000000
00000000
00000000
00001000
00000000
00000000
00000010
00000000
00000000
00001000
00000000
00000000
00000000
00000000
00000000
00000001
00000000
00000000
00000000
00000000
00000000
00000100
00000000
00000000
00000000
00000000
00000000
,
00000101
00000000
00001000
00000010
00000000
00000010
00010000
00000000
00000100
00000000
00010000
00000000
00010000
00000000
00001000
00000000
,
00100000
00000000
00010000
01000000
00000000
01000000
00001000
00000000
00100000
00000000
00001000
00000000
00001000
00000000
00010000
00000100
,
00010000
00000000
00001000
00000000
00100000
00000000
01000000
00000000
00100000
00000000
00001000
00000000
00010000
00000000
00000100
00010000
,
00000100
00000000
00000000
00001000
00000000
00000000
00000100
00000000
00000000
00010000
00001000
00000100
00000010
00000000
00000000
00000100
00000000
00000000
00001100
00000000
00000000
00000010
00000000
00000000
,
00000110
00000000
00001000
00000100
00000000
00000100
00010000
00000000
00001000
00000000
00100000
00000000
01000000
00000000
00100000
00000000
,
00001000
00000000
00100000
00001000
00000000
00001000
00010000
00000000
00000100
00000000
00000010
00000000
00000100
00000000
00010000
00000000
,
00000100
00001000
00010000
00100000
00010000
00100000
01000000
00100000
,
00011000
00000000
00001000
00100000
00000000
00100000
01000000
00000000
01000000
10000000
00000000
10000000
01000000
00100000
00020000
00000000
,
00000000
00000000
10030000
00100000
10000000
00100000
01000000
00010000
02000000
00000000
00100000
00000000
03000000
00000000
01200000
00000000
,
00000000
00000000
01300000
00010000
01000000
00010000
00100000
00001000
00100000
00001000
00010000
00000000
00000000
00000000
00010020
00000000
,
00000000
00000000
00001030
00000100
00000010
00000001
00000010
00000001
00002000
00000000
00000010
00000000
00003000
00000000
00000100
00000000
,
00001100
00000000
00001100
00000000
00000010
00001000
00000000
00001100
00000000
00000100
00010000
00001000
00100000
00010000
00200000
00000000
,
00000000
00000000
01300000
00000000
10010000
00000000
00000000
00100000
00001000
00100000
00001000
00010000
00000100
00000010
00000200
00000000
,
00000000
00000000
00001300
00000000
00001010
00000000
00000000
00000100
00000010
00001000
00000010
00001000
00000100
00010000
00002000
00000000
,
00000000
00000000
00103000
00000000
00101000
00000000
00000000
00010000
00100000
01000000
00100000
01000000
10000000
00000000
00010000
00000000
,
00100000
00000000
00100000
00000000
00001000
00010000
00000000
00000100
00000000
00010000
00001000
00000100
00000010
00000100
00001000
00000100
,
00000010
00000000
00000100
00000001
00000100
00000000
00000001
00002000
00000000
00000000
00000010
00000000
00000010
00000000
00000000
00000000
,
00000001
00000000
00000100
00000000
00000010
00003010
00001010
00000000
,
00011000
00000000
00100000
00010000
00100000
00000000
01000000
20000000
00000000
00000000
00100000
00000000
00100000
00000000
00000000
00000000
,
00010000
00000000
00000000
00000000
31000000
00000000
10000000
00000000
00010000
00000000
10000000
00100000
10000000
00000000
00010000
00000000
,
00110000
00000000
00100000
00001000
00010000
00001000
00010000
00000100
00000010
00000100
00000000
00001100
00000000
00000000
00001002
00000000
,
00000000
00000000
00000013
00000000
00000001
00000100
00000001
00000100
00000010
00000100
00000010
00001000
00000000
00000100
00010000
00000000
,
00001000
00010000
00001000
00010000
00100000
00000000
00010000
00000000
00001000
00010000
00001000
00010000
00000000
00001000
00200000
00000000
,
00000000
00000000
00310000
00000000
10000000
01000000
00010000
01000000
10000000
00000000
00100000
00000000
01000000
00010000
00100000
00001000
,
00200000
00010000
00010000
00000000
00001000
00001000
00301000
00000000
,
00100000
00001000
00010000
00000100
00000010
00000001
00001000
00000010
,
00000100
00001000
00000100
00000000
00011000
00000000
00100000
00000000
01000000
00010000
01000000
00000000
20010000
00000000
00000000
00000000
,
30100000
01000000
00010000
00000000
00110000
00000000
00100000
00000000
00001000
00010000
00000020
00000000
00000000
00000000
00001030
00000010
,
00000200
00000010
00000010
00000000
00001000
00001000
00001000
00000000
,
00000310
00001000
00000100
00010000
00100000
01000000
00010000
10000000
,
01000000
00100000
01000000
00000000
00101000
00000000
00010000
00000000
00000100
00001000
00000100
00000000
00000012
00000000
00000000
00000000
,
00001003
00000000
00000001
00000100
00000010
00000000
00001000
00000000
00000100
00010000
00002000
00000000
00000000
00000000
00103000
00010000
,
10000000
00100000
10000000
00100000
01000000
00010000
01000000
00010000
00000000
00100000
00001000
00000000
00001000
00010000
00000000
00010000
,
00000100
00000000
00000100
00000010
00000000
00000010
00000001
00000000
00000001
00001000
00000000
00001000
00000010
00000000
00001010
00000000
,
00011000
00000000
00000000
01100000
00000000
00000000
20020000
00000000
00000000
00000000
00000000
00000000
00000000
00000000
00000000
00000000
,
00000000
00000000
00000000
00000000
,
30030000
00000000
00000000
00000000
;
