#TITLE:TENGU;
#SUBTITLE:;
#ARTIST:Jimmy Weckl;
#TITLETRANSLIT:;
#SUBTITLETRANSLIT:;
#ARTISTTRANSLIT:;
#GENRE:FUSION;
#CREDIT:YonabearCWY;
#BANNER:TENGU.png;
#BACKGROUND:TENGU-bg.png;
#LYRICSPATH:;
#CDTITLE:GUITAR FREAKS & drummania.png;
#MUSIC:TENGU.ogg;
#OFFSET:-7.020000;
#SAMPLESTART:67.221550;
#SAMPLELENGTH:15.000000;
#SELECTABLE:YES;
#BPMS:0.000000=155.000000
;
#STOPS:
;
#BGCHANGES:;
#KEYSOUNDS:;
#ATTACKS:;

//---------------dance-single - ----------------
#NOTES:
     dance-single:
     BASIC:
     Easy:
     7:
     0.304813,0.356701,0.252459,0.162877,0.061079,262.000000,231.000000,31.000000,20.000000,0.000000,0.000000,0.304813,0.356701,0.252459,0.162877,0.061079,262.000000,231.000000,31.000000,20.000000,0.000000,0.000000:
1000
0000
0000
0000
0001
0000
0000
0202
0000
0000
0000
0000
0000
0000
0000
0000
,
0000
0000
0000
0303
0000
0010
0100
0000
,
0001
0000
0000
0000
0010
0000
0000
2020
0000
0000
0000
0000
0000
0000
0000
0000
,
0000
0000
0000
0000
0000
0000
3030
0000
0000
0000
1000
0000
0000
0010
0000
0000
,
0100
0101
0010
1010
,
0100
0000
0000
2002
0000
0000
0000
0000
0000
0000
0000
0000
3003
0000
0000
0000
,
1000
0000
0000
1000
0000
0000
0001
0000
,
0100
0000
0000
0100
0000
0000
0001
0000
,
0010
0001
1000
0010
,
1000
0001
0000
0000
1000
0001
0000
0000
,
0010
0000
0000
0010
0000
0000
0100
0000
,
1000
0000
0000
1000
0000
0000
0001
0000
,
0100
0010
0100
0001
,
0100
0010
0000
0000
0100
0010
0000
0000
,
1001
1000
1000
1000
,
0010
0000
0010
0100
,
0101
0001
0001
0001
,
1000
0000
0010
1000
,
0110
0010
0001
1000
,
1010
0001
0100
0010
,
1001
0000
0100
0100
,
0100
0000
0000
0000
0010
0000
0000
0000
1000
0000
0000
0000
0010
0000
0000
0000
0100
0000
0000
0000
0000
2002
0000
0000
,
0000
0000
3003
0010
,
0100
0010
0000
0100
0010
0000
1000
0000
,
0001
0000
0001
0000
,
0001
1000
0000
0001
1000
0000
0010
0000
,
0200
0001
1300
0110
,
1000
0001
0000
1000
0001
0000
0100
0000
,
0000
0100
0000
0100
,
0010
0100
0000
0010
0100
0000
0010
0000
,
2000
0100
3010
0110
,
0001
0000
0000
0001
0000
0000
0001
0000
,
0100
0000
0000
0100
0000
0000
0100
0000
,
0010
0000
0000
0010
0000
0000
0010
0000
,
2002
0000
0000
3003
,
1000
0000
0000
0100
0000
0000
0010
0000
,
0001
0000
0000
0100
0000
0000
0001
0000
,
1000
0000
0000
0010
0000
0000
0100
0000
,
0220
0000
0000
0000
0000
0330
0000
1001
,
0000
0000
0000
0000
0000
0000
0000
1001
0000
0000
0000
0000
0000
0000
0000
1001
,
0000
0000
0010
0010
,
0010
0000
0000
0000
0000
0000
0000
0110
0000
0000
0000
0000
0000
0000
0000
0110
,
0000
0000
0100
0100
,
0100
0000
0001
0010
,
0001
0000
1000
0010
,
1001
0000
0100
0010
,
0100
0000
0001
0110
,
0000
1000
0000
0010
0000
1000
0000
0001
,
0000
0100
0000
0001
0000
0010
0200
0000
,
0000
0000
0000
0300
,
0000
1000
0000
0010
0000
0100
0002
0000
,
0000
0000
0003
0010
0000
0001
0000
1000
,
0000
0010
0000
0100
0000
0001
2000
0000
,
0000
0000
0000
3100
0000
1000
0002
0000
,
0000
0010
0000
0010
0000
0013
0100
0000
,
0000
1000
0100
1000
,
0000
1000
0010
1000
,
0000
0001
0100
0001
,
0000
0001
0010
0001
,
0000
0100
0010
0100
,
0000
0001
1000
0001
,
0000
0100
0001
0100
,
0010
0000
1000
0000
0010
0100
0000
1001
,
0000
0000
0000
0000
0000
0000
0000
0110
0000
0000
0000
0000
0000
0000
0000
0110
,
0000
0000
1000
1000
,
1001
0000
0000
0000
0000
0000
0000
1001
0000
0000
0000
0000
0000
0000
0000
1001
,
0000
0000
0010
0010
,
0000
0100
0000
0001
0000
0100
0000
0001
,
0000
0010
0000
0100
0000
0010
0000
0100
,
0000
1000
0000
0001
0000
1000
0000
0001
,
0000
0100
0000
0010
0000
1000
0001
0000
,
1100
0000
0011
0000
,
1000
2002
0000
0000
,
3003
0000
0000
0000
;

//---------------dance-single - ----------------
#NOTES:
     dance-single:
     DIFFICULT:
     Medium:
     10:
     0.556109,0.564776,0.480487,0.211740,0.166949,478.000000,419.000000,59.000000,26.000000,0.000000,0.000000,0.556109,0.564776,0.480487,0.211740,0.166949,478.000000,419.000000,59.000000,26.000000,0.000000,0.000000:
1000
0000
0010
0000
1000
0000
0000
0102
0000
0000
0000
0000
0000
0000
0010
0000
,
0010
0000
0000
0103
0000
0000
0001
0000
0010
0000
0100
0000
1000
0000
0000
0000
,
0100
0000
0010
0000
0100
0000
0000
2010
0000
0000
0000
0000
0000
0000
0001
0000
,
0001
0000
0000
3010
0000
0000
0100
0000
1000
0000
0100
0000
0010
0000
0100
0000
,
0001
0010
0011
0000
1000
0010
1010
0000
,
0010
0000
0000
2002
0000
0000
0000
0000
0000
0000
0000
0000
3003
0000
0000
0000
,
0110
0000
0000
1100
0000
0001
0010
0000
,
0100
0001
0100
1000
0000
0100
0010
0001
,
0101
0000
0000
1001
0000
0010
1000
0010
,
0000
1100
0000
0010
0000
0101
0000
1000
,
0110
0000
0000
0011
0000
0100
0001
0000
,
0110
0000
0000
1001
0000
0010
1000
0100
,
0010
0000
0000
0001
0000
0000
0010
0000
0100
0000
0000
1000
0000
0000
0001
0000
,
0010
1100
0000
0010
0100
0011
0000
1000
,
0101
0000
0010
1000
0100
1000
0100
0010
,
0001
0000
0100
0001
0010
0001
0010
0100
,
0010
0000
0000
0100
0000
0000
1000
0000
0000
0001
0000
0000
0010
0000
0001
0000
,
0100
0000
0000
1010
0000
0000
0100
0000
0000
0011
0000
0000
1000
0000
0001
0000
,
1000
0100
0010
0001
0100
0001
0010
0100
,
0000
1000
0010
0001
0010
1000
0010
0100
,
0000
0001
0100
1000
0000
1000
0100
0001
,
0100
0000
0000
0000
0010
0000
0000
0000
1000
0000
0000
0000
0010
0000
0000
0000
0100
0000
0000
0000
0000
2002
0000
0000
,
0000
0000
0000
3003
,
1000
2000
0000
0010
3020
0000
0100
0230
,
0000
0001
0301
0010
0000
1100
0000
1001
,
0000
0001
0100
1000
0100
0001
1000
0010
,
0001
0000
0010
0100
0010
1001
0000
0010
,
0200
0000
0010
0320
0000
1000
2030
0000
,
0001
3002
0000
0100
0103
0001
0000
0110
,
0000
1000
0202
0000
0000
0000
0300
0000
,
1003
0001
0100
1000
0100
0001
1000
0010
,
0100
0001
0100
0010
0000
0100
1000
0100
,
0010
0000
0000
0001
0000
0000
0100
0000
0000
0000
0001
0000
0010
0000
0100
0000
,
1000
0000
0010
0000
0100
0000
0001
0000
0000
1000
0000
0000
0010
0000
0100
0000
,
0001
0000
0010
0000
0001
0000
0010
0000
0001
0000
0010
0000
0100
0000
0000
1001
0000
0000
0000
0000
0000
0100
0000
0000
,
0001
0010
0001
0100
0000
0010
1000
0001
,
0010
0000
0000
0001
0000
0000
0100
0000
0000
0000
0010
0000
1000
0000
0010
0000
,
0100
0010
0000
1000
0001
0100
1000
0100
,
0000
0010
0000
1000
0000
0001
0000
1000
0000
0010
0000
0100
0000
0000
1001
0000
,
0000
0000
0010
0000
0010
0000
0000
1100
0000
0000
0100
0000
0100
0000
0000
0011
,
0000
0000
0001
0000
0001
0000
0000
0000
1000
0000
0010
0000
1000
0000
0000
0110
,
0000
0000
0100
0000
0001
0000
0000
1010
0000
0000
0001
0000
1000
0000
0000
0110
,
0000
0000
0010
0000
0001
0000
1000
0000
0010
0000
0100
0000
0010
0000
0000
0101
,
0000
0010
0100
1000
0100
0010
0010
0000
,
0001
0000
0100
0000
1000
0000
0100
0000
0100
0000
0001
0000
0010
0000
0000
1100
,
0000
1000
0100
0010
0010
0001
0100
0000
,
0001
0010
0100
1000
0001
0100
0120
0000
,
0000
1030
0010
1000
0010
0200
0000
0001
,
0000
1000
0000
0001
0000
1300
0210
0000
,
0001
0000
0001
0000
0000
0301
0000
1001
,
0000
1000
0010
0001
0000
0010
0120
0000
,
0001
0000
1000
0000
0001
1030
0000
0110
,
0000
0001
0000
0110
0000
1000
0020
0001
,
0000
1000
0000
0031
0010
0100
0001
0100
,
0000
0010
1000
0100
0010
1002
0000
0000
,
0000
0013
0001
0010
0000
0001
0000
1010
,
0000
0100
0000
0110
0000
1000
0002
0000
,
0100
0000
0010
0013
0000
1001
0000
0110
,
0000
0010
1000
0100
0000
1000
2001
0000
,
0010
0000
0100
3100
1000
0001
0000
0011
,
0000
1100
0000
0110
0000
0010
2000
0000
,
0100
0000
0010
3010
0100
1000
0100
0010
,
0001
1000
0010
0100
0000
0101
0000
0011
,
0000
0000
1000
0000
1000
0000
0000
0101
0000
0000
0010
0000
0010
0000
0000
1100
,
0000
0000
0001
0000
0001
0000
1000
0000
0010
0000
1000
0000
0001
0000
0000
0110
,
0000
0000
1000
0000
1000
0000
0000
0101
0000
0000
0010
0000
0010
0000
0000
1100
,
0000
0001
0001
0100
1000
0100
0001
0100
,
0000
0010
0100
1000
0000
0100
0010
0001
,
0000
0000
0010
0000
1000
0000
0010
0000
1000
0000
0100
0000
0010
0000
0000
0011
,
0000
0001
0100
0010
0000
1000
0100
0010
,
0000
0001
0010
1000
0010
0001
0100
0000
,
0001
0001
0001
0000
1000
1000
1000
0000
,
0010
0000
0000
2002
0000
0000
0000
0000
0000
0000
0000
0000
0000
0000
0000
0000
,
3003
0000
0000
0000
;

//---------------dance-single - ----------------
#NOTES:
     dance-single:
     EXPERT:
     Hard:
     13:
     0.681757,0.653951,0.496775,0.097726,0.415337,586.000000,525.000000,61.000000,12.000000,0.000000,0.000000,0.681757,0.653951,0.496775,0.097726,0.415337,586.000000,525.000000,61.000000,12.000000,0.000000,0.000000:
1000
0000
0001
0000
1000
0010
0000
0200
0000
0000
0000
0000
0000
0000
0010
0000
,
0310
0000
0000
1000
0000
0000
0001
0000
0100
0000
1000
0000
0100
0010
0100
0000
,
0001
0000
0010
0000
0001
1000
0000
0020
0000
0000
0000
0000
0000
0000
0100
0000
,
0130
0000
0000
0010
0000
0000
1000
0000
0100
0000
0010
0000
0001
0000
0100
0001
,
0100
0001
0011
0000
0100
1000
1010
0000
,
0100
0001
2000
0002
0000
0000
0000
0000
0000
0000
0000
0000
3003
0000
0000
0000
,
0011
0000
1000
0010
0001
0010
0100
0000
,
0010
0000
0000
1000
0001
0000
0100
0000
0000
0001
1000
0000
0010
0000
0100
0000
,
0001
0010
0100
1000
0010
1000
0001
0100
,
0000
1010
1000
1100
0000
0101
0001
1001
,
0000
0010
0100
0001
0100
0000
0010
1000
,
0100
0000
0000
0010
0001
0000
1000
0000
0000
0010
0100
0000
0001
0000
0010
0000
,
0100
0000
1000
0010
0100
0001
0100
0010
,
0000
0110
0100
1100
0000
0011
0001
0101
,
1001
0000
0000
0000
1000
0100
1000
0000
0010
0000
0010
0000
0000
0000
0100
0001
,
0100
0000
0001
0000
0010
0001
0010
0000
0001
0000
0001
0000
0000
0000
0010
0000
,
0100
0000
1000
0000
0001
0100
0001
0000
1000
0000
1000
0000
0000
0000
0010
0100
,
0010
0000
1000
0100
0100
0100
0010
0001
,
1000
0000
0010
0000
0010
0100
0010
0000
0100
0000
0001
0010
0001
0000
0001
0000
,
0100
0000
0010
0000
1000
0010
1000
0000
0010
0000
0010
0100
0010
0000
0100
0000
,
0100
0001
0100
0000
0001
0000
1000
0000
0100
0000
0010
0000
0001
0000
0100
0000
,
0110
0000
0000
0000
1010
0000
0000
0000
1100
0000
0000
0000
0101
0000
0000
0000
0011
0000
0000
0000
0000
2002
0000
0000
,
0000
0000
0000
3003
,
0010
1000
0000
1000
0010
0000
1000
0000
0100
0000
0010
0000
0001
0000
0100
0000
,
0000
0001
0010
0100
0010
0001
1000
0010
,
0100
1000
0000
1000
0100
0000
0010
0000
0100
0000
0001
0000
0010
0000
0001
1000
,
0001
0000
0010
0000
0010
0000
0010
0100
0000
0000
1001
0000
0000
0000
0110
0000
,
0100
0001
0000
0001
0100
0000
0001
0000
1000
0000
0010
0000
0100
0000
0010
0000
,
0001
0010
0000
0100
0010
0100
1000
0100
,
0010
0001
0000
0001
0010
0000
0100
0000
0010
0000
1000
0000
0100
0000
0010
0000
,
0001
0100
0001
0000
0010
0000
0001
0000
1000
0010
1000
0000
0010
0000
0100
0000
,
0001
0000
0000
0010
0000
0000
0100
0000
1000
0000
0100
0000
0010
0000
0001
0000
,
0100
0000
0000
1000
0000
0000
0100
0000
0000
0010
0000
1000
0010
0000
1000
0000
,
0001
0000
0000
0100
0000
0000
0001
0000
0000
0010
0000
0000
0001
0000
1000
0000
,
0010
0000
1000
0000
0010
0000
1000
0000
0001
0000
0100
0000
0001
0000
0000
1001
0000
0000
0000
0000
0000
0110
0000
0000
,
1000
0000
0000
0100
0000
0000
0010
0000
0001
0000
0100
0000
0010
0000
1000
0000
,
0001
0000
0000
0010
0000
0000
0001
0000
0000
1000
0000
0010
1000
0000
0100
0000
,
0010
0000
0000
0001
0000
0100
0001
0000
0000
0010
0000
0100
1000
0000
1000
0001
,
0000
1000
0000
0010
0000
1000
0000
0001
0000
0100
0000
0001
0000
0000
1001
0000
,
0000
0000
1000
0000
0010
0000
0000
1010
0000
0000
0001
0000
0100
0000
0001
0010
,
0000
0000
0100
0000
0010
0000
0000
1001
0000
0000
0010
0000
0100
0010
0000
0110
,
0000
0000
0001
0000
0010
0000
0000
1100
0000
0000
0010
0000
0100
0001
0100
0001
,
0000
0000
0010
0000
0001
0000
1000
0001
0000
0000
0010
0000
0100
1000
0000
1001
,
0000
0010
0001
0100
1000
0100
0010
0000
,
0100
0000
0001
0000
0010
0000
0100
0000
1000
0000
0010
0000
0010
0100
0000
0101
,
0000
0000
1000
0000
0010
0000
0001
0000
0010
0000
0100
0000
0010
0000
0000
0110
,
0000
0000
1000
0000
0100
0000
0010
0000
0001
0000
0100
0000
0010
0100
0000
0000
,
0000
1000
1000
0001
1000
0100
0000
1010
,
0000
0101
0000
0110
0000
0001
2100
0000
,
0010
0000
0010
3010
0000
1001
0000
0110
,
0000
0100
0001
0010
0000
0100
1002
0000
,
0010
0000
0010
0013
0000
0101
0000
0011
,
0000
1010
0000
1100
0000
0010
0102
1000
,
1000
0000
0010
0013
0000
0100
1000
0100
,
0010
0001
0010
0000
0001
1000
0001
0000
0100
0000
0110
0000
0000
0000
1001
0000
,
0000
1000
0100
0010
0000
0011
0000
1010
,
0000
1100
0000
0110
0000
0001
1020
0000
,
1030
0000
0100
0000
0010
0001
0010
0000
0000
0000
0001
0100
0001
0000
0010
0000
,
0100
1000
0001
0010
0000
0100
0101
0000
,
1000
0000
0100
0000
0010
0001
0010
0000
0001
0000
0100
0000
0010
0000
1000
0000
,
0000
0110
0000
0011
0000
0100
2010
0000
,
3001
0000
0100
0000
0001
0010
0001
0000
0000
0000
1000
0010
1000
0000
0001
0000
,
0010
0100
1000
0010
0100
0101
0001
1001
,
0000
0000
0100
0000
0010
0000
0000
0101
0000
0000
0010
0000
1000
0000
0100
1000
,
0000
0000
0100
0000
0010
0000
0001
1000
0001
0000
0010
0000
0100
1000
0000
1001
,
0000
0000
0010
0000
0100
0001
0100
0001
0000
0000
0010
0000
0100
0000
1000
0010
,
1000
0000
0010
0000
0100
0000
0001
0010
0001
0000
0100
0000
0010
1000
0000
1000
,
0001
0010
1000
0010
0001
1000
0010
0001
,
0010
0000
1000
0000
0100
0000
0100
0000
1000
0000
0010
0000
0010
1000
0010
0000
,
1000
0100
0001
0100
1000
0001
0100
1000
,
0100
0000
0001
0000
1000
0000
0010
0000
0010
0000
0100
0000
0001
1000
0000
0000
,
1010
0000
1000
0000
1100
0000
0000
0000
0011
0000
0010
0000
0110
0000
1000
0100
,
0010
0001
0010
0200
0000
0000
0000
0000
0000
0000
0000
0000
0000
0000
0000
0000
,
0300
0000
0000
0000
;

//---------------dance-single - ----------------
#NOTES:
     dance-single:
     CHALLENGE:
     Challenge:
     16:
     0.745744,0.862027,0.561926,0.504919,0.712587,641.000000,572.000000,69.000000,62.000000,0.000000,0.000000,0.745744,0.862027,0.561926,0.504919,0.712587,641.000000,572.000000,69.000000,62.000000,0.000000,0.000000:
1000
0000
0010
0000
0100
0001
0000
0022
0000
0000
0000
0000
0000
0000
0000
0000
,
0000
0000
0000
0000
0000
0000
0033
0000
0000
1000
0100
1000
0010
1000
0001
1000
,
0100
0000
0010
0000
0001
1000
0000
2020
0000
0000
0000
0000
0000
0000
0000
0000
,
0000
0000
0000
0000
0000
0000
3030
0000
0000
0001
0010
0100
1000
0001
1000
0010
,
0100
0000
0101
0000
0011
0000
0000
0001
1000
0000
1010
0000
1100
0000
1000
0100
,
0010
0001
0020
2000
0000
0000
0000
0000
0000
0000
0000
0000
3030
0000
0000
0000
,
0010
0000
0000
0001
1000
0000
0010
0000
0000
1000
0001
0000
0000
0010
0100
0000
,
1000
0000
0000
0001
0100
0000
0010
0000
0000
1000
0010
1000
0000
0001
0100
0000
,
0010
1000
0000
1000
0010
0000
1000
0000
0000
0001
0100
0000
0010
0000
0100
0010
,
0000
0000
1010
0000
1000
0000
1100
0000
0000
0000
0011
0000
0001
0000
0001
1000
,
0001
0000
0000
0010
0100
0000
0010
0000
0000
0100
1000
0000
0000
0001
0010
0000
,
0100
0000
0010
0001
0010
0000
0100
0000
0000
1000
0001
0000
0100
0000
0010
0000
,
1000
0100
0000
0100
0010
0000
0100
0000
0000
0010
0001
0000
1000
0000
0010
0100
,
0000
0101
0001
1001
0000
1010
1000
1100
,
1001
0000
0010
0000
0100
0000
0010
1000
0000
1000
0100
0000
0010
0000
0001
0100
,
0000
0000
0010
0000
1000
0000
0100
0010
0000
0010
0001
0000
1000
0000
0010
0100
,
0010
1000
0200
0001
0000
1300
0020
0001
,
0000
0000
1030
0000
0001
0100
0001
0000
0010
0000
0100
1000
0100
1000
0010
0000
,
0100
0001
0100
0000
0001
0000
0010
0001
0010
0000
0011
0000
0000
0000
2010
0000
,
0000
3001
0020
1000
0000
0031
0200
1000
,
0000
0000
0301
0000
1000
0000
0010
0000
0001
0000
1000
0010
1000
0000
0001
0000
,
0101
0000
0000
0000
1001
0000
0000
0000
1010
0000
0000
0000
0110
0000
0000
0000
0101
0000
0000
0000
0000
1001
0000
0000
,
1000
0100
0010
0001
0100
0010
0100
0001
0010
0100
0010
1000
0010
0001
0100
0010
,
0200
0000
0000
0001
0000
0000
0310
0000
0100
0000
1000
0000
0100
0000
0010
0000
,
1000
0001
0100
1000
0000
0101
0000
0010
,
1000
0000
0100
0000
0011
0000
1000
0000
0020
0000
0000
0130
0000
0001
0010
0001
,
1000
0000
0100
0000
1000
0000
0010
1000
0000
0000
0101
0000
0000
0000
0110
0000
,
2001
0000
0000
0100
0000
0000
3010
0000
1000
0000
0001
0000
0010
0000
0100
0000
,
0010
0001
1000
0010
0001
0010
0000
2100
,
0000
3001
0200
0000
0310
1000
0100
1001
,
0100
0010
0100
0010
0001
0010
0001
1000
0010
1000
0001
0000
0100
0001
0010
0000
,
0120
0000
0000
1030
0000
0100
1000
0000
0010
0000
0100
0000
0001
0000
1001
0000
,
0100
0000
0010
0000
0001
0100
0000
0100
0010
0000
1000
0001
2000
0000
0010
0000
,
3010
0000
0100
0000
0002
0000
0000
0013
0000
0001
1000
0000
1200
0000
0000
0000
,
1300
0000
0000
0000
0100
0000
0000
0000
0001
0000
0000
0000
1000
0000
0000
0000
0010
0000
0000
0000
0001
0000
0000
0000
0100
0000
0000
0000
0000
0000
0010
0000
0000
1000
0000
0000
0010
0000
0000
0000
0000
0000
0101
0000
0000
0000
0000
0000
,
1002
0000
0000
0103
0000
0001
0010
0000
0100
0000
0010
0000
0001
0000
1000
0000
,
0010
0000
0100
0000
0001
0000
0200
0000
0000
0310
0000
1000
0100
0000
0012
0000
,
0000
0000
1003
0000
0020
0000
0000
0100
0030
0001
0010
0000
0100
0000
1000
0001
,
1000
0010
0000
0010
0000
0010
0000
0010
0000
0010
0000
0100
0010
0000
2001
0000
,
0000
0000
3001
0000
0100
0010
0000
2010
0000
0000
3010
0000
0100
0001
0000
0021
,
0000
0000
0031
0000
1000
0100
0000
0010
0000
0001
0100
0000
0010
1000
0010
0200
,
0000
0000
0301
0000
0010
0001
0000
1002
0000
0000
0013
0000
0001
0100
0000
0210
,
0000
0000
0310
0000
1000
0100
0000
0110
0000
0010
0001
1000
0001
1000
0000
0102
,
0000
0000
0013
0000
0001
1000
0010
2000
0000
0000
3100
0000
0010
0001
0010
0200
,
0000
0000
0310
0000
1000
0010
0001
0020
0000
0000
0130
0000
0010
0000
0100
0002
,
0000
0000
1003
0000
0001
0010
0100
0020
0000
0000
0031
0000
1000
0001
0000
0001
,
1000
0000
0010
0000
0100
0010
0000
0010
0100
0000
0001
0010
0200
1000
0000
0000
,
0300
1000
0010
0100
0001
0100
1000
0102
,
0000
1000
0000
0010
0000
1003
0220
0000
,
0000
0000
0000
0000
0000
0000
0330
2001
,
0000
3001
0010
0200
0000
0310
2200
0000
,
0000
0000
3300
1000
0010
0120
0000
0001
,
0000
1000
0000
0001
0000
1030
0220
0000
,
0000
0000
0330
0201
0000
0301
1000
0100
,
0010
0000
0001
0000
0100
0001
0100
0000
0010
1000
0002
0000
0000
0000
0000
0000
,
0003
1000
0010
0001
1000
0100
0001
0100
,
0000
0000
1100
0000
0000
0000
0010
0000
0000
0000
0011
0000
1001
0000
0100
0010
,
0100
0010
0002
1000
0000
1000
0000
1003
,
0000
0001
0100
0011
0000
0100
2010
0000
,
0001
0000
0000
0000
0001
0000
3001
1000
0100
0000
0110
0000
0000
0000
0100
0000
,
0000
0201
0000
1000
0000
0301
0120
0000
,
0031
1000
0010
0200
0000
0310
0001
0010
,
0100
0000
1000
0000
0100
0001
0100
0000
0010
0000
1001
0000
0000
0000
0120
0000
,
0000
0000
1030
0000
0010
1000
0000
2100
0000
0000
3010
0000
0100
0001
0000
0012
,
0000
0000
0013
0000
0100
0010
0000
1010
0000
1000
0001
1000
0010
1000
0000
1002
,
0000
0000
0103
0000
0010
0000
0001
0010
0000
1010
0000
1000
0100
0010
0001
0200
,
0000
0000
0301
0000
0010
0000
0001
1000
0000
1000
0100
0010
0100
0010
0000
0011
,
0000
0000
0001
0000
1000
0000
0010
0001
0010
0000
1000
0000
0010
0000
0100
0010
,
0100
0000
0001
0000
0010
0000
0001
0010
0100
0000
0100
1000
0010
1000
0000
0210
,
0000
0000
0301
0000
0010
0000
0100
0010
0001
0000
0010
0000
0100
0000
1000
0100
,
0001
0100
1000
0100
1000
0010
0001
0010
0100
1000
0100
1000
0100
0010
0000
0000
,
0101
0000
0001
0000
0011
0000
0000
1000
0010
0000
1010
0000
1000
0000
1000
0100
,
0010
0001
2000
0002
0000
0000
0000
0000
0000
0000
0000
0000
0000
0000
0000
0000
,
3003
0000
0000
0000
;

//---------------dance-single - ----------------
#NOTES:
     dance-single:
     BEGINNER:
     Beginner:
     5:
     0.209413,0.237801,0.114014,0.081439,0.000000,180.000000,166.000000,14.000000,10.000000,0.000000,0.000000,0.209413,0.237801,0.114014,0.081439,0.000000,180.000000,166.000000,14.000000,10.000000,0.000000,0.000000:
// measure 0
1000
0000
1000
0000
,  // measure 1
0001
0000
0000
0000
,  // measure 2
0001
0000
0001
0000
,  // measure 3
1000
0000
0000
0000
,  // measure 4
0110
0000
0110
0000
,  // measure 5
2002
0000
0000
3003
,  // measure 6
1000
1000
1000
1000
,  // measure 7
1000
0000
1000
0000
,  // measure 8
0001
0001
0001
0001
,  // measure 9
0001
0000
0110
0000
,  // measure 10
1000
1000
1000
0000
,  // measure 11
1000
0000
0000
0000
,  // measure 12
0001
0001
0001
0000
,  // measure 13
0110
0000
1001
0000
,  // measure 14
0100
0000
0100
0100
,  // measure 15
0100
0000
0010
0010
,  // measure 16
0010
0000
1000
1000
,  // measure 17
1000
0000
0001
0001
,  // measure 18
0001
0000
0010
0100
,  // measure 19
0010
0000
0100
1000
,  // measure 20
0100
0000
1000
0001
,  // measure 21
2002
0000
0000
3003
,  // measure 22
0000
0000
0000
0000
,  // measure 23
0010
0010
0010
0000
,  // measure 24
0010
0100
0001
0000
,  // measure 25
0001
0001
0001
0000
,  // measure 26
0001
1000
0010
0000
,  // measure 27
0110
0000
1000
1000
,  // measure 28
0010
0000
0100
0100
,  // measure 29
0001
0000
0010
0010
,  // measure 30
0100
0000
1000
0001
,  // measure 31
0100
0001
0100
0010
,  // measure 32
0000
1000
0010
0100
,  // measure 33
0000
0001
0100
0010
,  // measure 34
2002
0000
0000
3003
,  // measure 35
0000
1000
0010
1000
,  // measure 36
0000
0001
0100
0001
,  // measure 37
0000
1000
0001
1000
,  // measure 38
0220
0000
0000
0330
,  // measure 39
0000
0100
0100
0000
,  // measure 40
0100
0100
0000
0010
,  // measure 41
0100
0100
0000
0100
,  // measure 42
0100
0000
0100
0100
,  // measure 43
0010
0000
0010
0000
,  // measure 44
0010
0000
0000
0000
,  // measure 45
0100
0000
0100
0000
,  // measure 46
0100
0000
0000
1001
,  // measure 47
0010
0000
0010
0000
,  // measure 48
0010
0000
0000
1000
,  // measure 49
0000
1000
0000
1000
,  // measure 50
0000
0000
0000
0001
,  // measure 51
0000
0001
0000
0001
,  // measure 52
0000
0000
0000
0000
,  // measure 53
0100
0000
0100
0000
,  // measure 54
0100
0000
0000
0000
,  // measure 55
0010
0010
0010
0010
,  // measure 56
0010
0000
0000
0100
,  // measure 57
0100
0100
0100
0100
,  // measure 58
0000
0000
0000
0001
,  // measure 59
0001
0001
0001
0001
,  // measure 60
0000
0000
0000
0000
,  // measure 61
1000
0000
0000
0000
,  // measure 62
1000
0000
0000
0000
,  // measure 63
0000
0010
0010
0000
,  // measure 64
0010
0010
0000
0100
,  // measure 65
0010
0010
0000
0010
,  // measure 66
0010
0000
0010
0010
,  // measure 67
0000
1000
0000
1000
,  // measure 68
0000
0001
0000
0001
,  // measure 69
0000
1000
0000
1000
,  // measure 70
0000
0001
0000
0001
,  // measure 71
1001
0000
0110
0000
,  // measure 72
2002
0000
0000
0000
,  // measure 73
3003
0000
0000
0000
;
