#TITLE:Somebody Like You;
#SUBTITLE:;
#ARTIST:good-cool;
#TITLETRANSLIT:;
#SUBTITLETRANSLIT:;
#ARTISTTRANSLIT:;
#GENRE:POPS;
#CREDIT:YonabearCWY;
#BANNER:Somebody Like You.png;
#BACKGROUND:Somebody Like You-bg.png;
#LYRICSPATH:;
#CDTITLE:Beatmania IIDX.png;
#MUSIC:Somebody Like You.ogg;
#OFFSET:-9.705000;
#SAMPLESTART:71.133011;
#SAMPLELENGTH:15.450000;
#SELECTABLE:YES;
#BPMS:0.000000=124.999992
;
#STOPS:191.000000=0.475000
;
#BGCHANGES:0.000=discoball1.mp4=1.000=1=0=1===CrossFade==,
4.000=discoball2.mp4=1.400=0=0=1=====,
8.000=ring8.mp4=1.600=0=0=1=====,
13.000=discoball2.mp4=1.000=0=0=1=====,
16.000=wires1.mp4=1.000=0=0=1=====,
20.000=lady9.mp4=1.000=0=0=1=====,
24.000=lady5.mp4=1.400=0=0=1=====,
28.000=lady4.mp4=1.000=0=0=1=====,
32.000=kaliedoscope5.mp4=1.000=0=0=1=====,
40.000=lady20.mp4=1.000=0=0=1=====,
48.000=feather1.mp4=1.000=0=0=1=====,
56.000=lady3.mp4=1.000=0=0=1=====,
64.000=kaliedoscope5.mp4=1.000=0=1=1=StretchRewind====,
68.000=fireworks2.mp4=1.000=0=0=1=====,
72.000=lady20.mp4=1.000=0=1=1=StretchRewind====,
76.000=fireworks2r.mp4=1.000=0=0=1=====,
80.000=feather1.mp4=1.000=0=1=1=StretchRewind====,
84.000=fireworks2.mp4=1.000=0=1=1=StretchRewind====,
88.000=lady3.mp4=1.000=0=1=1=StretchRewind====,
92.000=fireworks2r.mp4=1.000=0=1=1=StretchRewind====,
96.000=disco3.mp4=1.000=0=0=1=====,
104.000=disco4.mp4=1.000=0=0=1=====,
112.000=disco1.mp4=1.000=0=0=1=====,
120.000=lady5.mp4=1.400=0=1=1=StretchRewind====,
124.000=lady4.mp4=1.000=0=1=1=StretchRewind====,
128.000=lady18.mp4=1.000=0=0=1=====,
132.000=lady19.mp4=1.000=0=0=1=====,
133.000=lady18.mp4=1.000=0=0=1=====,
133.750=lady19.mp4=1.000=0=0=1=====,
136.000=lady20.mp4=1.000=0=1=1=StretchRewind====,
140.000=lady9.mp4=1.000=0=1=1=StretchRewind====,
144.000=lady19.mp4=1.000=0=1=1=StretchRewind====,
148.000=lady18.mp4=1.000=0=1=1=StretchRewind====,
149.000=lady19.mp4=1.000=0=0=1=====,
149.750=lady18.mp4=1.000=0=0=1=====,
152.000=lady20.mp4=1.000=0=1=1=StretchRewind====,
156.000=lady9.mp4=1.000=0=1=1=StretchRewind====,
157.750=lady9.mp4=0.100=0=0=1=====,
158.500=lady3.mp4=0.100=0=1=1=StretchRewind====,
159.250=lady3.mp4=2.000=0=0=1=====,
160.000=disco3.mp4=1.000=0=1=1=StretchRewind====,
168.000=disco4.mp4=1.000=0=1=1=StretchRewind====,
176.000=disco1.mp4=1.000=0=1=1=StretchRewind====,
184.000=ring8.mp4=1.600=0=1=1=StretchRewind====,
191.000=ring8.mp4=0.100=0=0=1=====,
191.500=discoball1.mp4=1.000=0=1=1=StretchRewind====,
195.000=discoball2.mp4=1.000=0=1=1=StretchRewind====,
199.000=lady5.mp4=1.400=0=1=1=StretchRewind====,
203.000=lady4.mp4=1.000=0=1=1=StretchRewind====,
206.500=Somebody Like You-bg.png=1.000=0=0=1=====,
99999=-nosongbg-=1.000=0=0=0 // don't automatically add -songbackground-
;
#KEYSOUNDS:;
#ATTACKS:;

//---------------dance-double - ----------------
#NOTES:
     dance-double:
     CHALLENGE:
     Challenge:
     14:
     0.000000,0.000000,0.000000,0.000000,0.000000,0.000000,0.000000,0.000000,0.000000,0.000000,0.000000,0.000000,0.000000,0.000000,0.000000,0.000000,0.000000,0.000000,0.000000,0.000000,0.000000,0.000000:
00012000
00000000
00000000
00000000
00103000
00000000
00010000
00000000
01000000
10000000
01000000
00000000
00010000
00000000
00100000
00010000
,
00100000
00000000
00000000
00001000
00000000
00000000
00010000
00000000
00000000
00001000
00000000
00000000
00000100
00000000
00000000
00000020
00000000
00000000
00000000
00000000
00000000
00000130
00000001
00000010
,
00000001
00000000
00001000
00000010
00001000
00000010
00000000
00001000
00000100
00000000
00010000
00000100
00010000
00000000
00001000
00000000
,
00100000
00000000
01000000
00000000
10000000
00010000
00000000
00100000
01000000
00100000
01000000
10000000
00100000
10000000
00100000
01000000
,
00000000
01000000
00100000
00010000
00001000
00010000
00000100
00001000
,
00000000
00000000
00001000
00000010
00000000
00000000
00000101
00000000
00000000
00000000
00000010
00000100
00000000
00000100
00001000
00000000
,
00000100
00001000
00100000
00010000
00001000
00010000
01000000
00100000
,
10010000
00000000
01000000
00000000
00000000
00100000
00000000
00000000
01100000
00000000
00000000
01000000
00000000
00100000
00000000
00001000
,
00020000
00000000
00031000
00000100
00001000
00010000
00000100
00010000
,
00000010
00000000
00000100
00000001
00000100
00000000
00000001
00000000
00000010
00000000
00000100
00001000
00000200
00000000
00000000
00000000
,
00000000
00010300
00001000
00000100
00001000
00010000
00100000
01000000
,
00010000
00000000
10000000
00010000
10000000
00000000
01000000
00000000
00100000
00000000
00010000
01000000
00010000
00000000
00200000
00000000
,
00000000
00301000
00010000
00000100
00000010
00000100
00010000
00001000
,
00000100
00000000
00000010
00000000
00000100
00000000
00001000
00000000
00000001
00000000
00000100
00000001
00000100
00000000
00000012
00000000
,
00000000
00001003
00000010
00010000
00001000
00010000
00000100
00001000
,
00010000
00000000
00100000
00000000
01000000
10000000
01000000
10000000
00010000
00000000
01000000
00100000
01000000
00100000
00000000
01000000
,
00001000
00100000
00001000
00010000
00001000
00000100
00000010
00000100
,
00001000
00000000
00000100
00000001
00000100
00000000
00000010
00000000
00001000
00000000
00000100
00010000
00000100
00000000
00002000
00000000
,
00000000
00003100
00010000
00001000
00010000
00100000
01000000
00100000
,
00010000
00000000
00100000
01000000
00100000
00000000
10000000
00100000
00000000
00100000
01000000
00000000
00010000
00000000
00200000
00000000
,
00000000
00000000
00301000
00000000
00100000
00000000
00010000
01000000
00010000
00000000
00100000
00000000
00001000
00000000
00010000
00000100
,
00010000
00000000
00001000
00000000
00010000
00000000
00000100
00001000
00000100
00001000
00000000
00000010
00000100
00000000
00002001
00000000
,
00000000
00000000
00003100
00000000
00000010
00000000
00000100
00001000
00000100
00000000
00010000
00000000
00001000
00000000
00010000
00000000
,
01000000
00000000
00100000
00010000
00100000
00010000
00000000
10000000
00000000
00100000
01000000
00000000
00010000
00000000
10000000
00010000
,
20000000
00100000
00000000
01000000
00000000
30010000
00000000
01000000
,
01002000
00000000
00000000
00000000
00000000
00000000
00103000
00000000
00000000
00001000
00000000
00000000
00021000
00000000
00000000
00000000
00000000
00000000
00000000
00000000
00000000
00030100
00010000
00000100
,
00001000
00000100
00000010
00000001
00001000
00001000
00001000
00000010
,
00000100
00000000
00000001
00000000
00000001
00000000
00000001
00000000
00000010
00000000
00001100
00000000
00000000
00001010
00000000
00001000
,
00000002
00000100
00000000
00000010
00000000
00001003
00000000
00000010
,
00020010
00000000
00000000
00000000
00000000
00000000
00030100
00000000
00000000
00010000
00000000
00000000
00012000
00000000
00000000
00000000
00000000
00000000
00000000
00000000
00000000
00103000
00010000
01000000
,
00020000
00000000
00000000
00000000
10030000
00000000
01000000
00000000
00100000
00000000
00010000
00100000
00010000
00100000
02000000
00000000
,
00000000
10000000
00000000
00010000
00000000
13000000
20020000
00000000
,
30030000
00000000
01000000
00010000
00000000
00010000
00100000
00000000
00001000
00000000
00010000
00000000
00000100
00010000
00000100
00000000
,
00001100
00000000
00001000
00000000
00001001
00000000
00000000
00000011
00000000
00000010
00000100
00000000
00001000
00000100
00001000
00000200
,
00000000
00010300
00001000
00100000
01000000
10000000
00100000
00010000
,
00001000
00000000
00001000
00000000
00001000
00000000
00000000
00011000
00000000
00000000
00010010
00000000
00000000
00000110
00000000
00000000
,
00000100
00000000
00000001
00000010
00000000
00000010
00000100
00000000
00001000
00000000
00000010
00000000
00010000
00001000
00010000
00000000
,
00011000
00000000
00001000
00000000
00101000
00000000
00000000
01100000
00000000
00000000
11000000
00000000
00000000
01010000
00000000
00000000
,
00100000
00001000
00010000
00000100
00000010
00000001
00001000
00000010
,
00000100
00000000
00000100
00000000
00000100
00000000
00000000
00001001
00000000
00000000
00000110
00000000
00000000
00000001
00001000
00000000
,
00002010
00000000
00000000
00000000
00003100
00010000
00000100
00010000
00001000
00000000
00010000
00000000
01000000
00000000
00100000
00000000
,
01000000
00000000
00000000
00000000
00000000
00000000
10000000
00000000
00000000
01000000
00000000
00000000
10000000
00000000
00000000
01000000
00000000
00000000
00000000
00000000
00000000
00100000
00000000
00000000
00020000
00000000
00000000
00000000
00000000
00000000
01000000
00000000
00000000
00000000
00000000
00000000
00000000
00000000
00000000
00000000
00000000
00000000
01030000
00000000
00010000
00000000
00100000
00000000
,
00002000
00000000
00000000
00000000
00013000
00000100
00000000
00000100
00001000
00000000
00000010
00001000
00000000
00000100
00000000
00001000
,
00000001
00000000
00000010
00000000
00000001
00000100
00000001
00000100
00000010
00000000
00001000
00000000
00000100
00000000
00000100
00000000
,
00021000
00000000
00000000
00000000
00031000
00100000
00001000
00000000
01000000
00000000
00100000
10000000
00100000
00000000
10000000
00000000
,
01000000
00000000
00000000
00000000
00000000
00000000
01000000
00000000
00000000
00000000
00000000
00000000
00100000
00000000
00000000
00010000
00000000
00000000
00000000
00000000
00000000
00010000
00000000
00000000
02000000
00000000
00000000
00000000
00000000
00000000
00010000
00000000
00000000
00000000
00000000
00000000
00000000
00000000
00000000
00000000
00000000
00000000
03100000
00000000
01000000
00000000
00001000
00000000
,
01000000
00000000
00001000
00100000
00001000
00100000
00001000
00010000
00001000
00010000
00000000
00010000
00000100
00000000
00001000
00000100
,
00001000
00000000
00000000
00000000
00000000
00000000
00000000
00000000
00000000
00000000
00000000
00000000
00000000
00000000
00000000
00000000
00000000
00000000
00000000
00000000
00000000
00000000
00000000
00000000
00000010
00000000
00000000
00000000
00000000
00000000
00000000
00000000
00000000
00000000
00000000
00000000
00000000
00000000
00000000
00000000
00000000
00000000
00000000
00000000
00000000
00000000
00000000
00000000
00000100
00000000
00000000
00000000
00000000
00000000
00000000
00000000
00000000
00000000
00000000
00000000
00000001
00000000
00000000
00000000
00000000
00000000
00000000
00000000
00000000
00000000
00000000
00000000
00000000
00000000
00000000
00000000
00000000
00000000
00000000
00000000
00000000
00000000
00000000
00000000
00000001
00000000
00000000
00000000
00000000
00000000
00000000
00000000
00000000
00000000
00000000
00000000
00000010
00000000
00000000
00000000
00000000
00000000
00000000
00000000
00000000
00000000
00000000
00000000
00000100
00000000
00000000
00000000
00000000
00000000
00000000
00000000
00000000
00000000
00000000
00000000
00002000
00000000
00000000
00000000
00000000
00000000
00000000
00000000
00000000
00000000
00000000
00000000
00000000
00000000
00000000
00000000
00000000
00000000
00000000
00000000
00000000
00000000
00000000
00000000
00000000
00003000
00000000
00000000
00000000
00000000
00000000
00000000
00000000
00000000
00000000
00000000
00000000
00000000
00000000
00000000
00000000
00000000
00000000
00000000
00000000
00000000
00000000
00000000
00010000
00000000
00000000
00000000
00000000
00000000
00000000
00000000
00000000
00000000
00000000
00000000
00000000
00000000
00000000
00000000
00000000
00000000
00000000
00000000
00000000
00000000
00000000
00000000
,
00001000
00100000
01000000
10000000
00010000
01020000
00000000
10000000
,
00000000
00100000
00000000
10030000
00100000
02100000
00000000
03001000
,
00100000
00010000
00001000
00000100
00000010
00001000
00000010
00000001
,
00000100
00000000
00000000
00001001
00000000
00000010
00000100
00000000
00010000
00000000
00011000
00000000
00000000
00000000
00000000
00000000
;

//---------------dance-single - ----------------
#NOTES:
     dance-single:
     BEGINNER:
     Beginner:
     3:
     0.000000,0.000000,0.000000,0.000000,0.000000,0.000000,0.000000,0.000000,0.000000,0.000000,0.000000,0.000000,0.000000,0.000000,0.000000,0.000000,0.000000,0.000000,0.000000,0.000000,0.000000,0.000000:
0000
1000
0000
1000
,
0000
1000
0000
0000
,
0000
0001
0000
0001
,
0000
0001
0000
0000
,
0100
0000
0100
0000
,
0100
0000
0000
0000
,
0010
0000
0010
0000
,
0010
0000
0000
0000
,
0000
1000
1000
0000
,
1000
0000
0000
0000
,
0001
0001
0000
0001
,
0001
0000
0001
0000
,
0110
0000
0100
0000
,
0010
0000
0110
0000
,
1001
0000
0000
0000
,
1000
1000
1000
0000
,
0000
0001
0000
0001
,
0001
0000
1000
1000
,
1000
0000
1000
0000
,
0001
0000
0001
0000
,
1001
0000
0000
0000
,
1000
0000
0001
0000
,
1000
0000
0010
0000
,
0100
0000
0010
0000
,
1001
0000
0000
0000
,
0010
0010
0010
0000
,
0110
0000
0000
0000
,
0100
0100
0100
0000
,
1001
0000
0000
0000
,
0001
0001
0001
0000
,
0110
0000
0000
0000
,
0100
0100
0100
0000
,
0000
0100
0000
0100
,
0000
0100
0000
0100
,
0000
0010
0010
0000
,
0000
0010
0010
0000
,
0000
1000
0000
1000
,
0000
1000
0000
1000
,
0000
0100
0100
0000
,
0110
0000
0000
0000
,
0000
0001
0001
0000
,
0001
0001
0000
0000
,
1000
0000
0000
0000
,
0100
0000
0000
0000
,
0000
0010
0010
0000
,
0000
0010
0010
0000
,
0001
0000
0000
0000
,
0000
0001
0000
0000
,
1000
1000
1000
1000
,
0000
0000
0000
0000
,
0001
0001
0001
0001
,
0000
0000
0000
0000
0000
1001
0000
0000
;

//---------------dance-single - ----------------
#NOTES:
     dance-single:
     BASIC:
     Easy:
     5:
     0.000000,0.000000,0.000000,0.000000,0.000000,0.000000,0.000000,0.000000,0.000000,0.000000,0.000000,0.000000,0.000000,0.000000,0.000000,0.000000,0.000000,0.000000,0.000000,0.000000,0.000000,0.000000:
0000
1000
0000
1000
,
0001
0001
1000
0001
,
2002
0000
0000
0000
,
0000
0000
3003
0000
,
0000
0010
0000
0010
,
0100
0100
0100
0100
,
0000
0010
0000
0010
,
1001
1001
0100
0010
,
2002
0000
0000
3003
,
0010
0100
1000
0100
,
0010
0000
0010
0000
,
0100
0000
0100
0000
,
2020
0000
3030
0000
0000
0202
0000
0303
,
0000
0000
0010
0100
,
1000
1000
0001
0001
,
1000
0000
0001
0000
,
0220
0000
0000
0330
,
1000
0100
0001
0100
,
1000
0000
1000
0000
,
0001
0000
0001
0000
,
0202
0000
0303
0000
0000
2020
0000
3030
,
0000
0000
0100
0010
,
0001
0001
1000
1000
,
0110
0110
1000
0001
,
0220
0000
0000
0330
,
1000
0100
0001
0010
,
2002
0000
0000
3003
,
0010
0100
1000
0001
,
2200
0000
0000
3300
,
0001
0010
1000
0100
,
0022
0000
0000
0033
,
1001
0000
0000
0000
,
0000
1000
1000
1000
,
0000
0001
0001
0001
,
0010
0000
0010
0000
,
0100
0000
0100
0000
,
0000
0010
0010
0010
,
0000
0100
0100
0100
,
1000
0000
1000
0000
,
0001
0000
1001
0000
,
0110
0000
0010
0000
,
0010
0000
0010
0000
,
0022
0000
0000
0000
,
0000
0033
0100
0010
,
1100
0100
0000
0100
,
0000
0100
0100
0000
,
2020
0000
0000
0000
,
0000
0000
3030
0000
,
0001
0000
0001
0001
,
1000
0000
1000
0000
,
1000
0000
1000
1000
,
0000
0001
0000
0000
0000
1001
0000
0000
;

//---------------dance-single - ----------------
#NOTES:
     dance-single:
     DIFFICULT:
     Medium:
     8:
     0.000000,0.000000,0.000000,0.000000,0.000000,0.000000,0.000000,0.000000,0.000000,0.000000,0.000000,0.000000,0.000000,0.000000,0.000000,0.000000,0.000000,0.000000,0.000000,0.000000,0.000000,0.000000:
0101
0000
1000
0200
0000
0000
1300
0100
,
1000
0000
0001
0100
0002
0000
1003
0000
,
0220
0000
0000
0000
,
0000
0000
0330
0000
0001
1000
0001
1000
,
0000
0010
0000
0010
0000
0100
0000
0220
,
0000
0000
0000
0000
0000
0000
0000
0330
,
0000
1000
0001
2002
0000
0000
3003
0000
,
0110
0010
1001
1000
,
0001
0000
0010
0001
0010
0000
0100
0000
,
1000
0100
1000
0000
0100
0010
0001
0000
,
2000
0010
0100
3010
,
0002
1000
0010
0103
,
0000
0001
0010
0001
0000
1000
0010
0100
,
0000
0001
1000
0001
0100
0000
1001
0000
,
0010
0000
1000
0000
0100
0000
1000
0001
,
0010
0000
0100
1000
0100
0000
0010
0001
,
0100
0000
0010
1000
0010
0000
0100
0000
,
0001
0000
0010
0001
0010
0000
0100
0000
,
0020
1000
0100
0031
,
0200
0010
1000
0301
,
0000
1000
0100
1000
0000
0010
0100
0001
,
0000
0010
0001
0010
0000
0100
1000
0001
,
0100
0010
1000
0001
,
1001
0110
1000
0100
,
0210
0001
1000
0001
,
1000
0000
1000
1000
2000
0000
3300
0000
,
0120
1000
0001
1000
,
0001
0000
0001
0001
0002
0000
0033
0000
,
1000
0010
2000
0000
0100
0000
0010
0010
,
0020
3030
0100
1001
,
0010
0000
0001
0100
0002
0000
0010
0013
,
0220
0000
0000
0330
,
1000
0010
0100
0000
0100
0001
0010
0000
,
1100
0000
0000
0000
0101
0000
0000
2002
0000
0000
0000
0000
0000
0000
3003
0000
,
0000
0010
0000
0001
0000
0100
0000
1000
,
0100
0000
0010
0000
0100
0000
0000
0011
0000
0000
2002
0000
0000
0000
3003
0000
,
0010
0100
1000
0000
0001
0100
0010
0000
,
0011
0000
0000
0000
1010
0000
0000
0220
0000
0000
0000
0000
0000
0000
0330
0000
,
0000
1000
0000
0010
0000
0001
0000
0010
,
0100
0000
0001
0000
1000
0000
0000
1100
0000
0000
0202
0000
0000
0000
0303
0000
,
0000
0010
0000
0010
0000
0010
0100
0001
,
0000
0001
0000
0001
2000
0000
3010
0000
,
2002
0000
0000
0000
,
0000
0000
3003
0000
0100
0010
0100
0100
,
1001
0001
0000
0001
0000
0001
0100
1000
,
0000
1000
0000
1000
0200
0000
0301
0000
,
0220
0000
0000
0000
,
0000
0000
0000
0000
0330
0000
0000
1000
,
0010
0220
0000
0000
0330
0000
0001
0100
,
0001
0000
0000
0010
0000
0000
0100
0000
1000
0000
0100
0000
0000
0000
0010
0000
,
0001
2002
0000
0000
3003
0000
1000
0010
,
1000
0000
0000
0001
0000
0000
0010
0000
0100
0000
1001
0000
0000
0000
0000
0000
;

//---------------dance-single - ----------------
#NOTES:
     dance-single:
     EXPERT:
     Hard:
     10:
     0.000000,0.000000,0.000000,0.000000,0.000000,0.000000,0.000000,0.000000,0.000000,0.000000,0.000000,0.000000,0.000000,0.000000,0.000000,0.000000,0.000000,0.000000,0.000000,0.000000,0.000000,0.000000:
0001
0000
0100
0001
0000
1000
0010
0000
,
0100
0010
0001
0010
0000
0100
0100
0000
,
1001
0000
0100
0010
0000
0001
1000
0010
,
1000
0000
0100
0000
1000
0000
0001
0000
0100
0010
0000
0000
1000
0001
0000
0000
,
0010
0100
1000
0202
0000
0000
0000
0303
,
0000
0011
0000
1000
0000
1010
0000
0001
,
0000
0010
0100
2200
0000
0000
3300
0000
,
1001
0000
0100
0000
0000
0010
0000
0000
0100
0000
0000
0001
0000
1000
0000
0000
,
0002
0000
1000
0000
0010
0000
0103
0010
,
2000
0000
0100
0000
3001
1000
1001
0000
,
0010
0001
0100
0000
1000
0100
0001
0000
,
0100
0010
1000
0100
0010
0000
1001
0000
,
0010
0001
0100
0001
0001
0000
1000
0000
,
0001
1000
0010
1000
1000
0000
0110
0000
,
1000
0010
0001
0000
0010
0100
0001
0000
,
1000
0010
0100
0001
0100
0000
1001
0000
,
0020
0000
1000
0000
0001
0000
0130
0010
,
1000
0100
0010
0001
0100
0000
0011
0000
,
0200
0000
0001
0000
1000
0000
0310
0100
,
0001
0100
1000
0100
0010
0000
1100
0000
,
0001
1000
0100
0010
0010
0000
1010
0000
,
0001
0010
0100
1000
1000
0000
0101
0000
,
0010
0001
1000
0000
0100
0010
0001
0000
,
0010
0001
0100
1000
0100
0001
0010
0001
,
2000
0000
0000
0000
0010
0000
0000
0100
0000
0000
3010
0000
0100
0000
0010
0000
,
1002
0203
0020
0330
,
0001
0000
0010
0000
0100
0000
0000
1000
0000
0000
0010
0000
0100
0000
0001
0000
,
0100
0000
0000
0010
0000
0000
1000
0000
0001
0000
0100
0000
0101
0000
0000
0000
,
0002
0000
0000
0000
1000
0000
0000
0010
0000
0000
1003
0000
0001
0000
0010
0000
,
0210
2300
0002
3003
,
0010
0000
1000
0010
0100
0000
0001
1000
,
0000
0010
0000
0110
0000
1000
1001
0000
,
0000
1000
0010
0000
0100
0000
0001
0000
0010
0000
0001
0000
0001
0000
0001
0000
,
0100
0000
0000
0000
0110
0000
0000
2002
0000
0000
0000
0000
3003
0000
0000
0000
,
0010
1000
0100
0001
0100
1000
0010
0100
,
0001
0000
0001
0000
0001
0000
0000
1001
0000
0000
0100
0000
0010
0000
0110
0000
,
0000
0001
0010
0000
0100
0000
1000
0000
0001
0000
1000
0000
1000
0000
1000
0000
,
0010
0000
0000
0000
1100
0000
0000
0220
0000
0000
0000
0000
0330
0000
0000
0000
,
0001
1000
0010
0001
0010
1000
0001
0010
,
0100
0000
0100
0000
0100
0000
0000
1001
0000
0000
0110
0000
0000
1000
0001
0000
,
0101
0000
0000
0000
0010
0000
0000
0001
0000
0000
0100
0000
0010
0000
0000
0000
,
1000
0100
0010
0001
0100
0000
0010
0000
,
2001
0000
0000
0000
0010
0000
0000
0010
0000
0000
0010
0000
0000
0000
0000
0000
,
0100
0000
0000
0000
0001
0000
0000
0001
0000
0000
3001
0000
0010
0000
0010
0000
,
0101
0000
0000
0000
1000
0000
0010
0000
0100
0000
0000
0001
0000
0000
0010
0000
,
0100
0000
1000
0100
0010
0001
0100
0000
,
1002
0000
0000
0000
0100
0000
0000
0100
0000
0000
0100
0000
0000
0000
1000
0000
,
1003
0000
0000
0000
0000
0000
0000
0000
0000
0000
0000
0000
0000
0000
0000
0000
0000
0000
0000
0000
0000
0000
0000
0000
0001
0000
0000
0000
0000
0000
0000
0000
0000
0000
0000
0000
0000
0000
0000
0000
0000
0000
0000
0000
0000
0000
0000
0000
0010
0000
0000
0000
0000
0000
0000
0000
0000
0000
0000
0000
0000
0000
0000
0000
0000
0000
0000
0000
0000
0000
0000
0000
0100
0000
0000
0000
0000
0000
0000
0000
0000
0000
0000
0000
0000
0000
0000
0000
0000
0000
0000
0000
0000
0000
0000
0000
0020
0000
0000
0000
0000
0000
0000
0000
0000
0000
0000
0000
0000
0000
0000
0000
0000
0000
0000
0000
0000
0000
0000
0000
0000
0000
0000
0000
0000
0000
0000
0000
0000
0000
0000
0000
0000
0000
0000
0000
0000
0000
0000
0000
0000
0000
0000
0000
0000
0030
0000
0000
0000
0000
0000
0000
0000
0000
0000
0000
0000
0000
0000
0000
0000
0000
0000
0000
0000
0000
0000
0000
1000
0000
0000
0000
0000
0000
0000
0000
0000
0000
0000
0000
0000
0000
0000
0000
0000
0000
0000
0000
0000
0000
0000
0000
,
0010
0202
0000
0000
0303
0000
1000
0000
,
0010
0000
0000
0100
0000
0000
0001
0000
0010
0000
0100
0000
0000
0000
0010
0000
,
0100
2002
0000
0000
3003
0000
0001
1000
,
0001
0000
0000
0100
0000
0010
1000
0000
0001
0000
1001
0000
0000
0000
0000
0000
;

//---------------dance-single - ----------------
#NOTES:
     dance-single:
     CHALLENGE:
     Challenge:
     14:
     0.607404,0.644237,0.276324,0.240670,0.530365,477.000000,446.000000,31.000000,27.000000,0.000000,0.000000,0.607404,0.644237,0.276324,0.240670,0.530365,477.000000,446.000000,31.000000,27.000000,0.000000,0.000000:
// measure 0
0210
0000
0000
0000
0301
1000
0001
0000
0100
0000
0010
0000
2000
0000
0000
0000
,  // measure 1
3100
0000
0000
1000
0000
0000
0100
0000
0000
0000
0000
0000
1000
0000
0000
0000
0000
0000
0010
0000
0000
0000
0000
0000
0100
0000
0000
0000
0000
0000
0002
0000
0000
0000
0000
0000
0000
0000
0000
0000
0000
0000
0013
0000
0100
0000
1000
0000
,  // measure 2
0001
0000
1000
0100
1000
0100
1000
0000
0010
0000
0100
0001
0100
0000
0001
0010
,  // measure 3
0001
1000
0000
0001
1000
0000
0010
0100
0001
0100
0001
1000
0010
1000
0010
0200
,  // measure 4
0000
0301
1000
0010
1000
0001
0100
0101
,  // measure 5
0000
0010
1000
0000
0000
0010
1000
0000
0000
0001
0100
0000
0000
0001
0100
0001
,  // measure 6
0000
1000
0010
1000
0100
0010
0001
0100
,  // measure 7
1001
0000
0010
0000
0000
0101
0000
0000
0011
0000
0000
1000
0000
0010
0000
0100
,  // measure 8
0001
0010
0200
0000
0001
0000
0310
1000
,  // measure 9
0010
0001
0100
1000
0100
0010
1001
0000
,  // measure 10
0010
0000
0100
0000
1000
0000
0001
0010
0000
0000
0100
0000
1000
0000
0010
0000
,  // measure 11
0200
0000
1000
0000
0310
0100
0001
1001
,  // measure 12
0000
0000
0010
0000
0001
0000
0100
0002
0000
0000
0013
0000
0100
0000
1000
0200
,  // measure 13
0000
0000
0310
0000
0001
0000
1000
0000
0010
1000
0000
0000
0001
0100
0000
0000
,  // measure 14
0010
1000
0100
0010
1000
0001
0100
0010
,  // measure 15
0001
0000
1000
0000
0010
1000
0100
1000
0000
0100
1000
0100
1000
0001
0000
0001
,  // measure 16
0100
0010
0001
0010
0100
0001
1000
0001
,  // measure 17
0020
0000
0001
0000
0130
0010
1000
0020
,  // measure 18
0000
0130
1000
0001
0010
1000
0010
0001
,  // measure 19
1000
0000
0010
0000
0100
0001
0000
0001
0010
0001
0010
0000
0100
0000
1001
0000
,  // measure 20
0000
0000
0100
0000
0010
0000
1000
0200
0000
0000
0310
0000
0001
0000
0100
0010
,  // measure 21
0100
0000
0001
0000
0010
0000
0100
0000
1000
0001
1000
0000
0010
0100
0000
0010
,  // measure 22
1000
0000
0010
0000
0100
0000
0001
1000
0001
0000
1000
0000
0100
0000
0010
0000
,  // measure 23
0001
0100
0001
0000
1000
0010
0000
1000
0100
1000
0100
0000
0010
0000
0001
0000
,  // measure 24
0100
0010
0010
0010
1000
0100
0100
0100
,  // measure 25
2001
0000
0000
0000
0000
0000
3010
0000
0000
0100
0000
0000
0012
0000
0000
0000
0000
0000
0000
0000
0000
1003
0100
0010
,  // measure 26
0100
1000
0001
0010
0100
0010
0001
1000
,  // measure 27
1010
0000
0000
0010
0000
0000
0100
0000
0000
0001
0000
0010
0000
0100
0010
0100
,  // measure 28
0010
1000
1000
1000
0010
0001
0001
0001
,  // measure 29
0010
0000
0000
0100
0000
0000
1000
0000
0000
0001
0000
0000
0201
0000
0000
0000
0000
0000
0000
0000
0000
0310
0100
0001
,  // measure 30
0100
0000
0001
0000
1000
0000
0001
0000
0010
0000
0100
1000
0100
0000
1002
0000
,  // measure 31
0000
0100
0000
0010
0000
0103
2002
0000
,  // measure 32
3003
1000
0010
0000
1000
0000
0100
0000
1000
0010
1000
0000
0001
0100
0000
0100
,  // measure 33
0001
0000
0100
0000
0110
0000
0000
1001
0000
0100
0010
0000
0001
1000
0001
1000
,  // measure 34
0100
0001
0001
0100
1000
1000
0001
0100
,  // measure 35
1000
0000
1000
0000
1100
0000
0000
0101
0000
0000
0001
0000
1001
0000
0010
0100
,  // measure 36
0010
0100
0001
0000
0100
0000
1000
0000
0001
0010
0001
0000
0100
0010
0000
0010
,  // measure 37
0100
0000
0010
0000
1010
0000
0000
0101
0000
0001
0010
0000
0100
1000
0100
1000
,  // measure 38
0010
1000
1000
0010
0001
0001
0010
1000
,  // measure 39
0010
0000
0010
0000
0110
0000
0000
1001
0000
0000
0220
0000
0000
0000
0330
0000
,  // measure 40
1000
0000
1000
0000
0001
0010
0001
0100
0001
0000
0010
0000
0001
0010
0000
0010
,  // measure 41
0100
0000
0000
0000
0000
0000
1100
0000
0000
0000
0000
0000
1000
0000
0000
0001
0000
0000
0000
0000
0000
0001
0000
0000
0200
0000
0000
0000
0000
0000
0000
0000
0000
0000
0000
0000
1000
0000
0000
0000
0000
0000
0310
0000
0100
0000
0001
0000
,  // measure 42
0100
0000
0010
0000
1000
0100
0000
1000
0001
1000
0001
0000
0010
0100
0000
1000
,  // measure 43
0000
0100
1000
0000
0001
0100
0000
0001
0010
0001
0000
1000
0010
0000
1001
0000
,  // measure 44
0120
0000
0000
0000
1030
0100
1000
0000
0010
0000
0100
0001
0100
0000
0001
0000
,  // measure 45
0010
0000
0000
0000
0000
0000
0010
0000
0000
0000
0000
0000
0100
0000
0000
1000
0000
0000
0000
0000
0000
1000
0000
0000
0002
0000
0000
0000
0000
0000
0000
0000
0000
0000
0000
0000
1000
0000
0000
0000
0000
0000
0103
0000
0001
0000
1000
0000
,  // measure 46
0001
0000
0010
0100
1000
0100
1000
0000
0010
0100
0010
0100
0001
0000
1000
0010
,  // measure 47
1000
0000
0000
0000
0000
0000
0000
0000
0000
0000
0000
0000
0010
0000
0000
0000
0000
0000
0000
0000
0000
0000
0000
0000
0100
0000
0000
0000
0000
0000
0000
0000
0000
0000
0000
0000
0000
0000
0000
0000
0000
0000
0000
0000
0000
0000
0000
0000
0001
0000
0000
0000
0000
0000
0000
0000
0000
0000
0000
0000
0000
0000
0000
0000
0000
0000
0000
0000
0000
0000
0000
0000
1000
0000
0000
0000
0000
0000
0000
0000
0000
0000
0000
0000
0100
0000
0000
0000
0000
0000
0000
0000
0000
0000
0000
0000
0000
0000
0000
0000
0000
0000
0000
0000
0000
0000
0000
0000
0100
0000
0000
0000
0000
0000
0000
0000
0000
0000
0000
0000
0020
0000
0000
0000
0000
0000
0000
0000
0000
0000
0000
0000
0000
0000
0000
0000
0000
0000
0000
0000
0000
0000
0000
0000
0000
0030
0000
0000
0000
0000
0000
0000
0000
0000
0000
0000
0000
0000
0000
0000
0000
0000
0000
0000
0000
0000
0000
0000
0001
0000
0000
0000
0000
0000
0000
0000
0000
0000
0000
0000
0000
0000
0000
0000
0000
0000
0000
0000
0000
0000
0000
0000
,  // measure 48
0100
0000
2002
0000
0000
0000
0000
0000
0000
0000
3003
0000
1000
0010
1000
0000
,  // measure 49
0110
0000
0001
0010
0000
0010
0100
0000
1000
0000
0010
0100
0010
0000
1000
0000
,  // measure 50
0010
0000
2002
0000
0000
0000
0000
0000
0000
0000
3003
0000
0001
0010
0001
0010
,  // measure 51
0100
0000
1000
0010
0000
0010
0100
0001
0100
0000
1001
0000
0000
0000
0000
0000
;
