#VERSION:0.83;
#TITLE:Sólo Tú;
#SUBTITLE:;
#ARTIST:KINKY;
#TITLETRANSLIT:Solo Tu;
#SUBTITLETRANSLIT:;
#ARTISTTRANSLIT:;
#GENRE:NORTEC;
#ORIGIN:;
#TAGS:;
#CREDIT:YonabearCWY;
#BANNER:Solo Tu.png;
#BACKGROUND:Solo Tu-bg.png;
#PREVIEWVID:;
#JACKET:Solo Tu-jacket.png;
#CDIMAGE:;
#DISCIMAGE:;
#LYRICSPATH:;
#CDTITLE:cdtitle.png;
#MUSIC:Solo Tu.ogg;
#OFFSET:-8.220000;
#SAMPLESTART:49.213638;
#SAMPLELENGTH:16.410263;
#SELECTABLE:YES;
#BPMS:0.000000=117.000000
;
#STOPS:187.750000=1.025000
;
#DELAYS:;
#WARPS:;
#TIMESIGNATURES:0.000000=4=4
;
#TICKCOUNTS:0.000000=4
;
#COMBOS:0.000000=1
;
#SPEEDS:0.000000=1.000000=0.000000=0
;
#SCROLLS:0.000000=1.000000
;
#FAKES:;
#LABELS:0.000000=Song Start
;
#BGCHANGES:-16.500=Solo Tu.mp4=1.000=1=0=0=StretchNoLoop==CrossFade==,
254.000=Solo Tu-bg.png=1.000=0=0=1===CrossFade_Faster==,
99999=-nosongbg-=1.000=0=0=0 // don't automatically add -songbackground-
;
#KEYSOUNDS:;
#ATTACKS:
;

//---------------dance-single - ----------------
#NOTEDATA:;
#CHARTNAME:BEGINNER;
#CHARTHASH:309574538;
#STEPSTYPE:dance-single;
#BANNER:;
#DESCRIPTION:;
#CHARTSTYLE:;
#DIFFICULTY:Beginner;
#METER:2;
#METERF:2.000000;
#LASTSECONDHINT:138.988586;
#RADARVALUES:0.111362,0.201704,0.056693,0.035433,0.003543,110.000000,102.000000,8.000000,5.000000,0.000000,0.000000,0.000000,0.000000,0.000000,0.111362,0.201704,0.056693,0.035433,0.003543,110.000000,102.000000,8.000000,5.000000,0.000000,0.000000,0.000000,0.000000,0.000000;
#CREDIT:YonabearCWY;
#NOTES:
1000
0000
0000
0000
,
1000
0000
0000
0000
,
0001
0000
0000
0000
,
0001
0000
0000
0000
,
0100
0000
0100
0000
,
0100
0000
0000
0000
,
0100
0000
0100
0000
,
0100
0000
0000
0000
,
0010
0000
0010
0000
,
0010
0000
0000
0000
,
0010
0000
0010
0000
,
0010
0000
0000
0000
,
1000
1000
0000
0000
,
1000
0000
0000
0000
,
0001
0001
0000
0000
,
0001
0000
0000
0000
,
0100
0100
0000
0000
,
0100
0000
0000
0000
,
0010
0010
0000
0010
,
0010
0000
1000
1000
,
1001
0000
0000
0000
,
0001
0001
0001
0000
,
0110
0000
0000
0000
,
0100
0100
0100
0000
,
1001
0000
0000
0000
,
1000
1000
1000
0000
,
0110
0000
0010
0010
,
0010
0000
0100
0100
,
0220
0000
0000
0000
,
0330
0000
1000
0001
,
2002
0000
0000
0000
,
3003
0000
0110
0000
,
0010
0000
0010
0000
,
0010
0000
0000
0000
,
0100
0000
0100
0000
,
0100
0000
0000
0000
,
0001
0000
0001
0000
,
0001
0000
0000
0000
,
1000
0000
1000
0000
,
1000
0000
0000
0000
,
0001
0000
0000
0000
,
0001
0000
0000
0000
,
0010
0000
0000
0000
,
0010
0000
0000
0000
,
0100
0000
0000
0000
,
0100
0000
0000
0000
,
2000
0000
0000
0000
0000
0000
0000
0000
0000
0000
0000
0000
0000
0000
0000
3000
,
0000
0000
0010
0010
,
0010
0000
0000
0000
,
0000
0000
0100
0100
,
0100
0000
0000
0000
,
0000
0000
0001
0001
,
0001
0000
0000
0000
,
0000
0000
1000
1000
,
0000
1000
1000
0000
,
0001
0001
0001
0000
,
0001
0000
0001
0000
,
0000
0000
0010
0000
,
0010
0000
0010
0000
,
0000
0000
0100
0000
,
0100
0000
0100
0000
,
0000
0000
1000
0000
,
1000
0000
1000
0000
,
1000
1001
0000
0000
;

//---------------dance-single - ----------------
#NOTEDATA:;
#CHARTNAME:BASIC;
#CHARTHASH:3742116036;
#STEPSTYPE:dance-single;
#BANNER:;
#DESCRIPTION:;
#CHARTSTYLE:;
#DIFFICULTY:Easy;
#METER:5;
#METERF:5.000000;
#LASTSECONDHINT:138.988586;
#RADARVALUES:0.202476,0.313762,0.205513,0.177167,0.003543,200.000000,171.000000,29.000000,25.000000,0.000000,0.000000,0.000000,0.000000,0.000000,0.202476,0.313762,0.205513,0.177167,0.003543,200.000000,171.000000,29.000000,25.000000,0.000000,0.000000,0.000000,0.000000,0.000000;
#CREDIT:YonabearCWY;
#NOTES:
1000
1000
1000
0000
,
0001
0001
0001
0000
,
1000
1000
1000
0000
,
1001
0000
0000
0000
,
0010
0010
0010
0000
,
0010
0010
0010
0000
,
0100
0100
0100
0000
,
0100
0100
0100
0000
,
0001
0001
0001
0000
,
0001
0001
0001
0000
,
1000
1000
1000
0000
,
1000
1000
1000
0000
,
1001
0000
0010
0010
,
0010
0000
0000
0000
,
1001
0000
0100
0100
,
0100
0000
0000
0000
,
0110
0000
1000
1000
,
1000
0000
0000
0000
,
0110
0000
0001
0001
,
0001
0000
0110
1001
,
0220
0000
0000
0330
,
1000
0010
0001
0010
,
2002
0000
0000
3003
,
0010
0100
0010
0001
,
0220
0000
0000
0330
,
1000
0100
0010
0100
,
2002
3003
0220
0330
,
1001
1001
0110
0110
,
2002
0000
0000
3003
,
0001
0010
0100
1000
,
0220
0000
0000
0330
,
1000
0100
0010
0001
,
0210
0000
0010
0000
,
0010
0000
0310
0000
,
1002
0000
1000
0000
,
1000
0000
1003
0000
,
2100
0100
0100
0000
,
0100
0000
3100
0000
,
0012
0010
0010
0000
,
0010
0000
0013
0000
,
0001
1000
0001
0000
,
1000
0001
1000
0000
,
0010
0100
0010
0000
,
0100
0010
0100
0000
,
0010
0100
1000
0100
,
0010
0000
0100
0010
,
0001
0000
0000
0000
0010
0000
0000
0000
0200
0000
0000
0000
0000
0000
0000
0300
,
0000
0000
0010
0010
,
0010
0000
0010
0100
,
0001
0000
0001
0001
,
0001
0000
0001
1000
,
0100
0000
0100
0100
,
0100
0000
0100
0010
,
1000
0000
1000
1000
,
1000
0000
1000
0001
,
0110
1001
0220
0000
,
0000
0330
0001
0010
,
0100
1000
2020
0000
,
0000
3030
0010
0100
,
0001
0100
0022
0000
,
0000
0033
0001
0100
,
0010
1000
0100
0100
,
1000
1000
0001
0010
,
0110
1001
0000
0000
;

//---------------dance-single - ----------------
#NOTEDATA:;
#CHARTNAME:DIFFICULT;
#CHARTHASH:1435390961;
#STEPSTYPE:dance-single;
#BANNER:;
#DESCRIPTION:;
#CHARTSTYLE:;
#DIFFICULTY:Medium;
#METER:9;
#METERF:9.000000;
#LASTSECONDHINT:138.988586;
#RADARVALUES:0.361420,0.448232,0.318900,0.205513,0.067323,357.000000,312.000000,45.000000,29.000000,0.000000,0.000000,0.000000,0.000000,0.000000,0.361420,0.448232,0.318900,0.205513,0.067323,357.000000,312.000000,45.000000,29.000000,0.000000,0.000000,0.000000,0.000000,0.000000;
#CREDIT:YonabearCWY;
#NOTES:
0001
0000
1000
0000
1010
0000
0000
0000
0001
0000
0000
0000
0200
0000
0000
0010
,
0000
0310
0100
0000
0001
0000
0110
0000
,
1000
0000
0001
0000
0011
0000
0000
0000
1000
0000
0000
0000
0001
0000
0000
1001
,
0000
1001
0000
0000
0000
0000
0000
0000
,
1000
0010
0001
0010
,
1000
0010
0001
0010
1000
0000
0001
0000
,
0100
0010
1000
0010
,
0100
0010
1000
0000
0010
0000
0100
0000
,
0001
0100
1000
0100
,
0001
0100
1000
0100
0001
0000
0010
0000
,
0100
0010
0001
0010
,
0100
0010
0001
0010
0100
0000
1001
0000
,
0010
0000
1000
0100
1000
0000
0010
0000
,
0100
0000
0001
0010
0001
0000
0100
0000
,
0010
0000
1000
0000
0001
0001
0001
0000
,
0100
0000
0010
0000
0100
0100
0100
0000
,
0001
0000
0010
0000
0100
1000
0100
0000
,
1000
0000
0100
0000
0010
0001
0010
0000
,
0001
0001
1000
1000
0000
0100
0100
0010
,
0010
0000
0001
0100
0101
0000
1010
0000
,
0210
1000
0000
1000
,
0320
0230
0302
0023
,
0032
1000
0000
1000
,
0203
0000
0320
0000
1030
0010
0110
0000
,
0101
0000
0010
1000
1100
0000
0011
0000
,
0101
0000
0010
0001
1001
0000
0110
0000
,
1010
0000
1000
0100
0101
0000
0001
0010
,
1010
1010
1001
0000
0010
0000
0010
0000
,
0220
0000
0000
0330
,
0010
0001
0010
0100
,
2002
0000
0000
3003
,
0001
0100
0010
0001
,
2010
0000
0000
0001
0000
0000
0100
0000
0000
0010
0000
3010
,
0000
0000
1000
0100
0000
0100
0010
0000
0010
0001
0000
0000
,
0102
1000
0010
0103
,
0001
0000
0001
1000
0000
1000
0001
0000
0110
0000
0100
0000
,
2000
3020
0032
0023
,
1030
0000
0000
0000
0100
0000
1000
0000
0000
0000
0001
0000
0100
0000
0000
0000
0010
0000
0100
0000
0000
0001
0000
0000
,
0020
0032
0203
2300
,
3100
0000
0100
0001
0000
0001
1000
0000
0110
0000
0000
0000
,
2001
0000
3010
0000
1000
0010
1000
0000
,
0001
0000
0100
0000
0001
0001
0011
0000
,
0210
0000
1000
0000
0301
0000
0100
0100
,
0100
0010
1000
0000
0010
0010
1001
0000
,
0120
0001
1000
0031
,
0100
0010
0001
0010
0100
0000
1001
0000
,
0210
0000
0000
0000
1000
0000
0000
0000
0001
0000
0000
0000
0310
0000
0000
0110
,
0000
0000
0000
0000
1000
0001
1000
0000
,
0010
0000
0010
0000
0100
0010
0100
0000
,
0001
0010
0100
1000
0100
0000
1001
0000
,
0100
0000
0010
1000
0010
0000
1000
0000
,
0100
0010
0100
0000
0011
0000
1001
0000
,
0100
0000
0010
1000
0010
0000
0100
0000
,
1000
0100
0001
0100
0010
0010
0100
0100
,
0000
0001
0001
1000
1000
0000
0100
0010
,
0001
0110
2001
0010
,
0100
0000
0010
0000
3100
0000
1000
0001
,
0001
0101
0012
1000
,
0010
0000
0100
0000
0010
0013
0001
1000
,
1000
0000
0110
0000
0010
1000
0010
0000
,
1000
0000
0100
0000
1000
0000
0000
0010
0000
0000
0100
0000
0001
0000
0000
0000
,
0010
0100
1000
0000
0100
0010
0100
0000
,
0010
0000
0001
0000
0010
0000
0000
0001
0000
0000
1000
0000
0010
0000
0100
0000
,
0110
1001
0000
0000
;

//---------------dance-single - ----------------
#NOTEDATA:;
#CHARTNAME:EXPERT;
#CHARTHASH:3708044025;
#STEPSTYPE:dance-single;
#BANNER:;
#DESCRIPTION:;
#CHARTSTYLE:;
#DIFFICULTY:Hard;
#METER:12;
#METERF:12.000000;
#LASTSECONDHINT:139.244995;
#RADARVALUES:0.567946,0.606309,0.333073,0.503154,0.464177,561.000000,514.000000,47.000000,71.000000,0.000000,0.000000,0.000000,0.000000,0.000000,0.567946,0.606309,0.333073,0.503154,0.464177,561.000000,514.000000,47.000000,71.000000,0.000000,0.000000,0.000000,0.000000,0.000000;
#CREDIT:YonabearCWY;
#NOTES:
1000
0000
0100
0000
0010
0000
0001
0000
0100
0000
0010
0000
0100
0001
0100
0002
,
0000
0000
0013
0000
0100
0000
1000
0000
0001
0000
0100
0000
0010
1000
0010
1000
,
0100
0000
0010
0000
0001
0000
1000
0000
0100
0000
0010
0000
0100
0000
1000
0001
,
0000
0001
0020
0000
0000
0000
0030
0000
0000
0000
0000
0000
0000
0000
0000
0000
,
1100
0000
0000
0000
0021
0000
0000
0000
0130
0000
0010
0000
0100
0000
1000
0001
,
0000
0001
0010
0000
0200
0000
0000
0000
0310
0000
1000
0000
0010
0000
0100
0000
,
1000
0000
0001
0000
0020
0000
0000
0000
0031
0000
0100
0000
0010
0000
0100
0010
,
0000
0010
2000
0000
0001
0000
0000
0000
3001
0000
0100
0000
1000
0000
0100
0000
,
0110
0000
0000
0000
2001
0000
0000
0000
3010
0000
0100
0000
0001
1000
0001
2000
,
0000
0000
0100
0000
3100
0000
0010
0000
0001
0000
1000
0000
0010
0100
0000
0100
,
0002
0000
0010
0000
0203
0000
0000
0000
0310
0000
1000
0000
0100
0000
0010
0001
,
0000
0001
0200
0000
0010
0000
0000
0000
0310
0000
1000
0000
0100
0000
0010
0000
,
0101
0000
0000
0000
2010
0000
0000
0000
3100
0000
0010
0000
0001
0100
0001
0100
,
0020
1000
1000
0000
0130
0010
0001
0010
,
1000
0000
0100
0000
0021
0000
0000
0000
0031
0000
0100
0000
1000
0000
0100
0010
,
0100
0010
0001
0000
0010
0000
0000
0000
0100
0000
0010
0000
1000
0000
0001
0000
,
0101
0000
0000
0000
2100
0000
0000
0000
3010
0000
1000
0000
0100
1000
0001
1000
,
0002
0010
0010
0000
0103
0001
0010
0100
,
2000
0010
3010
0200
0000
0301
0100
0102
,
1000
0000
1000
0000
0000
0000
0013
0000
0100
0000
0010
0000
0001
1000
0001
1000
,
0200
0000
0000
0000
2300
0000
0000
0000
0000
3020
0000
0000
0230
0000
0000
0000
0302
0000
0000
0000
0023
0000
0000
0000
,
0032
0000
0000
0000
0203
0000
0000
0000
0000
0302
0000
0000
2003
0000
0000
0000
3020
0000
0000
0000
0000
0230
0000
0000
,
0302
0000
0000
0000
0023
0000
0000
0000
0000
2030
0000
0000
3002
0000
0000
0000
0203
0000
0000
0000
0000
2300
0000
0000
,
3002
0000
0000
0013
0100
0000
1000
0000
1010
0000
0010
0000
0110
0000
0100
0000
,
0201
0000
0000
0000
2300
0000
0000
0000
0000
3020
0000
0000
0230
0000
0000
0000
0302
0000
0000
0000
0023
0000
0000
0000
,
0230
0000
0000
0000
2300
0000
0000
0000
0000
3020
0000
0000
0230
0000
0000
0000
0320
0000
0000
0000
0000
2030
0000
0000
,
3002
0000
0000
0103
0010
0000
0010
0000
0011
0000
0000
0100
1000
0000
1000
0000
,
1001
0110
2001
0000
3010
0100
0010
0100
,
0001
0000
0001
0000
0010
0000
0010
0000
0200
0000
0000
0000
1300
0100
1000
0010
,
0000
0100
0001
0010
0001
0000
1000
0000
1100
0000
1000
0000
1002
0000
0000
0000
,
0013
0000
0010
0000
0001
0000
0001
0000
1000
0000
0100
0000
0010
0000
0010
0100
,
0000
0100
1000
0000
0010
0000
0100
0001
0100
0000
0001
0000
2001
0000
0000
0000
,
3010
1000
0100
1000
0010
0100
0001
1000
0001
0010
0000
0011
,
0000
0001
0100
1000
0100
0001
0100
0000
0110
0000
0000
0001
,
0100
0010
0100
0001
0010
0001
1000
0100
0010
0100
1000
0001
,
0010
1000
0010
0001
0100
0010
0100
0000
1100
0000
0010
0000
,
0100
0000
0001
0000
0010
0000
0100
0000
1000
0100
1000
0000
0010
0000
0100
0000
0001
0000
0010
0000
0001
0000
1000
0001
,
1000
0000
0010
0000
0100
0000
0010
0000
0001
0000
0010
0000
0100
0000
0010
0000
1000
0000
0001
0000
0000
0100
0000
0000
,
0010
0000
1000
0000
0100
0000
0010
0000
0001
0000
0100
0000
0010
1000
0010
0000
0100
0000
0001
0000
0010
0000
0100
0010
,
0100
1000
0001
0100
0010
1000
1001
0000
0001
2000
0000
0000
,
3020
1000
0100
0000
1000
0000
0130
0010
,
0001
0010
0100
0001
0011
0001
2001
0000
,
3200
0010
0001
0000
0010
0000
1300
0100
,
0001
0000
0100
0000
1000
0000
0010
0000
0110
0000
0001
1000
0002
0000
0000
0000
,
0013
0000
0001
0000
0200
0000
0000
0000
0310
1000
0010
0000
1000
0000
0100
0000
,
0010
0100
0000
0100
1000
0000
0100
0001
0100
0000
0010
0000
0002
0000
0000
0000
,
0103
0000
0001
0000
0020
0000
0000
0000
0031
1000
0001
1000
0010
0000
0100
0020
,
0030
0000
0000
0000
1001
0100
0110
0000
,
0001
0000
0100
0000
0010
0000
1000
0100
2000
0000
0010
0000
3010
0000
0000
0000
,
0100
0001
0010
0100
0011
0001
2001
0000
,
3100
0000
0010
0000
0100
1000
0001
2000
0000
0000
3010
0000
0100
0000
0000
0000
,
0010
0001
0010
1000
1100
1000
0102
0000
,
0013
0000
0001
0000
1000
0010
0100
0010
0200
0000
0001
0000
0301
0000
0000
0000
,
0010
0100
1000
0010
0110
0100
2100
0000
,
3010
0110
0001
1002
0010
0000
0103
0010
,
0011
0000
1000
0100
1000
0000
0001
0010
0001
0000
0100
0000
1000
0000
0100
0000
,
0010
0000
0001
0000
0010
0000
0100
0010
0100
0000
0001
0000
1000
0000
0010
1000
,
1010
0000
0101
0000
0010
0001
0100
0010
,
1000
0000
0100
0000
0010
0001
0010
0001
0100
0000
0010
0000
1000
0100
1000
0100
,
0110
0000
0000
0000
1001
0000
0000
0000
1000
0000
0100
0000
0001
0000
0100
1000
,
0100
0000
0010
0000
0001
0000
0010
1000
0010
0000
0001
0000
0100
0000
0010
0100
,
0101
0000
1100
0000
0010
1000
0100
0010
,
0100
0000
0010
0000
0001
0100
0001
0100
0010
0000
1000
0000
0100
0010
0100
0010
,
0011
0001
1001
0110
0000
0000
0000
0000
;

//---------------dance-double - ----------------
#NOTEDATA:;
#CHARTNAME:EXPERT;
#CHARTHASH:975281070;
#STEPSTYPE:dance-double;
#BANNER:;
#DESCRIPTION:;
#CHARTSTYLE:;
#DIFFICULTY:Hard;
#METER:12;
#METERF:12.000000;
#LASTSECONDHINT:8.220000;
#RADARVALUES:0.551748,0.537878,0.269293,0.127560,0.425200,545.000000,507.000000,38.000000,18.000000,0.000000,0.000000,0.000000,0.000000,0.000000,0.551748,0.537878,0.269293,0.127560,0.425200,545.000000,507.000000,38.000000,18.000000,0.000000,0.000000,0.000000,0.000000,0.000000;
#CREDIT:YonabearCWY;
#NOTES:
// measure 0
10000000
00000000
00100000
00000000
00010000
00000000
00100000
00000000
00001000
00000000
00010000
00000000
00000100
00000010
00000100
00000010
,  // measure 1
00000000
00000001
00000010
00000100
00000100
00000000
00001001
00000000
,  // measure 2
00000001
00000000
00000100
00000000
00001000
00000000
00010000
00000000
00100000
00000000
00010000
00000000
10000000
00000000
01000000
00100000
,  // measure 3
00000000
01000000
00200000
00000000
00000000
00000000
00300000
00000000
00000000
00000000
00000000
00000000
00000000
00000000
00000000
00000000
,  // measure 4
00011000
00000000
00000000
00000000
00000110
00000000
00000000
00000000
00000001
00000000
00001000
00000000
00000001
00000010
00000100
00000010
,  // measure 5
00000100
00001000
00000010
00001000
00010000
00100000
01000000
00100000
,  // measure 6
00010000
00000000
00010000
00000000
10000000
00000000
00000000
00000000
01000000
00000000
00100000
00000000
01000000
00000000
10000000
00010000
,  // measure 7
00000000
00100000
01000000
00000000
00100000
00000000
00000000
00000000
01000000
00000000
00100000
00000000
00001000
00000000
00010000
00000000
,  // measure 8
00001100
00000000
00000000
00000000
00110000
00000000
00000000
00000000
00001000
00000000
00010000
00000000
00000100
00000010
00000001
00000010
,  // measure 9
00000001
00000100
00000010
00010000
00001000
00000100
00001000
00010000
,  // measure 10
00001000
00000000
00100000
00000000
00100000
00000000
00000000
00000000
00010000
00000000
01000000
00000000
00100000
00000000
10000000
00020000
,  // measure 11
00000000
01000000
01030000
00000000
00100000
10000000
01000000
00100000
,  // measure 12
01100000
00000000
00000000
00000000
00011000
00000000
00000000
00000000
00000100
00000000
00001000
00000000
00000010
00001000
00000100
00001000
,  // measure 13
00000100
00000010
00000001
00000100
00001000
00000100
00000010
00000010
,  // measure 14
00010000
00000000
00000100
00000000
00001000
00000000
00000000
00000000
00110000
00000000
00000000
00000000
01000000
00010000
00000000
01000000
,  // measure 15
00000000
00100000
10000000
00000000
00010000
00000000
00100000
00000000
01000000
00000000
00100000
00000000
00001000
00000000
00010000
00000000
,  // measure 16
00000110
00000000
00000000
00000000
00011000
00000000
00000000
00000000
00100000
00000000
00010000
00000000
01000000
00100000
01000000
00100000
,  // measure 17
10000000
00100000
00100000
01000000
00010000
00100000
00001000
00000100
,  // measure 18
00000010
00000010
00000100
00000200
00000000
00000001
00000301
00001000
,  // measure 19
00001000
00000000
00000100
00000000
00000010
00000000
00000100
00000000
00011000
00000000
00001000
00000000
00100000
00010000
00100000
01000000
,  // measure 20
20000000
00000000
00000000
00000000
00100000
00000000
00000000
00000000
00000000
00010000
00000000
00000000
00010000
00000000
00000000
00000000
01000000
00000000
00000000
00000000
00000000
00100000
00000000
00000000
,  // measure 21
30200000
00000000
00000000
00000000
20300000
00000000
00000000
00000000
00000000
32000000
00000000
00000000
03020000
00000000
00000000
00000000
00032000
00000000
00000000
00000000
00000000
00003200
00000000
00000000
,  // measure 22
00000310
00000000
00000000
00002000
00000100
00000000
00000100
00000000
00003100
00000000
00000000
00000020
00000001
00000000
00000001
00000000
,  // measure 23
00000031
00000000
00000000
00000002
00001000
00000000
00001003
00000000
00001010
00000000
00000000
00000000
00011000
00000000
00000000
00000000
,  // measure 24
01000000
00100000
00010000
00001000
00100000
00010000
00001000
00000100
,  // measure 25
00000010
00000100
00010000
00000100
00000010
00000001
00000100
00000000
,  // measure 26
00000010
00000100
00001000
00010000
00000100
00001000
00010000
00100000
,  // measure 27
00110000
11000000
01020000
00000000
10000000
10000000
10030000
00100000
,  // measure 28
01100000
00000000
00100000
00000000
10000000
00000000
01000000
00000000
00200000
00000000
00000000
00000000
00301000
00000000
00100000
00001000
,  // measure 29
00000000
00001000
00010000
00000000
00000100
00000000
00001000
00000000
00000010
00000000
00001000
00000001
00002000
00000000
00000000
00000000
,  // measure 30
00003010
00000000
00000100
00000000
00000010
00000000
00010000
00000000
00000100
00000000
00001000
00000000
00010000
00000000
00100000
00010000
,  // measure 31
00000000
00010000
01000000
00000000
00100000
00000000
00100000
00000000
10010000
00000000
00000000
00000000
01100000
00000000
00000000
00000000
,  // measure 32
10000000
01000000
00100000
01000000
10000000
00010000
01000000
00100000
01000000
00001000
00000000
00101000
,  // measure 33
00000000
00001000
00010000
00001000
00000100
00000010
00000100
00000000
00001001
00000000
00000010
00000000
,  // measure 34
00000001
00000100
00000010
00001000
00000100
00000010
00000100
00001000
00010000
00100000
00010000
00001000
,  // measure 35
00010000
00100000
01000000
00010000
01000000
10000000
01000000
00000000
10010000
00000000
00100000
00000000
,  // measure 36
01000000
10000000
01000000
00100000
01000000
00100000
00010000
00001000
00010000
00100000
00010000
00001000
,  // measure 37
00000100
00000010
00000100
00010000
00000100
00000010
00001000
00000001
00001000
00000000
00000100
00000000
,  // measure 38
00000010
00000100
00000010
00001000
00010000
00001000
00000010
00001000
00010000
01000000
00100000
00010000
,  // measure 39
00100000
10000000
00100000
00010000
00001000
00010000
00001000
00000000
00001000
00020000
00000000
00000000
,  // measure 40
00030100
00000000
00001000
00000000
00000100
00000000
00000010
00000001
00000000
00001000
00000010
00000000
00000100
00000000
00000010
00000000
,  // measure 41
00001000
00010000
00001000
00000000
00100000
00100000
01100000
00000000
,  // measure 42
10000000
00010000
10000000
00000000
01000000
00000000
00100000
01000000
00100000
00000000
01000000
00000000
00100000
00000000
00001000
00010000
,  // measure 43
00001000
00010000
00000100
00000000
00001000
00001000
00001001
00000000
,  // measure 44
00000100
00000010
00000100
00000010
00000100
00000000
00001000
00000000
00000100
00000000
00010000
00000000
00001000
00000000
00100000
00000000
,  // measure 45
01000000
00100000
00000000
01000000
10000000
00000000
01000000
00000000
01010000
00000000
00000000
00000000
10100000
00000000
00000000
00000000
,  // measure 46
00010000
00100000
00000000
00100000
00001000
00000000
00001000
00010000
00001000
00010000
00000100
00000000
00000010
00000000
00000001
00001000
,  // measure 47
00000000
00000000
00011000
01100000
,  // measure 48
10000000
00000000
01000000
00000000
00010000
00000000
00000000
00001100
00000000
00000010
00000100
00000000
00000001
00000000
00000010
00000000
,  // measure 49
00000100
00001000
00000010
00000100
00000001
00000001
00001001
00000000
,  // measure 50
00000010
00000000
00001000
00000000
00000100
00000000
00010000
00001000
00000000
00001000
00010000
00000000
00100000
00000000
00000000
00000000
,  // measure 51
01000000
10000000
01000000
00010000
00110000
00000000
11000000
00000000
,  // measure 52
00100000
00000000
01000000
00000000
00010000
10000000
00010000
10000000
00010000
00000000
00100000
00000000
00100000
00000000
00001000
00000000
,  // measure 53
00010000
00000100
00000010
00000001
00001000
00001000
00000001
00000002
,  // measure 54
00000000
00000010
00000013
00000100
00000100
00000000
00001000
00000100
,  // measure 55
00010100
00000000
00110000
00000000
01000000
00010000
00100000
10000000
,  // measure 56
00100000
00000000
00010000
00000000
01000000
00010000
01000000
00010000
00000000
00100000
00001000
00000000
00010000
00000000
00000100
00000000
,  // measure 57
00000010
00000100
00010000
00000010
00001000
00000010
00000100
00000001
,  // measure 58
00000010
00000000
00000100
00000000
00001000
00000100
00000000
00010000
00000000
00000100
00010000
00000000
00001000
00000000
00100000
00000000
,  // measure 59
00110000
00000000
00000000
00000000
11000000
00000000
00000000
00000000
00100000
01000000
00100000
00000000
10000000
00000000
01000000
00000000
,  // measure 60
00100000
00010000
00100000
00000000
00001000
00000000
00010000
00000100
00000000
00000100
00000010
00000000
00000001
00000000
00001000
00000000
,  // measure 61
00000010
00000010
00000100
00000010
00001000
00000100
00010000
00000100
,  // measure 62
00001000
00000100
00001000
00000000
00000100
00000000
00010000
00001000
00000000
00001000
00100000
00000000
00010000
00000000
01000000
00000000
,  // measure 63
01100000
10010000
00000000
00000000
;
