#VERSION:0.83;
#TITLE:Skipping Syrtaki;
#SUBTITLE:;
#ARTIST:Kenneth CM Young;
#TITLETRANSLIT:;
#SUBTITLETRANSLIT:;
#ARTISTTRANSLIT:;
#GENRE:SIRTAKI DANCE;
#ORIGIN:;
#TAGS:;
#CREDIT:YonabearCWY;
#BANNER:Skipping Syrtaki.png;
#BACKGROUND:Skipping Syrtaki-bg.png;
#PREVIEWVID:;
#JACKET:Skipping Syrtaki-jacket.png;
#CDIMAGE:;
#DISCIMAGE:;
#LYRICSPATH:;
#CDTITLE:LittleBIGPlanet.png;
#MUSIC:Skipping Syrtaki.ogg;
#OFFSET:-0.190000;
#SAMPLESTART:38.961510;
#SAMPLELENGTH:15.000000;
#SELECTABLE:YES;
#DISPLAYBPM:84.000000:296.000000;
#BPMS:0.000000=87.084000
,4.500000=87.528000
,16.812500=80.128998
,17.250000=74.821999
,18.000000=119.574997
,24.000000=123.665001
,26.000000=119.237999
,27.000000=113.968002
,28.000000=123.775009
,30.000000=117.903999
,31.000000=114.209000
,32.000000=123.833000
,34.000000=119.232002
,35.000000=113.973000
,36.000000=125.952003
,37.000000=121.689003
,38.000000=117.892998
,39.000000=124.080002
,40.000000=119.146004
,41.000000=121.712997
,44.000000=121.871994
,48.000000=122.428993
,52.000000=123.136993
,56.000000=121.736000
,58.000000=123.804001
,60.000000=124.964989
,61.000000=124.315010
,64.000000=128.276993
,68.000000=129.380997
,72.000000=129.985992
,76.000000=131.613998
,80.000000=132.602997
,84.000000=133.572006
,88.000000=134.412994
,90.000000=135.936005
,92.000000=136.145996
,96.000000=137.658997
,98.000000=141.610992
,100.000000=141.621994
,104.000000=141.477005
,108.000000=142.826004
,112.000000=144.612000
,116.000000=144.653000
,120.000000=147.464996
,124.000000=147.084000
,128.000000=149.084000
,131.000000=151.195999
,133.000000=152.953995
,136.000000=156.981003
,140.000000=157.492996
,144.000000=161.371002
,148.000000=166.968994
,152.000000=166.727005
,156.000000=170.845001
,160.000000=173.145004
,164.000000=175.703003
,168.000000=181.207993
,172.000000=182.766006
,176.000000=184.932007
,180.000000=187.320999
,184.000000=189.425995
,186.000000=196.399002
,188.000000=193.335999
,192.000000=196.757004
,196.000000=204.214005
,200.000000=202.727997
,204.000000=207.671997
,208.000000=210.623001
,212.000000=216.597000
,216.000000=215.143997
,220.000000=220.362000
,224.000000=222.283005
,228.000000=229.977005
,232.000000=227.843002
,236.000000=233.307999
,240.000000=236.403000
,244.000000=242.014023
,248.000000=240.621979
,252.000000=246.270996
,256.000000=249.847015
,260.000000=255.837997
,262.000000=260.587006
,264.000000=255.024002
,268.000000=261.947998
,272.000000=264.527008
,276.000000=265.175995
,280.000000=282.036987
,284.000000=273.354004
,288.000000=282.096985
,292.000000=277.781006
,296.000000=283.562988
,300.000000=282.812988
,304.000000=287.221985
,312.000000=289.608002
,316.000000=291.778992
,320.000000=296.595001
,324.000000=295.955994
;
#STOPS:;
#DELAYS:;
#WARPS:;
#TIMESIGNATURES:0.000000=4=4
;
#TICKCOUNTS:0.000000=4
;
#COMBOS:0.000000=1
;
#SPEEDS:0.000000=1.000000=0.000000=0
;
#SCROLLS:0.000000=1.000000
;
#FAKES:;
#LABELS:0.000000=Song Start
;
#BGCHANGES:0.000=Skipping Syrtaki.mp4=1.000=1=0=1===CrossFade==,
40.000=Skipping Syrtaki.mp4=1.000=1=0=1=Checkerboard2File2x2=flower1.mp4=CrossFade==,
56.000=balloon1.mp4=1.000=1=0=1=Checkerboard2File2x2=Skipping Syrtaki.mp4=CrossFade==,
64.000=Skipping Syrtaki.mp4=1.000=1=0=1=Checkerboard2File2x2=amoeba1.mp4=CrossFade==,
72.000=Skipping Syrtaki.mp4=1.000=1=0=1===CrossFade==,
104.000=bear2.mp4=1.000=1=0=1=Checkerboard2File2x2=Skipping Syrtaki.mp4=CrossFade==,
120.000=Skipping Syrtaki.mp4=1.000=1=0=1=Checkerboard2File2x2=blackhole1.mp4=CrossFade==,
128.000=bear2r.mp4=1.000=1=0=1=Checkerboard2File2x2=Skipping Syrtaki.mp4=CrossFade==,
136.000=Skipping Syrtaki.mp4=1.000=1=0=1===CrossFade==,
168.000=film2.mp4=1.000=0=0=1=Checkerboard2File2x2=Skipping Syrtaki.mp4=CrossFade_Faster==,
184.000=Skipping Syrtaki.mp4=1.000=0=0=1=Checkerboard2File2x2=balloon1.mp4=CrossFade_Faster==,
200.000=arrows2.mp4=1.000=0=0=1=Checkerboard2File2x2=Skipping Syrtaki.mp4=CrossFade_Faster==,
216.000=Skipping Syrtaki.mp4=1.000=0=0=1=Checkerboard2File2x2=blackhole1.mp4=CrossFade_Faster==,
232.000=Skipping Syrtaki.mp4=1.000=0=0=1===CrossFade_Faster==,
372.000=Skipping Syrtaki-bg.png=1.000=1=0=1===CrossFade==,
99999=-nosongbg-=1.000=0=0=0 // don't automatically add -songbackground-
;
#KEYSOUNDS:;
#ATTACKS:
;

//---------------dance-single - ----------------
#NOTEDATA:;
#CHARTNAME:BEGINNER;
#CHARTHASH:659264798;
#STEPSTYPE:dance-single;
#BANNER:;
#DESCRIPTION:;
#CHARTSTYLE:;
#DIFFICULTY:Beginner;
#METER:5;
#METERF:5.000000;
#LASTSECONDHINT:126.052544;
#RADARVALUES:0.000000,0.000000,0.000000,0.000000,0.000000,0.000000,0.000000,0.000000,0.000000,0.000000,0.000000,0.000000,0.000000,0.000000,0.000000,0.000000,0.000000,0.000000,0.000000,0.000000,0.000000,0.000000,0.000000,0.000000,0.000000,0.000000,0.000000,0.000000;
#CREDIT:YonabearCWY;
#DISPLAYBPM:84.000000:296.000000;
#NOTES:
0000
0000
0000
0000
,
0000
0000
0000
0000
,
0000
0000
0000
0000
,
0000
0000
0000
0000
,
0000
0000
0000
0000
,
0000
0000
0000
0000
,
0000
0000
0000
0000
,
0000
0000
0000
0000
,
0000
0000
0000
0000
,
0000
0000
0000
0000
,
1000
0000
1000
0000
,
1000
0000
0000
0000
,
0001
0000
0001
0000
,
0001
0000
0000
0000
,
0100
0000
0100
0000
,
0100
0000
0000
0000
,
0010
0000
0010
0000
,
0010
0000
0000
0000
,
1000
1000
1000
0000
,
1000
0000
0000
0000
,
0001
0001
0001
0000
,
0001
0000
0000
0000
,
0100
0100
0100
0000
,
0100
0000
0000
0000
,
0010
0010
0010
0000
,
0010
0000
0000
0000
,
0000
1000
0000
1000
,
1000
0000
0001
0001
,
0000
1000
0000
1000
,
1000
0000
0001
0001
,
0000
0100
0000
0100
,
0100
0000
0010
0010
,
0000
0100
0000
0100
,
0100
0000
0010
0010
,
1001
0000
0000
0000
,
1001
0000
0000
0000
,
1001
0000
0000
0000
,
1001
0000
0000
0000
,
1001
0000
0000
0000
,
1001
0000
0000
0000
,
0010
0000
0100
0000
,
0010
0000
0000
0000
,
0000
0001
0000
0001
,
0001
0000
1000
1000
,
0000
0001
0000
0001
,
0001
0000
1000
1000
,
0000
0010
0000
0010
,
0010
0000
0100
0100
,
0000
0010
0000
0010
,
0010
0000
0100
0100
,
0000
0010
0000
0010
,
0000
0010
0000
0000
,
0000
0100
0000
0100
,
0000
0100
0000
0000
,
0000
0001
0000
0001
,
0000
0001
0000
0000
,
0000
1000
0000
1000
,
0000
1000
0000
0000
,
0010
0000
0010
0000
,
0010
0000
0000
0000
,
0100
0000
0100
0000
,
0100
0000
0000
0000
,
0001
0000
0001
0000
,
0001
0000
0000
0000
,
1000
0000
1000
0000
,
1000
0000
0000
0000
,
0010
0000
0010
0000
,
0010
0000
0010
0000
,
0010
0000
0000
0000
,
0000
0000
0000
0000
,
0100
0000
0100
0000
,
0100
0000
0100
0000
,
0100
0000
0000
0000
,
0000
0000
0000
0000
,
0001
0000
0001
0000
,
0001
0000
0001
0000
,
0001
0000
0001
0000
,
0001
0000
0001
0000
,
1000
0000
1000
0000
,
1000
0000
1000
0000
,
1000
0000
1000
0000
,
1000
0000
2002
0000
,
0000
0000
0000
0000
,
0000
0000
0000
0000
,
0000
0000
0000
0000
,
0000
0000
0000
0000
,
0000
0000
0000
0000
,
0000
0000
0000
0000
,
0000
0000
0000
0000
,
0000
0000
0000
0000
,
0000
0000
0000
0000
,
3003
0000
0000
0000
;

//---------------dance-single - ----------------
#NOTEDATA:;
#CHARTNAME:BASIC;
#CHARTHASH:1323953135;
#STEPSTYPE:dance-single;
#BANNER:;
#DESCRIPTION:;
#CHARTSTYLE:;
#DIFFICULTY:Easy;
#METER:7;
#METERF:7.000000;
#LASTSECONDHINT:126.052544;
#RADARVALUES:0.000000,0.000000,0.000000,0.000000,0.000000,0.000000,0.000000,0.000000,0.000000,0.000000,0.000000,0.000000,0.000000,0.000000,0.000000,0.000000,0.000000,0.000000,0.000000,0.000000,0.000000,0.000000,0.000000,0.000000,0.000000,0.000000,0.000000,0.000000;
#CREDIT:YonabearCWY;
#DISPLAYBPM:84.000000:296.000000;
#NOTES:
0000
0000
0000
0000
,
0000
0000
0000
0000
,
0000
0000
0000
0000
,
0000
0000
0000
0000
,
0000
0000
0000
0000
,
0000
0000
0000
0000
,
0000
1000
0000
1000
,
0000
0001
0000
0001
,
0000
0100
0000
0100
,
0000
0010
0000
0010
,
1001
0001
0001
0001
,
0001
0000
1000
0000
,
1001
1000
1000
1000
,
1000
0000
0001
0000
,
0110
0100
0100
0100
,
0100
0000
0100
0100
,
0110
0010
0010
0010
,
0010
0000
0010
0010
,
1001
0001
0000
0001
,
1001
1000
0000
1000
,
0110
0100
0000
0100
,
0110
0010
0000
0010
,
1001
0001
0000
0001
,
1001
1000
0000
1000
,
0110
0010
0000
0010
,
0110
0100
0000
0100
,
2001
0001
0100
3001
,
0002
1000
0000
1003
,
1002
1000
0010
1003
,
2000
0001
0000
3001
,
0120
0100
0001
0130
,
0210
0010
1000
0310
,
0020
0100
0001
1030
,
0200
0010
1000
0301
,
0100
0100
0010
0010
,
1000
1000
0001
0001
,
0100
0000
0100
0000
,
0010
0000
0010
0000
,
1000
1000
0100
0100
,
0010
0010
0001
0001
,
2000
3000
0002
0003
,
1000
0001
1001
0010
,
0200
1000
0000
1300
,
0200
0010
0001
0010
,
2300
0001
0000
3001
,
0020
0001
0100
0001
,
0230
0010
0000
0310
,
0200
1000
0001
1000
,
0310
0000
0010
0000
,
0100
0000
0100
0000
,
0001
0000
0001
0000
,
1000
0000
1001
0000
,
0010
0000
0010
0000
,
0100
0000
0110
0000
,
0010
0000
0010
0000
,
1000
0000
1100
0000
,
0010
0000
0010
0000
,
0100
0000
0101
0000
,
0001
0000
0001
0000
,
1000
0000
1000
0000
,
0010
0000
0010
0000
,
0100
0000
0100
0000
,
0001
0000
0001
0000
,
0010
0000
0010
0000
,
0100
1000
0100
0000
,
0010
0001
0010
0000
,
0100
0000
0100
0000
,
0010
0000
0010
0000
,
0001
0000
0001
0000
,
1000
0000
1000
0000
,
0001
0000
0001
0000
,
1000
0000
1000
0000
,
0010
0100
0010
0000
,
1000
0001
1000
0000
,
0001
0100
0001
0100
,
0001
0000
0010
0000
,
0001
1000
0001
1000
,
0001
0000
1000
0000
,
0010
1000
0010
1000
,
0010
0000
0100
0000
,
0001
1000
0001
1000
,
0001
0100
0010
2002
,
0000
0000
0000
0000
,
0000
0000
0000
0000
,
0000
0000
0000
0000
,
0000
0000
0000
0000
,
0000
0000
0000
0000
,
0000
0000
0000
0000
,
0000
0000
0000
0000
,
0000
0000
0000
0000
,
0000
0000
0000
0000
,
3003
0000
0000
0000
;

//---------------dance-single - ----------------
#NOTEDATA:;
#CHARTNAME:DIFFICULT;
#CHARTHASH:2147483647;
#STEPSTYPE:dance-single;
#BANNER:;
#DESCRIPTION:;
#CHARTSTYLE:;
#DIFFICULTY:Medium;
#METER:10;
#METERF:10.000000;
#LASTSECONDHINT:126.052544;
#RADARVALUES:0.000000,0.000000,0.000000,0.000000,0.000000,0.000000,0.000000,0.000000,0.000000,0.000000,0.000000,0.000000,0.000000,0.000000,0.000000,0.000000,0.000000,0.000000,0.000000,0.000000,0.000000,0.000000,0.000000,0.000000,0.000000,0.000000,0.000000,0.000000;
#CREDIT:YonabearCWY;
#DISPLAYBPM:84.000000:296.000000;
#NOTES:
0000
0000
0000
0000
,
0000
0000
0000
0000
,
0000
0000
0000
0000
,
0000
0000
0000
0000
,
0000
0000
0000
0000
,
0000
0000
0000
0000
,
2000
0010
0000
3010
,
0002
0100
0000
0103
,
0020
1000
0000
1030
,
0200
0001
0000
0301
,
2001
0010
0100
3010
,
0210
0000
0000
0000
0000
0301
2000
0000
0000
0000
0000
3010
,
0200
0001
1000
0301
,
0120
0000
0000
0000
0000
1030
0002
0000
0000
0000
0000
0103
,
0020
0001
0100
1000
,
0130
0000
0010
0100
0000
0000
0010
0000
0000
1000
0000
0001
,
0100
0010
1000
0100
,
0010
0000
0100
1000
0000
0000
0010
0000
0000
1000
0000
0001
,
0020
0001
0000
0032
,
2003
0010
0100
0010
,
3200
1000
0000
1000
,
0320
0001
1000
0001
,
0230
0001
0010
1000
,
0310
0000
0001
0100
0000
0001
0100
0000
0000
0010
0000
1000
,
0200
0010
0001
1000
,
0320
0001
0100
1000
,
0031
0000
0001
0000
0000
1000
0010
0000
0010
0000
0000
0100
,
0001
0010
1000
0010
,
0100
0000
0100
0000
0000
1000
0010
0000
0010
0000
0000
0100
,
0001
1000
0010
0100
,
1000
0000
1000
0000
0000
0100
0001
0000
0001
0000
0000
0010
,
0100
1000
0001
1000
,
0001
0000
0001
0000
0000
0100
0001
0000
0001
0000
0000
0010
,
0100
1000
0010
1000
,
0001
1010
0100
0010
,
1000
0101
0010
0001
,
1000
0110
0001
1000
,
0010
1001
0100
0010
,
1000
1100
0001
0100
,
0001
0011
0001
1000
,
0010
1010
0100
0101
,
0001
1000
1001
0110
,
2000
0001
0000
0001
,
3002
1000
0010
1000
,
0023
0100
0000
0100
,
0230
0001
1000
0001
,
0320
0001
0100
0001
,
0230
0001
0010
0001
,
2300
0010
0100
0010
,
3002
0100
0010
0100
,
1003
0010
1000
1001
,
0001
0100
0001
1001
,
0100
0010
0100
0110
,
0001
1000
0001
0101
,
0010
1000
0010
1010
,
0100
0001
0100
0110
,
0001
0010
0001
1000
,
0010
1000
0100
0010
,
0002
0000
1000
0000
,
0010
0000
0000
0000
1000
0000
0000
0010
,
0023
0000
0001
0000
,
0100
0000
0000
0000
0001
0000
0000
0100
,
0230
0000
1000
0000
,
0001
0000
0000
0000
1000
0000
0000
0001
,
0301
0001
0100
0100
,
0010
0000
0001
0000
1001
0000
0000
0100
,
0010
1000
0010
0100
,
0001
0100
0010
1000
,
0100
0010
0001
0100
,
0010
1000
0001
0100
,
1000
0100
0001
1000
,
0010
0001
0010
1000
,
0010
0010
0100
0100
,
0001
0000
1000
0000
1001
0000
0000
0100
,
0010
0001
0100
0001
,
0010
0001
1000
0010
,
1000
0100
1000
0001
,
0100
0001
1000
0010
,
0001
0010
1000
0010
,
0100
0010
0100
0001
,
1000
1000
0001
0001
,
0100
0010
1001
2002
,
0000
0000
0000
0000
,
0000
0000
0000
0000
,
0000
0000
0000
0000
,
0000
0000
0000
0000
,
0000
0000
0000
0000
,
0000
0000
0000
0000
,
0000
0000
0000
0000
,
0000
0000
0000
0000
,
0000
0000
0000
0000
,
3003
0000
0000
0000
;

//---------------dance-single - ----------------
#NOTEDATA:;
#CHARTNAME:EXPERT;
#CHARTHASH:1023155752;
#STEPSTYPE:dance-single;
#BANNER:;
#DESCRIPTION:;
#CHARTSTYLE:;
#DIFFICULTY:Hard;
#METER:14;
#METERF:14.000000;
#LASTSECONDHINT:126.052544;
#RADARVALUES:0.000000,0.000000,0.000000,0.000000,0.000000,0.000000,0.000000,0.000000,0.000000,0.000000,0.000000,0.000000,0.000000,0.000000,0.000000,0.000000,0.000000,0.000000,0.000000,0.000000,0.000000,0.000000,0.000000,0.000000,0.000000,0.000000,0.000000,0.000000;
#CREDIT:YonabearCWY;
#DISPLAYBPM:84.000000:296.000000;
#NOTES:
0000
0000
0000
0000
,
0000
0000
0000
0000
,
0000
0000
0000
0000
,
0000
0000
0000
0000
,
0000
0000
0000
0000
,
0000
0000
0000
0000
,
2000
3001
0020
0130
,
2000
3100
0020
0031
,
0200
0310
0002
1003
,
0200
0000
0000
0301
0000
0000
0020
0000
0000
0130
0000
1000
,
0001
0000
0000
0010
0000
0100
1000
0000
0000
0010
0000
0100
,
0001
0000
0010
0001
0000
1000
0001
0000
0000
0100
0000
0001
,
1000
0000
0000
0010
0000
0100
0001
0000
0000
1000
0000
0010
,
1000
0000
0001
0100
0000
0010
1000
0000
0000
0100
0000
0010
,
0001
0000
0000
1000
0000
0001
0100
0000
0000
0010
0000
1000
,
0100
0000
0010
0001
0000
1000
0010
0000
0100
0001
0000
1000
,
0001
0000
0000
0010
0000
0100
1000
0000
0010
0100
0000
0001
,
0010
0000
0000
0001
0000
1000
0010
0000
0000
0100
0000
0001
,
2000
0000
0000
0010
0000
0000
0100
0000
0000
3001
0000
1000
,
0020
0000
0000
0000
0000
0130
0002
0000
0000
0000
0000
0013
,
0200
1000
0000
1000
0000
0000
0001
0000
0000
0010
0000
0000
,
2300
0000
0000
0000
0000
3001
0200
0000
0000
0000
0000
0301
,
0020
0100
0000
1000
0000
0000
0001
0000
0000
0100
0000
0000
,
0031
0000
1000
0010
0000
0100
0001
0000
0010
0100
0000
1000
,
0002
1000
0010
0100
,
0013
0000
0001
1000
0000
0010
0100
0000
0001
0010
0000
0100
,
1000
0101
1000
0101
,
0010
0000
1000
0100
0000
1000
0001
0000
1000
0010
0000
1000
,
0100
0011
1000
0011
,
1000
0000
0001
0100
0000
0001
1000
0000
0001
0010
0000
0001
,
0100
0110
1000
0110
,
0001
0000
0100
0010
0000
1000
0010
0000
0100
0001
0000
0100
,
0010
1001
0100
1001
,
0010
0000
0100
0001
0000
1000
0010
0000
1000
0100
0000
1000
,
0002
0010
1000
0010
,
0203
0010
1000
0001
,
0320
0001
1000
0100
,
2030
0100
0010
0001
,
3100
1010
0100
0011
,
0100
1001
0010
0110
,
1000
0001
0100
0001
0000
0000
0001
1000
0010
1000
0000
0000
,
0010
0100
0010
0001
0000
0000
0110
0000
0000
1001
0000
0000
,
0010
0000
0100
0010
0000
0100
0010
0000
0100
0010
0000
0000
,
1000
0000
0001
0100
0000
0001
0100
0000
0001
0100
0000
0000
,
0010
0000
1000
0100
0000
0100
0010
0000
0010
0001
0000
0000
,
0100
0000
0001
0010
0000
0010
0100
0000
0100
0001
0000
0001
,
0100
0000
0100
1000
0000
1000
0100
0000
0100
0010
0000
0000
,
0001
0000
0001
1000
0000
1000
0010
0000
0010
0100
0000
0100
,
0001
0000
1000
0010
0000
1000
0010
0000
1000
0010
0000
0000
,
0100
0000
0001
0010
0000
0001
0010
0000
0001
0010
0000
0000
,
0100
0000
1000
0100
0000
0100
1000
0000
1000
0100
0000
0100
,
2000
0010
0100
0010
,
3001
0000
0100
0001
0000
0001
0100
0000
0100
0001
0000
0001
,
0200
0010
1000
0001
,
0310
0000
0010
1000
0000
1000
0010
0000
0010
0100
0000
0100
,
0002
1000
0010
1000
,
0103
0000
0100
0001
0000
0001
0010
0000
0010
0100
0000
0100
,
1000
0010
1000
0000
0001
0100
0001
0000
,
1000
0010
1000
0010
0100
0000
0010
0000
,
0100
0001
0010
0001
0010
0000
0100
0000
,
1000
0001
1000
0001
0010
0000
0100
0000
,
0010
0001
0010
0100
1000
0100
0010
0001
,
1000
0010
0100
0010
0001
0000
0010
0000
,
0100
0010
0100
1000
0100
0000
0010
0000
,
0100
0001
0100
0000
0010
1000
0010
0000
,
0100
0010
1001
0000
,
0010
0001
0100
0001
1000
0000
0010
0000
,
1000
0100
1000
0001
0100
0000
0010
0000
,
1000
0100
0010
0001
0010
0000
0100
0000
,
0010
0100
1000
0100
0010
0100
0010
0001
,
0010
0001
1000
0001
1000
0000
0010
0000
,
0100
0001
0100
1000
0100
0000
0010
0000
,
0100
0001
0100
0000
0010
1000
0010
0000
,
0100
0001
1001
0000
,
0010
0001
0010
0000
0001
0100
0001
0000
,
1000
0010
1000
0000
0010
0100
0010
0000
,
1000
0100
1000
0100
0010
0001
0010
0000
,
0001
0100
0001
0100
0010
1000
0010
0000
,
0100
0001
0100
0000
0001
0010
0001
0000
,
1000
0001
1000
0000
0010
0100
0010
0000
,
1000
0100
0010
0001
0100
0010
1000
0001
,
0010
0100
1000
0000
0110
0000
2002
0000
,
0000
0000
0000
0000
,
0000
0000
0000
0000
,
0000
0000
0000
0000
,
0000
0000
0000
0000
,
0000
0000
0000
0000
,
0000
0000
0000
0000
,
0000
0000
0000
0000
,
0000
0000
0000
0000
,
0000
0000
0000
0000
,
3003
0000
0000
0000
;

//---------------dance-single - ----------------
#NOTEDATA:;
#CHARTNAME:CHALLENGE;
#CHARTHASH:696822461;
#STEPSTYPE:dance-single;
#BANNER:;
#DESCRIPTION:;
#CHARTSTYLE:;
#DIFFICULTY:Challenge;
#METER:16;
#METERF:16.000000;
#LASTSECONDHINT:126.052544;
#RADARVALUES:0.655767,0.705161,0.103320,0.147600,0.800732,622.000000,608.000000,14.000000,20.000000,0.000000,0.000000,0.000000,0.000000,0.000000,0.655767,0.705161,0.103320,0.147600,0.800732,622.000000,608.000000,14.000000,20.000000,0.000000,0.000000,0.000000,0.000000,0.000000;
#CREDIT:YonabearCWY;
#DISPLAYBPM:84.000000:296.000000;
#NOTES:
// measure 0
0000
0000
0000
0000
,  // measure 1
0000
0000
0000
0000
,  // measure 2
0000
0000
0000
0000
,  // measure 3
0000
0000
0000
0000
,  // measure 4
0000
0000
0000
0000
0000
0000
0000
0000
0000
0000
0000
0000
0000
0010
0000
0000
0010
0000
0000
0000
0010
0000
0000
0000
0010
0000
0000
0000
0000
0010
0000
0000
0000
0000
0000
0000
0000
0000
0000
0000
0000
0000
0000
0000
0000
0000
0000
0000
0000
0000
0000
0000
0000
0000
0000
0000
0000
0000
0000
0000
0000
0000
0000
0000
,  // measure 5
0000
0000
0000
0000
,  // measure 6
2000
3001
0020
0130
,  // measure 7
2000
3100
0020
0031
,  // measure 8
0200
0301
0020
1030
,  // measure 9
0200
0000
0000
0310
0000
0000
2000
0000
0000
3001
0000
1000
,  // measure 10
0001
0000
0000
0000
0100
0000
0010
0000
0000
0000
0100
0000
0010
0000
0000
0000
0100
0000
0010
0100
0010
0000
0100
0000
,  // measure 11
0001
0000
0001
1000
0000
1000
0001
0000
0001
0100
0000
0100
,  // measure 12
0001
0000
0000
0000
1000
0000
0010
0000
0000
0000
1000
0000
0010
0000
0000
0000
1000
0000
0001
0100
0010
0100
0010
0000
,  // measure 13
0100
0000
0001
0010
0000
0010
0001
0000
0001
0100
0000
0100
,  // measure 14
0010
0000
0000
0000
1000
0000
0100
0000
0000
0000
1000
0000
0100
0000
0000
0000
1000
0000
0100
0010
0001
0010
0001
0000
,  // measure 15
0100
0000
0100
0010
0000
0010
1000
0000
1000
0001
0000
0001
,  // measure 16
0100
0000
0000
0000
0001
0000
1000
0000
0000
0000
0001
0000
1000
0000
0000
0000
0001
0000
0100
0010
0100
0010
0100
0000
,  // measure 17
0001
0000
0010
0100
0000
0001
1000
0000
0100
0010
0000
0001
,  // measure 18
0200
0000
0000
0000
0000
0000
0010
0000
0000
0000
0000
0000
1000
0000
0000
0000
0000
0000
0301
0100
0001
0100
0010
0000
,  // measure 19
1000
0000
0100
0010
0000
0001
1000
0000
0010
0100
0000
0001
,  // measure 20
2000
0000
0001
0000
0000
0000
0100
0000
0000
0000
0000
0000
3010
0000
0100
0000
1000
0000
0100
0001
0100
0001
1000
0000
,  // measure 21
0010
0000
0100
0001
0000
1000
0010
0000
0100
0010
0000
1000
,  // measure 22
0002
0000
0010
0000
0000
0000
0010
0000
0000
0000
0000
0000
1000
0000
0000
0000
0000
0000
0013
0001
0010
0001
1000
0000
,  // measure 23
0010
0000
0010
0100
0000
0001
1000
0000
0100
0010
0000
0001
,  // measure 24
0020
0000
0000
0000
0000
0000
0100
0000
0000
0000
0000
0000
1000
0000
0000
0000
0000
0000
0031
0010
0001
0010
0100
0000
,  // measure 25
1000
0000
0100
0010
0000
0001
0100
0000
0010
1000
0000
0001
,  // measure 26
0200
0000
0000
0000
0000
0000
0010
0000
0000
0000
0310
0000
0000
0000
0000
0000
0010
0000
1000
0000
0100
0000
1000
0001
,  // measure 27
0010
0000
0100
0001
0000
0001
0100
0000
0001
1000
0000
1000
,  // measure 28
0002
0000
0000
0000
0000
0000
0010
0000
0000
0000
0013
0000
0000
0000
0001
1000
0001
0000
0100
0000
0010
0000
1000
0010
,  // measure 29
0100
0000
0100
0001
0000
0001
0010
0000
0100
1000
0000
1000
,  // measure 30
0020
0000
0000
0000
0000
0000
0100
0000
0000
0000
0130
0000
0001
0000
0010
0000
0100
0000
1000
0100
0010
0001
0010
0000
,  // measure 31
0100
0000
0100
1000
0000
1000
0001
0000
0001
0100
0000
0100
,  // measure 32
0002
0000
0000
0000
0000
0000
1000
0000
0000
0000
1003
0000
0001
0000
0100
0010
0100
0000
0010
0000
0100
0000
0001
0100
,  // measure 33
0010
0000
1000
0100
0000
0100
0001
0000
0001
0100
0000
0100
,  // measure 34
1000
0000
1000
0010
0000
0010
0001
0000
0001
0010
0000
0010
,  // measure 35
0100
0000
0100
1000
0000
1000
0100
0000
0100
0001
0000
0001
,  // measure 36
0100
0000
0010
1000
0000
0001
0100
0000
0010
1000
0000
0010
,  // measure 37
0001
0000
0100
1000
0000
0010
0001
0000
0100
1000
0000
0010
,  // measure 38
0100
0000
0001
1000
0000
0100
0010
0000
0001
1000
0000
1000
,  // measure 39
0001
0000
0010
0100
0000
0001
1000
0000
0100
0010
0000
1000
,  // measure 40
0001
1000
0010
2000
0000
0000
3001
0100
0001
0020
0000
0000
,  // measure 41
0130
1000
0100
0010
0001
0100
1000
0000
0000
0110
0000
0000
,  // measure 42
0001
0000
0001
0100
0000
0100
0001
0000
0001
1000
0010
0100
,  // measure 43
0001
0000
0001
0010
0000
0010
0100
0000
0100
0001
0000
0001
,  // measure 44
0100
0000
0100
1000
0000
1000
0010
0000
0010
0100
0010
0001
,  // measure 45
0010
0000
0010
0100
0000
0100
1000
0000
1000
0100
0000
0100
,  // measure 46
0010
0000
0010
1000
0000
1000
0001
1000
0001
0100
0001
0100
,  // measure 47
0001
0000
0001
0010
0000
0010
0100
0000
0100
1000
0000
1000
,  // measure 48
0010
0000
0010
0100
0000
0100
0001
0000
0001
1000
0010
1000
,  // measure 49
0100
0000
0100
1000
0000
1000
0001
0000
0001
1000
0000
1000
,  // measure 50
0010
0000
0010
0100
0000
0010
0100
0000
0010
1000
0001
1000
,  // measure 51
0100
0000
0100
0010
0000
0100
0010
0000
0010
0001
0000
0010
,  // measure 52
0001
0000
1000
0001
0000
1000
0001
0000
0010
0100
0001
0100
,  // measure 53
1000
0000
1000
0100
0000
0100
1000
0000
1000
0001
0000
0001
,  // measure 54
0100
0000
0010
1000
0000
0001
0100
0000
0010
1000
0100
0010
,  // measure 55
0001
0000
1000
0100
0000
0010
0001
0000
0100
0010
0000
1000
,  // measure 56
0001
0000
0000
0010
0000
0000
0001
0000
0000
0100
0000
0000
0010
0000
0000
1000
0000
0000
0100
0000
1000
0000
0100
0000
,  // measure 57
0001
0100
1000
0100
0001
1000
0010
1000
,  // measure 58
0001
0100
0001
0100
0010
1000
0010
1000
,  // measure 59
0100
0010
0100
0010
0001
1000
0001
1000
,  // measure 60
0100
0010
0001
1000
0010
0100
0001
0010
,  // measure 61
0100
1000
0001
0100
0010
1000
0100
0010
,  // measure 62
0100
1000
0001
0100
0010
0100
0001
1000
,  // measure 63
0100
0001
0100
1000
0001
0100
1000
0100
,  // measure 64
0001
0110
1000
0110
,  // measure 65
0001
0000
0000
0110
0000
0000
1001
0000
0000
0000
0010
1000
,  // measure 66
0010
0100
0001
0100
0010
1000
0100
0010
,  // measure 67
0001
0100
0010
1000
0010
0100
0001
0010
,  // measure 68
0001
1000
0010
0100
0001
0010
0001
0100
,  // measure 69
0010
1000
0010
0001
0010
0100
1000
0100
,  // measure 70
0010
1000
0001
1000
0010
1000
0100
0010
,  // measure 71
0100
0010
0001
0010
1000
0010
0001
0010
,  // measure 72
1000
0101
0010
1100
,  // measure 73
0010
0000
0000
0110
0000
0000
1001
0000
0000
0000
0001
0100
,  // measure 74
0001
0010
0001
1000
0010
1000
0100
0010
,  // measure 75
0001
0100
0010
0100
0001
0010
0100
0010
,  // measure 76
0001
1000
0100
0010
0100
1000
0001
0100
,  // measure 77
0001
1000
0010
0001
0010
1000
0001
0010
,  // measure 78
1000
0010
0001
1000
0100
0001
0100
1000
,  // measure 79
0001
0100
1000
0100
0001
1000
0010
1000
,  // measure 80
0001
1100
0010
0101
,  // measure 81
0010
1100
0011
2002
,  // measure 82
0000
0000
0000
0000
,  // measure 83
0000
0000
0000
0000
,  // measure 84
0000
0000
0000
0000
,  // measure 85
0000
0000
0000
0000
,  // measure 86
0000
0000
0000
0000
,  // measure 87
0000
0000
0000
0000
,  // measure 88
0000
0000
0000
0000
,  // measure 89
0000
0000
0000
0000
,  // measure 90
0000
0000
0000
0000
,  // measure 91
3003
0000
0000
0000
;

//---------------dance-double - ----------------
#NOTEDATA:;
#CHARTNAME:BASIC;
#CHARTHASH:2147483647;
#STEPSTYPE:dance-double;
#BANNER:;
#DESCRIPTION:;
#CHARTSTYLE:;
#DIFFICULTY:Easy;
#METER:8;
#METERF:8.000000;
#LASTSECONDHINT:126.052544;
#RADARVALUES:0.000000,0.000000,0.000000,0.000000,0.000000,0.000000,0.000000,0.000000,0.000000,0.000000,0.000000,0.000000,0.000000,0.000000,0.000000,0.000000,0.000000,0.000000,0.000000,0.000000,0.000000,0.000000,0.000000,0.000000,0.000000,0.000000,0.000000,0.000000;
#CREDIT:YonabearCWY;
#DISPLAYBPM:84.000000:296.000000;
#NOTES:
00000000
00000000
00000000
00000000
,
00000000
00000000
00000000
00000000
,
00000000
00000000
00000000
00000000
,
00000000
00000000
00000000
00000000
,
00000000
00000000
00000000
00000000
,
00000000
00000000
00000000
00000000
,
00002000
00003010
00000000
00000010
,
00002000
00013000
00000000
00100000
,
02000000
13000000
00000000
10000000
,
02000000
03010000
00000000
00001000
,
00000110
00001000
00000001
00000000
,
00000110
00000010
00001000
00000010
,
00011000
00010000
00001000
00000000
,
00100000
01000000
10000000
01000000
,
01010000
00010000
00100000
00001000
,
00011000
00010000
00000100
00000010
,
00000011
00000001
00001000
00000001
,
00000110
00000010
00010000
00001000
,
00022000
00000000
00033000
00001000
,
00100000
00100000
01000000
01000000
,
22000000
00000000
33000000
00010000
,
00010000
01000000
00010000
00100000
,
00022000
00000000
00033000
00000100
,
00000010
00000001
00001000
00000010
,
00010100
00010000
00001000
00100000
,
01000000
10000000
01000000
00010000
,
01100000
10000000
01100000
00010000
,
00102000
00000000
00103000
00000000
,
00011000
00000100
00011000
00100000
,
00020100
00000000
00030100
00000000
,
00001001
00000010
00001001
00000100
,
00012000
00000000
00013000
00000000
,
00001000
00100000
00010000
01000000
,
10000000
01000000
00010000
00100000
,
00002000
00003000
00020000
00030000
,
00002000
00003000
00020000
00030000
,
00000200
00000300
00000020
00000030
,
00000200
00000300
00002000
00003000
,
00020000
00030000
00200000
00300000
,
02000000
03000000
20000000
30000000
,
00010000
00010000
10000000
10000000
,
00100000
00100000
01100000
10010000
,
01000000
00000000
01000000
00000000
,
00100000
00000000
00100000
00000000
,
01000000
00000000
01000000
00000000
,
00001000
00001000
00010000
00010000
,
00000100
00000000
00000100
00000000
,
00000010
00000000
00000010
00000000
,
00000001
00000000
00000001
00000000
,
00001000
00000000
00001000
00000000
,
00000010
00000010
00000100
00000010
,
00001000
00000000
00001000
00000000
,
00000100
00000100
00010000
00001000
,
00010000
00000000
00001000
00000000
,
00100000
00100000
00010000
10000000
,
00010000
00000000
01000000
00000000
,
00100000
10000000
00100000
10000000
,
00010000
01000000
00010000
01000000
,
00011000
00000000
00000100
00000000
,
00000011
00000000
00000100
00000000
,
00011000
00000000
00100000
00000000
,
11000000
00000000
00010000
00000000
,
01010000
00000000
00100000
00000000
,
00011000
00000000
00000100
00000000
,
00001010
00000000
00000011
00000000
,
00000100
00000010
00000100
00000000
,
00000010
00001000
00000010
00000000
,
00010000
00001000
00010000
00000000
,
00001000
00100000
00001000
00000000
,
01000000
00010000
01000000
00000000
,
00100000
10000000
00010000
00000000
,
10000000
01000000
00100000
00000000
,
00101000
00000000
00011000
00000000
,
00000100
00010000
00000100
00000000
,
00001000
00000100
00000010
00000100
,
00001000
00000000
00000010
00000000
,
00000100
00000001
00000010
00000001
,
00001000
00000000
00000010
00000000
,
00010000
00001000
00010000
00000100
,
00010000
00000000
00001000
00000000
,
00100000
00001000
01000000
00001000
,
00100000
00000000
00100000
20020000
,
00000000
00000000
00000000
00000000
,
00000000
00000000
00000000
00000000
,
00000000
00000000
00000000
00000000
,
00000000
00000000
00000000
00000000
,
00000000
00000000
00000000
00000000
,
00000000
00000000
00000000
00000000
,
00000000
00000000
00000000
00000000
,
00000000
00000000
00000000
00000000
,
00000000
00000000
00000000
00000000
,
30030000
00000000
00000000
00000000
;

//---------------dance-double - ----------------
#NOTEDATA:;
#CHARTNAME:DIFFICULT;
#CHARTHASH:1219936846;
#STEPSTYPE:dance-double;
#BANNER:;
#DESCRIPTION:;
#CHARTSTYLE:;
#DIFFICULTY:Medium;
#METER:11;
#METERF:11.000000;
#LASTSECONDHINT:126.052544;
#RADARVALUES:0.000000,0.000000,0.000000,0.000000,0.000000,0.000000,0.000000,0.000000,0.000000,0.000000,0.000000,0.000000,0.000000,0.000000,0.000000,0.000000,0.000000,0.000000,0.000000,0.000000,0.000000,0.000000,0.000000,0.000000,0.000000,0.000000,0.000000,0.000000;
#CREDIT:YonabearCWY;
#DISPLAYBPM:84.000000:296.000000;
#NOTES:
00000000
00000000
00000000
00000000
,
00000000
00000000
00000000
00000000
,
00000000
00000000
00000000
00000000
,
00000000
00000000
00000000
00000000
,
00000000
00000000
00000000
00000000
,
00000000
00000000
00000000
00000000
,
00002000
00000010
00000000
00003010
,
00000200
00010000
00000000
00010300
,
00002000
00100000
00000000
00103000
,
02000000
00100000
00000000
03100000
,
10010000
00000000
00000000
00100000
00000000
00000000
01000000
00000000
00000000
00100000
00000000
01000000
,
00010000
00100000
00001000
00100000
,
00011000
00000000
00000000
00000100
00000000
00000000
00010000
00000000
00000000
00000100
00000000
00001000
,
00000010
00000100
00000001
00000010
,
00000110
00000000
00000000
00001000
00000000
00000000
00000001
00000000
00000000
00001000
00000000
00000010
,
00010000
00000000
00000000
00001000
00000000
00000000
00010000
00000000
00000000
00100000
00000000
01000000
,
00100000
01000000
10000000
00010000
,
01100000
00000000
00000000
00010000
00000000
00000000
00100000
00000000
00000000
00001000
00000000
00010000
,
00001000
00000000
00010000
00002000
00000000
00000000
00010000
00000000
00000000
00013000
00000000
00000000
,
00001100
00000000
00000000
00000010
00000000
00000001
00000100
00000000
00000000
00000010
00000000
00001000
,
00000100
00000000
00001000
00000200
00000000
00000000
00010000
00000000
00000000
00010300
00000000
00000000
,
00011000
00000000
00000000
00100000
00000000
01000000
00100000
00000000
00000000
00010000
00000000
00010000
,
20000000
00010000
00000000
00010000
00000000
00000000
30010000
00000000
00000000
00100000
00000000
00000000
,
01010000
00000000
00000000
00100000
00000000
00000000
00001000
00000000
00000000
00010000
00000000
00000100
,
00020000
00000100
00030100
00011000
,
00010000
00000100
00000010
00000001
,
00002000
00000000
00000000
00000010
00000000
00000010
00000000
00000000
00000000
00003010
00000000
00000000
,
00001000
00000000
00000100
00010000
00000000
00000000
00001000
00000000
00100000
00001000
00000000
00000000
,
00020000
00000000
00000000
00100000
00000000
00100000
00000000
00000000
00000000
00130000
00000000
00000000
,
01100000
00000000
10000000
01000000
00000000
00000000
00110000
00000000
00100000
00001000
00000000
00000000
,
00020000
00000000
00000000
00000100
00000000
00000100
00000000
00000000
00000000
00030100
00000000
00000000
,
00010000
00000100
00001000
00000010
,
00000002
00000000
00000000
00001000
00000000
00001000
00000000
00000000
00000000
00001003
00000000
00000000
,
00000100
00000010
00000100
00010000
,
00001000
00001000
00010000
00010000
,
00001000
00100000
00010000
01000000
,
00100000
00100000
01000000
01000000
,
00100000
10000000
01000000
00100000
,
00011000
00000100
00000010
00000001
,
00001100
00000010
00001000
00000100
,
00012000
00103000
00210000
01300000
,
12000000
03010000
10010000
01100000
,
20010000
00000000
00000000
00100000
00000000
00100000
00000000
00000000
00000000
30100000
00000000
00000000
,
01100000
00010000
01000000
00001000
,
00102000
00000000
00000000
00100000
00000000
00100000
00000000
00000000
00000000
00013000
00000000
00000000
,
00011000
00000100
00000010
00000001
,
00001000
00000000
00000010
00001000
00000000
00000000
00000100
00000000
00000000
00010000
00000000
00000000
,
00001000
00000000
00100000
00001000
00000000
00000000
00010000
00000000
00000000
00001000
00000000
00000000
,
00100000
00000000
00010000
01000000
00000000
00000000
00100000
00000000
10000000
00100000
00000000
00000000
,
01000000
00000000
00010000
01000000
00000000
00010000
01000000
00000000
00000000
00001000
00000000
00000000
,
00100000
00001000
00100000
00000000
00001000
00000000
00010000
00000000
,
00000100
00001000
00000100
00000000
00001000
00000010
00001000
00000000
,
00000001
00000010
00000100
00001000
,
00000100
00010000
00000100
00000000
00010000
00000100
00010000
00000000
,
00001000
00100000
00010000
01000000
,
00010000
00100000
00010000
00000000
01000000
00000000
00100000
00000000
,
10000000
01000000
00100000
00001000
,
00010000
00001000
00010000
00000000
00000100
00000000
00000010
00000000
,
00000021
00000000
00001000
00000000
,
00000001
00000000
00000000
00000000
00001000
00000000
00000000
00000031
,
00000100
00000010
00001000
00000000
,
00000100
00010000
00100000
00000000
,
12000000
00000000
00010000
00000000
,
10000000
00000000
00000000
00000000
00010000
00000000
00000000
13000000
,
01000000
00010000
01000000
00100000
,
10000000
00000000
01000000
00000000
00101000
00000000
00000000
00001000
,
00010000
00000100
00000010
00000001
,
00000100
00000010
00001000
00000100
,
00001000
00010000
00100000
00010000
,
10000000
01000000
00100000
01000000
,
10000000
00010000
01000000
00001000
,
00010000
00001000
00100000
00001000
,
00010000
00001000
00010000
00000000
00000100
00010000
00000100
00000000
,
00001000
00000000
00001000
00000000
00001020
00000000
00000000
00000130
,
00000001
00000010
00000100
00001000
,
00000100
00010000
00000100
00010000
,
00001000
00100000
00010000
01000000
,
10000000
01000000
00010000
00100000
,
00001000
00010000
00001000
00000100
,
00000010
00000100
00010000
00000100
,
00000010
00001000
00000010
00000000
00010000
00001000
00010000
00000000
,
00001000
00100000
01000000
20020000
,
00000000
00000000
00000000
00000000
,
00000000
00000000
00000000
00000000
,
00000000
00000000
00000000
00000000
,
00000000
00000000
00000000
00000000
,
00000000
00000000
00000000
00000000
,
00000000
00000000
00000000
00000000
,
00000000
00000000
00000000
00000000
,
00000000
00000000
00000000
00000000
,
00000000
00000000
00000000
00000000
,
30030000
00000000
00000000
00000000
;

//---------------dance-double - ----------------
#NOTEDATA:;
#CHARTNAME:EXPERT;
#CHARTHASH:2147483647;
#STEPSTYPE:dance-double;
#BANNER:;
#DESCRIPTION:;
#CHARTSTYLE:;
#DIFFICULTY:Hard;
#METER:14;
#METERF:14.000000;
#LASTSECONDHINT:126.052544;
#RADARVALUES:0.000000,0.000000,0.000000,0.000000,0.000000,0.000000,0.000000,0.000000,0.000000,0.000000,0.000000,0.000000,0.000000,0.000000,0.000000,0.000000,0.000000,0.000000,0.000000,0.000000,0.000000,0.000000,0.000000,0.000000,0.000000,0.000000,0.000000,0.000000;
#CREDIT:YonabearCWY;
#DISPLAYBPM:84.000000:296.000000;
#NOTES:
00000000
00000000
00000000
00000000
,
00000000
00000000
00000000
00000000
,
00000000
00000000
00000000
00000000
,
00000000
00000000
00000000
00000000
,
00000000
00000000
00000000
00000000
,
00000000
00000000
00000000
00000000
,
00020000
10030000
02000000
03100000
,
00002000
00013000
00020000
00031000
,
00000020
00000130
00002000
00003001
,
00000020
00010030
00020000
00031000
,
00101000
00000000
00100000
00010000
00000000
10000000
00010000
00000000
01000000
00010000
00000000
00000000
,
00100000
00000000
01000000
10000000
00000000
00010000
01000000
00000000
00000000
00100000
00000000
00000000
,
10010000
00000000
00010000
00100000
00000000
00001000
00100000
00000000
00001000
00010000
00000000
00000000
,
00010100
00000000
00000100
00001000
00000000
00001000
00000010
00000000
00000010
00000100
00000000
00000000
,
00000011
00000000
00001000
00000100
00000000
00000100
00010000
00000000
00010000
00001000
00000000
00000000
,
00100000
00000000
00010000
00100000
00000000
00100000
01000000
00000000
01000000
00000000
00000000
10000000
,
00010000
00000000
00100000
01000000
00000000
01000000
00010000
00000000
00010000
00100000
00000000
00100000
,
00001000
00000000
00000000
00010010
00000000
00000010
00001000
00000000
00001000
00000100
00000000
00000100
,
00010000
00012000
01000000
00010000
,
00103000
00000000
00100000
00010000
00000000
00010000
20000000
00000000
00000000
00000000
00000000
31000000
,
00200000
00000000
00000000
00001000
00000000
00000000
00010000
00000000
00000000
00301000
00100000
00001000
,
00010000
00000000
00010000
00000100
00000000
00000100
00002000
00000000
00000000
00003010
00000000
00000000
,
00001200
00000000
00000000
00010000
00000000
00000000
00001000
00000000
00000000
00010300
00000100
00001000
,
00000100
00000000
00000100
00001000
00000000
00001000
00000010
00000000
00000010
00000100
00000000
00000100
,
00000002
00000000
00000000
00000010
00000000
00000000
00000100
00000000
00000000
00001003
00000001
00000010
,
00000100
00000000
00000100
00010000
00000000
00010000
00001000
00000000
00001000
00100000
00000000
00100000
,
02000000
00000000
00000000
10000000
00000000
10000000
00000000
00000000
00000000
03010000
01000000
10000000
,
01000000
00000000
01000000
00100000
00000000
00000000
00101000
00000000
00001000
00010000
00000000
00000000
,
00000120
00000000
00000000
00000001
00000000
00000001
00000000
00000000
00000130
00000010
00001000
00000010
,
00000100
00000000
00000100
00000010
00000000
00000000
00011000
00000000
00001000
00100000
00000000
00000000
,
21000000
00000000
00000000
00010000
00000000
00010000
00000000
00000000
30100000
01000000
10000000
01000000
,
00010000
00000000
01000000
00100000
00000000
00100000
00001000
00000000
00001000
00010000
00000000
00000000
,
00001020
00000000
00000000
00000100
00000000
00000100
00000000
00000000
00001030
00000010
00000100
00000001
,
00000010
00000000
00000010
00000100
00000000
00000100
00010000
00000000
00010000
00001000
00000000
00001000
,
00200000
00010000
10000000
00010000
,
02300000
00100000
03002000
00000100
,
00023000
00000100
00001000
00000100
,
00030020
00001000
00000230
00000001
,
00000310
00000000
00000010
00001000
00000000
00001000
00000100
00000000
00000100
00010000
00000000
00010000
,
00001000
00000000
00010000
00001000
00000000
00001000
00100000
00000000
00100000
01000000
00000000
01000000
,
10000000
00000000
01000000
10000000
00000000
01000000
00010000
00000000
01000000
00010000
00000000
01000000
,
10000000
01000000
10000000
00010000
01000000
00010000
00100000
00000000
00000000
01100000
00000000
00000000
,
00101000
00000000
00001000
00010000
00000000
00000000
00010100
00000000
00000100
00001000
00000000
00000000
,
00000010
00000000
00000001
00000010
00000000
00000010
00001000
00000000
00000010
00000001
00000000
00000010
,
00000100
00000000
00000000
00001100
00000000
00000100
00010000
00000000
00000000
00011000
00000000
00010000
,
00001000
00000000
00000000
00100000
00010000
00100000
00020000
00000000
00000000
10030000
00100000
10000000
,
00200000
00000000
00000000
01000000
00000000
01000000
00000000
00000000
01300000
00010000
00100000
00001000
,
00100000
00000000
00100000
00010000
00000000
00010000
00001000
00000000
00001000
00000100
00000000
00000100
,
00001000
00000000
00001000
00000010
00000000
00000000
00000011
00000000
00000001
00001000
00000000
00000000
,
00001100
00000000
00000100
00010000
00000000
00010000
00000100
00000000
00000100
00001000
00000000
00001000
,
00010000
00000000
00000000
00011000
00000000
00001000
00100000
00000000
00000000
01100000
00000000
01000000
,
10000000
00000000
00000000
00010000
01000000
00010000
02000000
00000000
00000000
03001000
00100000
00001000
,
00200000
00000000
00000000
00301000
00000000
00001000
00010000
00000000
00010000
00000100
00000000
00000100
,
00000010
00000000
00000010
00000001
00000000
00000001
00001000
00000000
00001000
00000100
00000000
00000000
,
00011000
00000000
00001000
00100000
00000000
00100000
00010000
00000000
00010000
10000000
00000000
10000000
,
01000000
00000000
01000000
00100000
00000000
00100000
01000000
00000000
01000000
10000000
00000000
10000000
,
00010000
00100000
00010000
00000000
01000000
00000000
00010000
00100000
,
00001000
00000000
00010000
00000000
00000100
00001000
00000100
00000000
,
00000010
00000001
00001000
00000001
00000010
00000000
00000100
00000000
,
00010000
00001000
00000100
00001000
00010000
00000000
00001000
00000000
,
00100000
00010000
00100000
01000000
00100000
00000000
01000000
00000000
,
10000000
01000000
00010000
01000000
10000000
00000000
00100000
00000000
,
01000000
00010000
00100000
00010000
01000000
00000000
00001000
00000000
,
00010000
00001000
00010000
00000100
00001000
00000100
00000010
00000001
,
00001000
00000010
00010000
00000100
,
00010000
00001000
00101000
00000000
,
00100000
00000000
01000000
00000000
10000000
01000000
10000000
00000000
,
00100000
00000000
01000000
00000000
00001000
00100000
00001000
00000000
,
00010000
00000000
00000100
00000000
00010000
00000010
00010000
00000000
,
00000100
00000000
00001000
00000000
00000100
00000010
00000100
00000000
,
00001000
00000000
00010000
00000000
00100000
01000000
00100000
00000000
,
01000000
00000000
10000000
00000000
00010000
01000000
00010000
01000000
,
00100000
10000000
01000000
00100000
,
00001000
00010000
00011000
00000000
,
00000010
00000100
00000010
00000100
00000010
00000000
00001000
00000000
,
00000100
00010000
00000100
00010000
00001000
00000000
00100000
00000000
,
00010000
01000000
00100000
01000000
00100000
00000000
10000000
00000000
,
01000000
00100000
01000000
00100000
00010000
00000000
00100000
00001000
,
00100000
00001000
00010000
00000100
00001000
00000000
00000010
00000000
,
00000100
00000001
00000100
00000001
00000100
00000000
00000010
00001000
,
00000010
00010000
00000100
00001000
,
00010000
00100000
01100000
20020000
,
00000000
00000000
00000000
00000000
,
00000000
00000000
00000000
00000000
,
00000000
00000000
00000000
00000000
,
00000000
00000000
00000000
00000000
,
00000000
00000000
00000000
00000000
,
00000000
00000000
00000000
00000000
,
00000000
00000000
00000000
00000000
,
00000000
00000000
00000000
00000000
,
00000000
00000000
00000000
00000000
,
30030000
00000000
00000000
00000000
;

//---------------dance-double - ----------------
#NOTEDATA:;
#CHARTNAME:CHALLENGE;
#CHARTHASH:2147483647;
#STEPSTYPE:dance-double;
#BANNER:;
#DESCRIPTION:;
#CHARTSTYLE:;
#DIFFICULTY:Challenge;
#METER:16;
#METERF:16.000000;
#LASTSECONDHINT:126.052544;
#RADARVALUES:0.000000,0.000000,0.000000,0.000000,0.000000,0.000000,0.000000,0.000000,0.000000,0.000000,0.000000,0.000000,0.000000,0.000000,0.000000,0.000000,0.000000,0.000000,0.000000,0.000000,0.000000,0.000000,0.000000,0.000000,0.000000,0.000000,0.000000,0.000000;
#CREDIT:YonabearCWY;
#DISPLAYBPM:84.000000:296.000000;
#NOTES:
00000000
00000000
00000000
00000000
,
00000000
00000000
00000000
00000000
,
00000000
00000000
00000000
00000000
,
00000000
00000000
00000000
00000000
,
00000000
00000000
00000000
00000000
00000000
00000000
00000000
00000000
00000000
00000000
00000000
00000000
00000000
00001000
00000000
00000000
00010000
00000000
00000000
00000000
00001000
00000000
00000000
00000000
00010000
00000000
00000000
00000000
00000000
00001000
00000000
00000000
00000000
00000000
00000000
00000000
00000000
00000000
00000000
00000000
00000000
00000000
00000000
00000000
00000000
00000000
00000000
00000000
00000000
00000000
00000000
00000000
00000000
00000000
00000000
00000000
00000000
00000000
00000000
00000000
00000000
00000000
00000000
00000000
,
00000000
00000000
00000000
00000000
,
00200000
01300000
20000000
30010000
,
00200000
00301000
00002000
00013000
,
00000200
00001300
00000002
00000013
,
00000200
00000000
00000000
00010300
00000000
00000000
00020000
00000000
00000000
00031000
00000000
00001000
,
00010000
00000000
00000000
00000000
00001000
00000000
00100000
00000000
00000000
00000000
00001000
00000000
00100000
00000000
00000000
00000000
00010000
00000000
01000000
00000000
00100000
10000000
00100000
00000000
,
01000000
00000000
01000000
00010000
00000000
00010000
00100000
00000000
00100000
01000000
00000000
01000000
,
00010000
00000000
00000000
00000000
00010000
00000000
00001000
00000000
00000000
00000000
00010000
00000000
00001000
00000000
00000000
00000000
00010000
00000000
00000100
00000000
00001000
00000010
00001000
00000000
,
00000010
00000000
00000010
00000100
00000000
00000100
00000001
00000000
00000001
00001000
00000000
00001000
,
00000010
00000000
00010000
00000000
00001000
00000000
00010000
00000000
00000000
00000000
00001000
00000000
00010000
00000000
00000000
00000000
00001000
00000000
00100000
00010000
01000000
00010000
01000000
00000000
,
00100000
00000000
10000000
00100000
00000000
00100000
01000000
00000000
01000000
00001000
00000000
00001000
,
00100000
00000000
00000000
00000000
00100000
00000000
00001000
00000000
00000000
00000000
00100000
00000000
00001000
00000000
00000000
00000000
00001000
00000000
00010000
00000100
00010000
00000100
00001000
00000000
,
00000010
00000000
00000010
00000100
00000000
00000100
00000001
00000000
00000001
00001000
00000000
00001000
,
00000200
00000000
00000000
00000000
00000000
00000000
00010000
00000000
00000000
00000000
00010000
00000000
00000000
00000000
00000000
00000000
00010300
00000000
00000100
00000000
00010000
00001000
00010000
00000000
,
00001000
00000000
00001000
00100000
00000000
00100000
01000000
00000000
01000000
10000000
00000000
10000000
,
00010000
00000000
00200000
00000000
00000000
00000000
00001000
00000000
00000000
00000000
00001000
00000000
00000000
00000000
00000000
00000000
00301000
00000000
00100000
00010000
00100000
00010000
00100000
00000000
,
00001000
00000000
00001000
00010000
00000000
00010000
00000100
00000000
00000100
00000010
00000000
00000010
,
00000001
00000000
00002000
00000000
00000000
00000000
00000100
00000000
00000000
00000000
00000100
00000000
00000000
00000000
00000000
00000000
00003100
00000000
00010000
00000100
00010000
00001000
00010000
00000000
,
00001000
00000000
00001000
00100000
00000000
00100000
00010000
00000000
00010000
10000000
00000000
10000000
,
00020000
00000000
00000000
00000000
00000000
00000000
00100000
00000000
00000000
00000000
00100000
00000000
00000000
00000000
00000000
00000000
00130000
00000000
00010000
00000000
00100000
00001000
00100000
00000000
,
00001000
00000000
00001000
00010000
00000000
00010000
00000100
00000000
00000100
00001000
00000000
00000000
,
00000110
00000000
00000000
00000000
00000010
00000000
00000100
00000000
00000000
00000000
00000100
00000000
00000001
00000000
00000000
00000000
00000001
00000000
00000010
00000000
00000100
00000000
00001000
00000100
,
00010000
00000000
00001000
00010000
00000000
00001000
00000100
00000000
00001000
00010000
00000000
00001000
,
00100000
00000000
00000000
00000000
00100000
00000000
00010000
00000000
00000000
00000000
00010000
00000000
10000000
00000000
00000000
00000000
10000000
00000000
01000000
00100000
00010000
00100000
00010000
00000000
,
01000000
00000000
00100000
10000000
00000000
00100000
00010000
00000000
00100000
01000000
00000000
00100000
,
00010000
00000000
00000000
00000000
00100000
00000000
01000000
00000000
00000000
00000000
01000000
00000000
00010000
00000000
00000000
00000000
00010000
00000000
00100000
00000000
00001000
00000000
00010000
00000100
,
00001000
00000000
00001000
00000010
00000000
00000010
00000100
00000000
00000100
00000001
00000000
00000001
,
00000010
00000000
00000000
00000000
00000010
00000000
00000100
00000000
00000000
00000000
00000010
00000000
00001000
00000000
00000000
00000000
00001000
00000000
00010000
00000000
00001000
00000000
00100000
00010000
,
01000000
00000000
01000000
10000000
00000000
01000000
00010000
00000000
01000000
00100000
00000000
01000000
,
00010000
00000000
00010000
00100000
00000000
00010000
00001000
00000000
00010000
01000000
00000000
00010000
,
00100000
00000000
00100000
00001000
00000000
00100000
00010000
00000000
00100000
01000000
00000000
00100000
,
00001000
00000000
00001000
00010000
00000000
00001000
00000100
00000000
00001000
00010000
00000000
00001000
,
00000010
00000000
00000001
00000010
00000000
00001000
00000010
00000000
00000001
00000010
00000000
00000010
,
00000100
00000000
00000100
00010000
00000000
00001000
00010000
00000000
00001000
00100000
00000000
00010000
,
01000000
00000000
00100000
10000000
00000000
01000000
10000000
00000000
01000000
00100000
00000000
00100000
,
00001000
00010000
00001000
00010000
00000000
00000100
00010000
00001000
00010000
00001000
00000000
00100000
,
00001000
00010000
00001000
00010000
00000100
00000010
00000100
00000000
00000000
00011000
00000000
00000000
,
01100000
00000000
10000000
01000000
00000000
01000000
00100000
00000000
00100000
00001000
00010000
00001000
,
00000100
00000000
00000010
00000100
00000000
00000001
00000100
00000000
00000010
00001000
00000000
00000100
,
00000010
00000000
00000100
00001000
00000000
00000100
00000001
00000000
00000100
00001000
00010000
00100000
,
00010000
00000000
01000000
00010000
00000000
10000000
00100000
00000000
01000000
00010000
00000000
00100000
,
00001000
00000000
00001000
00010000
00000000
00010000
00000100
00000000
00000100
00001000
00000100
00000010
,
00000100
00000000
00000100
00001000
00000000
00000100
00010000
00000000
00000100
00001000
00000000
00000100
,
00010000
00000000
00010000
00001000
00000000
00001000
00100000
00000000
00100000
00010000
01000000
00010000
,
00100000
00000000
00100000
00001000
00000000
00100000
00010000
00000000
00100000
00001000
00000000
00100000
,
00010000
00000000
00010000
10000000
00000000
10000000
00100000
10000000
01000000
00010000
01000000
10000000
,
00010000
00000000
00010000
01000000
00000000
01000000
00001000
00000000
00001000
00010000
00000000
00010000
,
00000100
00000000
00000100
00000010
00000000
00000010
00000001
00000010
00001000
00000010
00000001
00000100
,
00000010
00000000
00000010
00010000
00000000
00010000
00001000
00000000
00001000
00100000
00000000
00100000
,
00010000
00000000
00000000
10000000
00000000
00000000
00100000
00000000
00000000
10000000
00000000
00000000
01000000
00000000
00000000
00100000
00000000
00000000
01000000
00000000
10000000
00000000
00010000
00000000
,
10000000
00100000
01000000
00010000
01000000
00001000
00100000
00001000
,
00010000
00000000
00000000
00000100
00000000
00000000
00000010
00000000
00000000
00000100
00000000
00000000
00010000
00000000
00000000
00000010
00000000
00000000
00001000
00000000
00000010
00000000
00000100
00000000
,
00000010
00000100
00000001
00000010
00000100
00001000
00000100
00010000
,
00000100
00010000
00001000
00010000
00100000
00010000
00001000
00010000
,
00100000
01000000
00100000
00001000
00100000
01000000
00010000
10000000
,
00010000
01000000
00100000
10000000
01000000
00100000
00010000
01000000
,
00010000
00100000
00010000
00001000
00000100
00001000
00010000
00001000
,
00000100
00001000
00000100
00000010
00000001
00001000
00000001
00000010
,
00000100
00010000
00001000
00010000
01000000
00100000
00010000
00100000
,
01000000
10000000
00010000
00000000
00100000
01000000
10000000
00000000
,
01100000
00000000
00000000
10010000
00000000
00000000
01100000
00000000
00000000
00000000
10000000
00010000
,
10000000
01000000
00100000
01000000
00100000
00001000
00010000
00001000
,
00100000
00001000
00010000
00001000
00000100
00000010
00000100
00001000
,
00000100
00000001
00000100
00001000
00010000
00001000
00100000
01000000
,
10000000
00100000
00010000
00100000
10000000
00010000
01000000
00100000
,
01000000
00001000
00100000
00001000
00010000
00000100
00000010
00000100
,
00010000
00000010
00000100
00001000
00000100
00000001
00000100
00001000
,
00000100
00000001
00000010
00000000
00000100
00001000
00000001
00000000
,
00000110
00000000
00000000
00001001
00000000
00000000
00000110
00000000
00000000
00000000
00000010
00000100
,
00000010
00001000
00000100
00010000
00000100
00010000
00100000
01000000
,
10000000
01000000
00010000
01000000
10000000
01000000
00100000
00010000
,
00001000
00010000
00000100
00001000
00000010
00000100
00001000
00000100
,
00000010
00000001
00001000
00000100
00000001
00000010
00000100
00001000
,
00010000
01000000
00100000
00010000
00100000
01000000
10000000
01000000
,
00010000
01000000
00100000
00001000
00010000
00001000
00010000
00000100
,
00000010
00000100
00010000
00000000
00001000
00100000
00010000
00000000
,
11000000
00110000
00001100
00000022
,
00000000
00000000
00000000
00000000
,
00000000
00000000
00000000
00000000
,
00000000
00000000
00000000
00000000
,
00000000
00000000
00000000
00000000
,
00000000
00000000
00000000
00000000
,
00000000
00000000
00000000
00000000
,
00000000
00000000
00000000
00000000
,
00000000
00000000
00000000
00000000
,
00000000
00000000
00000000
00000000
,
00000033
00000000
00000000
00000000
;
