#VERSION:0.83;
#TITLE:Simple Sight;
#SUBTITLE:;
#ARTIST:PIERCING LAZER;
#TITLETRANSLIT:;
#SUBTITLETRANSLIT:;
#ARTISTTRANSLIT:;
#GENRE:ELECTRO METAL;
#ORIGIN:;
#TAGS:;
#CREDIT:YonabearCWY;
#BANNER:Simple Sight.png;
#BACKGROUND:Simple Sight-bg.png;
#PREVIEWVID:;
#JACKET:Simple Sight-jacket.png;
#CDIMAGE:;
#DISCIMAGE:;
#LYRICSPATH:;
#CDTITLE:cdtitle.png;
#MUSIC:Simple Sight.ogg;
#OFFSET:-5.520000;
#SAMPLESTART:43.907997;
#SAMPLELENGTH:21.950001;
#SELECTABLE:YES;
#BPMS:0.000000=87.500000
,8.000000=350.000000
,72.000000=175.000000
,136.000000=350.000000
,328.000000=175.000000
,376.000000=87.500000
,384.000000=350.000000
;
#STOPS:;
#DELAYS:;
#WARPS:;
#TIMESIGNATURES:0.000000=4=4
;
#TICKCOUNTS:0.000000=4
;
#COMBOS:0.000000=1
;
#SPEEDS:0.000000=1.000000=0.000000=0
;
#SCROLLS:0.000000=1.000000
;
#FAKES:;
#LABELS:0.000000=Song Start
;
#BGCHANGES:8.000=thunder1.mp4=2.000=0=0=1===CrossFade_Faster==,
40.000=lightning1.mp4=2.000=0=0=1=====,
72.000=spikes1.mp4=1.500=0=0=1=====,
80.000=spikes2.mp4=1.500=0=0=1=====,
88.000=spikes9.mp4=1.500=0=0=1=====,
96.000=text22.mp4=1.500=0=0=1=====,
104.000=spikes1.mp4=1.500=0=1=1=StretchRewind====,
112.000=spikes2.mp4=1.500=0=1=1=StretchRewind====,
120.000=demon1.mp4=0.900=0=0=1=====,
128.000=demon2.mp4=0.900=0=0=1=====,
136.000=thunder1.mp4=2.000=0=1=1=StretchRewind====,
152.000=laser1.mp4=2.000=0=0=1=====,
168.000=lightning1.mp4=2.000=0=1=1=StretchRewind====,
184.000=lines4.mp4=2.000=0=0=1=====,
200.000=thunder1.mp4=2.000=0=0=1=====,
216.000=spark1.mp4=2.000=0=0=1=====,
232.000=lightning1.mp4=2.000=0=0=1=====,
248.000=spikes3.mp4=2.000=0=0=1=====,
264.000=fire1.mp4=2.000=0=0=1=====,
280.000=fire2.mp4=2.000=0=0=1=====,
296.000=fire5.mp4=2.000=0=0=1=====,
312.000=text22.mp4=2.000=0=1=1=StretchRewind====,
328.000=demon3.mp4=1.500=0=0=1=====,
344.000=spikes6.mp4=1.500=0=0=1=====,
360.000=spikes4.mp4=1.500=0=0=1=====,
376.000=piranha1.mp4=1.000=0=0=1=====,
384.000=piranha1.mp4=2.000=0=0=1=====,
416.000=thunder1.mp4=2.000=0=1=1=StretchRewind====,
448.000=lightning1.mp4=2.000=0=1=1=StretchRewind====,
480.000=demon1.mp4=0.900=0=1=1=StretchRewind====,
496.000=demon2.mp4=0.900=0=1=1=StretchRewind====,
512.000=fire1.mp4=2.000=0=1=1=StretchRewind====,
528.000=fire2.mp4=2.000=0=1=1=StretchRewind====,
543.500=Simple Sight-bg.png=1.000=0=0=1=====,
99999=-nosongbg-=1.000=0=0=0 // don't automatically add -songbackground-
;
#KEYSOUNDS:;
#ATTACKS:
;

//---------------dance-single - ----------------
#NOTEDATA:;
#CHARTNAME:BEGINNER;
#CHARTHASH:328476399;
#STEPSTYPE:dance-single;
#BANNER:;
#DESCRIPTION:;
#CHARTSTYLE:;
#DIFFICULTY:Beginner;
#METER:8;
#METERF:8.000000;
#LASTSECONDHINT:126.891434;
#RADARVALUES:0.357960,0.695122,0.296627,0.046836,0.000000,321.000000,283.000000,38.000000,6.000000,0.000000,0.000000,0.000000,0.000000,0.000000,0.357960,0.695122,0.296627,0.046836,0.000000,321.000000,283.000000,38.000000,6.000000,0.000000,0.000000,0.000000,0.000000,0.000000;
#CREDIT:YonabearCWY;
#NOTES:
1000
1000
1000
0000
0001
0001
0001
0000
,
0100
0100
0100
0000
0010
0010
0010
0000
,
1000
0000
1000
0000
,
1000
0000
1000
0000
,
1000
0000
0000
0000
,
0001
0000
0000
0000
,
0001
0000
0001
0000
,
0001
0000
0001
0000
,
0001
0000
0000
0000
,
0010
0000
0000
0000
,
0010
0000
0010
0000
,
0010
0000
0010
0000
,
0010
0000
0000
0000
,
0100
0000
0000
0000
,
0100
0000
0100
0000
,
0100
0000
0100
0000
,
0100
0000
0000
0000
,
1001
0000
1001
0000
,
1001
0000
0000
0010
0000
0000
0100
0000
,
0000
0010
0000
0000
0100
0000
0001
0000
,
1000
0000
0000
0010
0000
0000
1000
0000
,
0000
0001
0000
0000
0100
0000
0010
0000
,
1000
0100
0010
0000
,
0010
0001
0100
0000
,
0001
1000
0100
0000
,
1000
0010
0100
0000
,
0010
0000
0000
0100
0000
0000
0001
0000
,
0000
0010
0000
0001
1000
0000
0100
0000
,
0010
0000
0000
0100
0000
0000
1000
0000
,
0000
0010
0000
0100
0001
0000
0010
0000
,
0011
0000
0000
0011
0000
0000
1100
0000
,
0000
1100
0000
0000
0010
0000
0010
0000
,
1001
0000
0000
1001
0000
0000
0110
0000
,
0000
0110
0000
0000
1000
0000
1000
0000
,
1000
0000
0000
0000
,
1000
0000
0000
0000
,
1000
0000
1000
0000
,
1000
0000
1000
0000
,
0001
0000
0000
0000
,
0001
0000
0000
0000
,
0001
0000
0001
0000
,
0001
0000
0001
0000
,
0100
0000
0000
0000
,
0100
0000
0000
0000
,
0100
0000
0100
0000
,
0100
0000
0100
0000
,
0010
0000
0000
0000
,
0010
0000
0000
0000
,
0010
0000
0010
0000
,
0010
0000
0110
0000
,
1001
0000
0000
0000
,
1000
0000
0000
0000
,
0001
0000
1000
0000
,
0010
0000
0100
0000
,
0110
0000
0000
0000
,
0010
0000
0000
0000
,
0100
0000
0010
0000
,
0100
0000
0001
0000
,
1001
0000
0000
0000
,
0001
0000
0000
0000
,
0001
0000
1000
0000
,
0010
0000
0100
0000
,
0110
0000
0000
0000
,
0010
0000
0000
0000
,
1000
0000
0100
0000
,
0010
0000
0001
0000
,
1000
0000
0000
0000
,
1000
0000
0001
0000
,
1000
0000
0000
0000
,
0001
0000
1000
0000
,
0001
0000
0000
0000
,
0100
0000
0010
0000
,
0100
0000
0000
0000
,
0010
0000
0100
0000
,
0010
0000
0000
0000
,
1000
0010
1000
0000
,
0001
0000
0000
0000
,
0100
0001
0100
0000
,
0010
0000
0000
0000
,
0010
1000
0010
0000
,
0100
0000
0000
0000
,
0001
1000
0001
0000
,
0110
0000
0000
1000
0000
0000
0001
0000
,
0000
1000
0000
0000
0001
0000
0100
0000
,
0010
0000
0000
0100
0000
0000
0010
0000
,
0000
0001
0000
0000
0010
0000
0100
0000
,
0010
0000
0000
1000
0000
0000
0100
0000
,
0000
0010
0000
0000
0100
0000
1000
0000
,
0001
0000
0000
1000
0000
0000
0010
0000
,
0000
0100
0000
0000
0001
0000
0010
0000
,
0011
0000
0000
1100
0000
0000
1001
0000
,
0000
0011
0000
0000
0100
0010
0100
0000
,
1010
0000
0000
1100
0000
0000
0110
0000
,
0000
1001
0000
0000
0010
0100
0010
0000
,
2002
0000
0000
3003
,
0220
0000
0000
0330
,
0100
0000
0100
0000
,
0100
0000
0100
0000
,
0100
0010
0100
0000
,
0100
0000
0100
0000
,
0001
0000
0001
0000
,
0001
0000
0001
0000
,
0001
1000
0001
0000
,
0001
0000
0001
0000
,
0010
0000
0010
0000
,
0010
0000
0010
0000
,
0010
0100
0010
0000
,
0010
0000
0010
0000
,
0100
0000
0100
0000
,
0100
0000
0100
0000
,
0100
1000
0001
0000
,
1000
0000
0110
0000
,
1000
0000
0000
0000
,
1000
0000
0000
0000
,
0001
0000
0010
0000
,
0100
0000
1000
0000
,
0001
0000
0000
0000
,
0001
0000
0000
0000
,
0001
0000
1000
0000
,
0100
0000
0010
0000
,
0001
0001
0000
1000
,
1000
0000
0010
0010
,
0000
0100
0100
0000
,
0010
0000
0010
0000
,
0100
0100
0000
0001
,
0001
0000
0010
0010
,
0000
0100
0100
0000
,
1000
0000
1000
0000
,
0101
0000
0000
1001
,
0000
0000
1010
0000
,
0000
0110
0000
0000
,
1000
0000
0001
0000
,
0101
0000
0000
1010
,
0000
0000
1100
0000
,
0000
0011
0000
0000
,
1001
0000
0220
0000
,
0000
0000
0000
0000
,
0330
0000
0000
0000
;

//---------------dance-single - ----------------
#NOTEDATA:;
#CHARTNAME:BASIC;
#CHARTHASH:2147483647;
#STEPSTYPE:dance-single;
#BANNER:;
#DESCRIPTION:;
#CHARTSTYLE:;
#DIFFICULTY:Easy;
#METER:12;
#METERF:12.000000;
#LASTSECONDHINT:126.891434;
#RADARVALUES:0.670199,1.176360,0.601060,0.382493,0.035127,601.000000,524.000000,77.000000,49.000000,0.000000,0.000000,0.000000,0.000000,0.000000,0.670199,1.176360,0.601060,0.382493,0.035127,601.000000,524.000000,77.000000,49.000000,0.000000,0.000000,0.000000,0.000000,0.000000;
#CREDIT:YonabearCWY;
#NOTES:
1000
0000
2010
0000
0000
0001
3001
0000
0010
0000
0001
0000
0100
0000
0001
0000
,
0010
0000
0012
0000
0000
1000
1003
0000
0010
0000
0100
0010
0000
0100
0020
0000
,
1030
0010
0001
0010
,
1000
0010
0100
0000
,
0001
0100
1000
0100
,
0001
1000
0010
0000
,
0100
0010
0001
0010
,
0100
0001
1000
0000
,
0100
0010
0100
1000
,
0100
1000
0001
0000
,
0100
0001
0010
0001
,
0100
0001
1000
1000
,
0010
1000
0100
1000
,
0010
1000
0001
0001
,
0100
0001
0010
0100
,
0010
0001
0001
0100
,
0010
1000
0100
0010
,
0100
1000
1000
1000
,
0110
0010
0000
1000
0001
0000
0010
0100
,
0000
1000
0100
0000
1000
0001
1000
0000
,
0101
0010
0000
0001
0100
0000
0010
1000
,
0000
0100
0001
0000
0100
1000
0100
0010
,
0001
0001
0000
1000
0010
0000
0100
0001
,
0000
0010
0100
0000
1000
0010
1000
0000
,
0100
0100
0000
0010
0001
0000
1000
0010
,
0000
0100
0001
0000
0010
0100
1000
0001
,
0101
0010
0001
1000
0001
0000
1000
0010
,
0000
0100
0001
0000
0010
0010
0010
0000
,
1100
0010
0100
1000
0001
0000
0100
0010
,
0000
1000
0001
0000
0100
0100
0100
0000
,
0022
0000
0033
2200
0000
3300
0220
0000
,
0330
2001
0000
0000
3010
0100
0001
0100
,
0220
0000
0330
0022
0000
0033
2020
0000
,
3030
1002
0000
0000
0103
0010
0010
1000
,
0001
0100
0001
0010
,
0001
1000
0001
0000
,
1100
0000
0110
0000
,
0011
0000
1001
0000
,
0010
1000
0010
0000
,
0100
0001
0100
0000
,
0010
1000
0100
0010
,
0001
0100
0010
0000
,
0100
0010
0100
1000
,
0100
0001
0100
0000
,
0011
0000
1010
0000
,
0101
0000
1001
0000
,
0100
0001
0100
0000
,
0010
0001
0010
0000
,
0100
1000
0100
0010
,
0001
1000
0010
0100
,
0001
1000
0010
1000
,
0100
0010
0001
0100
,
0101
0000
1001
0000
,
1010
0000
1100
0000
,
0010
0100
0010
0001
,
0010
0100
0010
1000
,
0110
0000
1001
0000
,
1100
0000
0011
0000
,
0100
0010
0001
0010
,
0100
1000
0001
0100
,
0010
1000
0100
0000
,
0010
0001
0100
0000
,
0001
1000
0010
0001
,
0010
1000
0010
0100
,
0001
1000
0100
0001
,
0100
1000
0001
0100
,
0001
0000
0001
0000
,
0001
0000
0001
0100
,
0010
0000
0010
0000
,
1010
0010
0110
0000
,
0100
0000
0100
0000
,
0100
0000
0100
0010
,
1000
0000
1000
0000
,
1001
0001
0101
0000
,
1000
0000
0010
0000
,
0100
0000
0001
0010
,
0100
0000
1000
0000
,
1100
0100
0110
0000
,
0010
0000
0001
0000
,
1000
0000
0010
0100
,
0001
0000
1000
0000
,
1010
1000
1001
0000
,
0110
1000
0001
0100
0001
0000
0010
0001
,
0000
1000
0010
0000
0100
0100
0100
0000
,
1010
0100
0010
0001
0100
0000
0010
0100
,
0000
0001
1000
0000
0010
0010
0010
0000
,
0101
0010
1000
0100
0010
0000
0001
0100
,
0001
1000
0100
0000
1000
0010
0010
0010
,
0100
0001
0010
0100
1001
0000
0010
0001
,
0100
0001
0010
0000
0001
0100
0100
0100
,
2020
0000
3030
2200
0000
3300
0220
0000
,
0330
0012
0000
0000
1003
0001
0010
0100
,
0022
0000
0033
2200
0000
3300
0220
0000
,
0330
2001
0000
0000
3010
1000
1000
1000
,
0102
0000
0010
0000
0100
0100
0000
0010
2003
0000
0100
0000
0010
0010
0010
0000
,
3002
0000
0100
0000
2003
0000
0010
0000
3001
0100
0001
0000
1000
0010
1000
0000
,
0100
0010
0001
1000
,
0100
0010
0001
0100
,
0110
0000
1001
0000
,
0101
0000
1010
0000
,
0001
0100
0010
0000
,
1000
0010
0100
0000
,
0001
0100
1000
0100
,
0001
1000
0100
0001
,
0100
1000
0010
0100
,
0001
0010
0001
0100
,
0110
0000
1010
0000
,
1100
0000
0101
0000
,
0010
0001
1000
0000
,
0010
1000
0100
0000
,
0010
0001
1000
0010
,
0001
0010
1000
0001
,
0010
1000
0010
0001
,
0100
0010
1000
0100
,
1100
1000
1001
0000
,
0011
0010
0110
0000
,
0100
1000
0001
0100
,
0001
0010
0100
1000
,
0110
0010
0011
0000
,
1001
1000
1100
0000
,
0220
0000
0330
2002
,
0000
3003
0202
0000
,
0303
2020
0000
3030
,
1000
0100
0010
0001
,
0201
0001
0000
0310
,
1020
0000
1030
1002
,
0000
0013
0210
0000
,
1300
0100
0001
0100
,
1000
0001
0001
0100
,
0010
0010
0100
0001
,
0001
0010
0100
0100
,
0100
1000
0100
0010
,
0001
1000
1000
0010
,
0001
0001
0010
1000
,
1000
1000
0100
0010
,
0011
0000
2002
0000
,
0000
0000
0000
0000
,
3003
0000
0000
0000
;

//---------------dance-single - ----------------
#NOTEDATA:;
#CHARTNAME:DIFFICULT;
#CHARTHASH:2147483647;
#STEPSTYPE:dance-single;
#BANNER:;
#DESCRIPTION:;
#CHARTSTYLE:;
#DIFFICULTY:Medium;
#METER:14;
#METERF:14.000000;
#LASTSECONDHINT:126.891434;
#RADARVALUES:0.779482,1.550657,0.226373,0.530806,0.191246,699.000000,670.000000,29.000000,68.000000,0.000000,0.000000,0.000000,0.000000,0.000000,0.779482,1.550657,0.226373,0.530806,0.191246,699.000000,670.000000,29.000000,68.000000,0.000000,0.000000,0.000000,0.000000,0.000000;
#CREDIT:YonabearCWY;
#NOTES:
1000
0000
2010
0000
0000
0010
0010
0000
0001
0000
0100
0000
0000
0001
3001
0000
,
0001
0000
0012
0000
0000
1000
1000
0000
0100
0000
0010
0000
0000
0100
0103
0000
,
0010
1000
0010
0100
,
0001
0100
0010
0000
,
1000
0010
0001
0010
,
1000
0010
0100
0000
,
0001
0010
0100
1000
,
0100
0010
0100
0000
,
1000
0010
0100
0001
,
0010
0000
0001
0000
1000
0000
0000
0001
,
0010
0001
0100
0010
,
1000
0000
0100
0000
0010
0000
0000
0010
,
0100
1000
0001
1000
,
0100
0000
0010
0000
0100
0000
0000
1000
,
0001
0010
0001
0100
,
0001
0000
0010
0000
0001
0000
0000
0001
,
0100
1000
0100
0010
,
0100
0000
0001
0000
1000
0001
1000
0001
,
0100
0020
0000
1030
0002
0000
0023
0100
,
0000
0032
0100
0000
1003
0100
0001
0100
,
0010
2000
0000
3010
0002
0000
0203
0010
,
0000
0302
1000
0000
0103
1000
0100
0001
,
0010
0001
0001
0100
0010
0010
1000
0100
,
1000
0001
0001
0001
0100
0010
2010
0000
,
3100
0010
0010
0001
0100
0100
0010
1000
,
0100
0000
0010
0000
0010
0000
0010
0000
0001
0000
0100
0000
0100
0001
0100
0001
,
0010
0001
0100
1000
0100
0001
1000
0010
,
0100
0000
0010
0000
1000
0100
1000
0000
0001
0000
0010
0000
0010
0000
0100
0000
,
0010
0001
1000
0010
0001
0010
1000
0001
,
0100
0000
0010
0000
0100
0001
0100
0000
0010
0000
1000
0000
0100
0000
0100
0000
,
1000
0001
0020
0000
0000
0000
0031
1000
0200
0000
0000
0000
1300
0100
0020
0000
,
0000
0000
0130
0010
0002
0000
0000
0000
1003
0010
0000
0000
0100
0001
0000
0000
,
0010
0100
2000
0000
0000
0000
3010
0100
0002
0000
0000
0000
0013
0001
0200
0000
,
0000
0000
0301
1000
0020
0000
0000
0000
0130
0010
0000
0000
1000
0001
1000
0001
,
0010
0001
0100
1000
,
0100
0010
0100
1000
,
0100
0001
0000
0000
0001
0010
0000
0000
,
0010
0100
0000
0000
0100
1000
0000
0000
,
0100
0010
0001
1000
,
0100
0010
0100
0010
,
0001
1000
0000
0000
0100
0010
0000
0000
,
0001
0010
0000
0000
0010
0100
0000
0100
,
1000
0100
0010
0100
,
1000
0001
0100
0010
,
0100
0001
0000
0000
0001
1000
0000
0000
,
0100
0010
0000
0000
0001
0010
0000
0000
,
0010
0100
0010
0001
,
0010
1000
0010
0100
,
1000
0001
0000
0000
0001
1000
0000
0000
,
0100
0010
0000
0010
0100
1000
0100
0010
,
0001
0100
0010
0001
,
0010
1000
0010
0001
,
0010
0100
0001
1000
,
0100
0010
1000
0010
,
0001
0100
1000
0100
,
0001
1000
0100
0010
,
0100
1000
0100
0001
,
0100
0010
0001
0010
,
0100
1000
0010
0100
,
0001
0010
0001
1000
,
0010
0100
0010
0001
,
0010
0001
0010
0100
,
0010
0100
1000
0100
,
0001
0100
0010
1000
,
0010
0001
0100
0010
,
1000
0000
0001
1000
0010
0100
0001
0010
,
0100
1000
0010
0001
,
0010
0000
1000
0000
0110
0000
0000
0010
,
0001
0100
0010
0001
,
0010
0000
0100
0000
0101
0000
0000
1000
,
0010
0100
1000
0100
,
0010
0000
0100
0000
1001
0000
0000
0010
,
0100
0001
0010
0001
,
1000
0000
0100
0000
0010
0000
0100
1000
,
0001
0010
0001
0100
,
0001
0000
1000
0000
0010
0000
0100
0001
,
0010
0001
0100
0010
,
1000
0000
0100
0000
0010
0000
0100
0010
,
0001
0010
0100
1000
,
0001
0000
0010
0000
0100
0000
0010
0001
,
1000
0010
0100
0001
,
0010
0000
0001
1000
0001
1000
0010
1000
,
0010
0200
0000
0301
0020
0000
0031
2000
,
0000
3200
0010
0310
0001
0100
1020
0000
,
0130
0002
0000
1003
0020
0000
0130
0020
,
0000
0000
0230
0000
1000
0000
1300
0000
0100
0000
0010
0000
1000
0001
1000
0000
,
0010
0200
0000
0302
0010
0000
1003
0020
,
0000
0000
0031
0000
0010
0000
0100
0000
0100
0000
0100
0000
0010
0100
0010
0000
,
1000
0200
0000
0310
0002
0000
1003
0020
,
0000
0000
0100
0000
0130
0000
0010
0000
0100
0000
0001
1000
0010
1000
0010
0000
,
1000
0100
0020
0000
0000
0000
0031
1000
0200
0000
0000
0000
1300
0001
0020
0000
,
0000
0000
0130
1000
0002
0000
0000
0000
0013
0001
0000
0000
0100
0010
0000
0000
,
1000
0100
0002
0000
0000
0000
0103
1000
0020
0000
0000
0000
0130
0010
2000
0000
,
0000
0000
3001
0010
2000
0000
0000
0000
3010
0001
0000
0000
1000
0010
0000
0000
,
0110
0000
0001
0100
0001
1000
0000
0100
0010
0001
1000
0000
0100
0010
0100
1000
,
0010
0100
0001
0010
0001
0100
0000
0010
1000
0100
0010
0000
0001
0010
1000
0000
,
0011
0100
0001
1000
,
0010
1000
0200
0000
,
1300
0010
0001
0010
,
1000
0010
0100
0001
,
0100
0010
0100
0010
,
1000
0100
0010
0001
,
0100
0001
0000
0000
0001
0100
0000
0000
,
0100
0010
0000
0000
0010
1000
0000
0000
,
1000
0100
0010
0100
,
0001
0100
2000
0000
,
3001
1000
0010
0001
,
0010
1000
0010
0100
,
0001
0010
0001
1000
,
0010
0100
0001
0010
,
0100
1000
0000
0000
1000
0010
0000
0000
,
0010
0100
0000
0000
0100
0001
0000
0000
,
1001
0010
0100
0010
,
1010
1000
0100
0010
,
0011
0001
1001
0000
,
1100
1000
1010
0000
,
0110
0010
1000
0010
,
0110
0100
0001
0100
,
0101
0001
1001
0000
,
1010
1000
1100
0000
,
0220
0000
0330
0022
,
0000
0033
2200
0000
,
3300
0220
0000
0330
,
0001
1000
0001
0000
1000
0001
1000
0000
,
2002
0000
3003
2020
,
0000
3030
0202
0000
,
0303
0022
0000
0033
,
0100
0001
0100
0001
1000
0000
0010
0000
,
1000
0100
2000
0000
0000
0000
3010
0100
,
0002
0000
0000
0000
0013
0001
0020
0000
,
0000
0000
0130
1000
0001
0000
0100
0000
,
0010
1000
0000
0000
1000
0100
0000
0000
,
0010
0001
0200
0000
0000
0000
0310
1000
,
0020
0000
0000
0000
0130
0001
0200
0000
,
0000
0000
0301
1000
0020
0000
0000
0000
,
0130
0001
0100
0001
1000
0001
1000
0002
,
0000
0000
0000
0000
,
0003
0000
0000
0000
;

//---------------dance-single - ----------------
#NOTEDATA:;
#CHARTNAME:EXPERT;
#CHARTHASH:2147483647;
#STEPSTYPE:dance-single;
#BANNER:;
#DESCRIPTION:;
#CHARTSTYLE:;
#DIFFICULTY:Hard;
#METER:16;
#METERF:16.000000;
#LASTSECONDHINT:126.891434;
#RADARVALUES:1.014777,1.818012,0.124896,0.273209,0.386396,910.000000,894.000000,16.000000,35.000000,0.000000,0.000000,0.000000,0.000000,0.000000,1.014777,1.818012,0.124896,0.273209,0.386396,910.000000,894.000000,16.000000,35.000000,0.000000,0.000000,0.000000,0.000000,0.000000;
#CREDIT:YonabearCWY;
#NOTES:
1000
0010
0100
0100
0000
0001
0011
0000
0010
0100
0100
0010
0001
0001
1000
0010
,
1000
0000
0100
0000
0100
0000
0010
0000
0000
0000
0100
0000
1100
0000
0000
0000
0010
0000
0100
0000
0001
0000
0100
0000
0100
0000
0010
1000
0010
1000
0001
0100
,
0010
0100
1000
0100
,
0001
0000
0100
0010
1000
0000
0010
0100
,
0001
0010
0001
1000
,
0100
1000
0010
1000
0100
0000
1000
0000
,
0001
0100
0010
0001
,
0010
0000
0100
0001
0010
0000
0001
1000
,
0100
1000
0010
0100
,
0001
0010
0001
0100
0001
0000
0010
0000
,
0100
0010
0100
1000
,
0100
0000
1000
0001
0010
0000
0001
0010
,
0100
0010
0100
1000
,
0001
0000
1000
0000
0100
0010
0100
1000
,
0100
1000
0010
0100
,
0010
0000
1000
0100
0010
0000
0100
0010
,
0001
0010
0100
0010
,
0001
1000
0010
1000
0010
0100
0001
0100
,
0001
0010
0010
0100
0001
0001
0100
1000
,
1000
0010
0100
1000
1000
1000
0100
0010
,
0100
0001
0001
0010
1000
1000
0010
0100
,
0100
0010
0001
0100
0100
0100
2001
0000
,
3010
0000
1000
0000
0100
0000
1000
0100
1000
0000
0010
0000
0100
0000
0010
0001
,
0010
0000
0100
0000
1000
0100
1000
0000
0100
0000
0100
0000
0100
0000
0010
0000
,
0100
0000
0001
0000
0010
0001
0010
0000
0001
0000
1000
0000
0010
1000
0010
0000
,
0100
0000
0001
0010
0001
0000
1000
0000
1000
0000
1000
0010
0100
0001
0100
0010
,
0100
0000
0001
0000
0010
0100
0010
0000
0100
0000
1000
0001
1000
0000
0010
0000
,
0100
0000
0001
0000
0010
0001
0010
0000
0100
1000
0100
0000
1000
0001
0010
0000
,
0010
0000
0100
0001
0100
0000
0010
0000
1000
0010
1000
0000
0010
0000
0100
0010
,
0001
0000
0010
0000
0100
0000
1000
0100
0001
0100
1000
0000
0120
0000
0000
0000
,
1030
0100
2000
0000
0000
0000
3010
0100
0020
0000
0000
0000
0130
0001
0200
0000
,
0000
0000
0301
1000
0002
0000
0000
0000
0013
0001
0100
0001
0100
0010
1000
0100
,
0010
0100
2000
0000
0000
0000
3010
0100
0002
0000
0000
0000
0013
0001
0200
0000
,
0000
0000
0301
1000
0020
0000
0000
0000
0130
0000
0010
1000
0100
0010
0100
0010
,
0001
0010
0100
0010
,
0001
1000
0100
0001
,
0100
1000
0000
0000
1000
0100
0000
0000
,
0100
0010
0000
0000
0010
0001
0000
0000
,
0001
0100
0001
0000
0010
0000
0001
0000
,
1000
0010
1000
0000
0010
0000
0100
0000
,
0001
1000
0000
0000
1000
0001
0000
0000
,
0010
0100
0000
0000
0100
1000
0000
0000
,
0100
0010
0001
1000
,
0100
0010
1000
0001
,
0100
1000
0000
0000
0100
0001
0000
0000
,
0100
0010
0000
0000
0001
0010
0000
0000
,
0001
1000
0001
0000
0100
0000
0010
0000
,
1000
0001
1000
0000
0010
0000
0100
0000
,
1000
0100
1000
0000
0100
0001
0100
0000
,
0010
0001
0010
0000
0100
1000
0100
0001
,
0100
0010
0010
1000
,
0100
0001
0100
0100
,
1000
0001
0100
0000
0110
0000
0010
0000
,
0100
0001
1000
0000
0110
0000
0100
0000
,
1000
0100
0010
0000
0100
0000
0010
0000
,
0001
0010
0100
0000
0010
0000
0100
0000
,
1000
0100
0001
0000
0001
0100
1000
0000
,
0001
0010
1000
0000
1000
0010
0001
0000
,
0100
0001
0010
0000
0001
0000
0100
0000
,
0010
1000
0100
0000
1000
0000
0010
0000
,
0100
0001
0010
0000
0011
0000
1000
0000
,
0010
1000
0001
0000
1001
0000
0010
0000
,
0100
1000
0100
0010
0100
0000
1000
0000
,
0100
0010
0100
0001
0100
0000
1000
0000
,
0010
0100
0010
0001
0010
0000
0100
0010
,
0100
1000
0100
0001
0010
0001
1000
0010
,
1000
0010
1000
0001
,
0100
0000
0001
0010
0100
0000
0100
0010
,
0001
1000
0010
0100
,
0010
0000
1000
0010
0001
0000
0001
0010
,
1000
0010
0100
0001
,
0100
0000
0010
0100
0001
0000
1000
0010
,
0100
0000
0001
0000
0010
0000
0100
0001
,
0100
0000
1000
0000
0100
0000
0010
1000
,
0010
0001
0100
1000
,
0100
0001
0100
0001
0010
0001
0010
0000
,
0100
1000
0001
1000
,
0010
1000
0010
1000
0100
1000
0100
0010
,
0001
0100
0010
0001
,
0010
0000
0100
1000
0100
0010
0100
0010
,
0001
0010
0100
1000
,
0100
0000
1000
0001
0010
0100
0010
0001
,
0100
0100
0010
1000
1000
0100
0001
0001
,
0100
0000
0010
0000
0010
0000
0100
0000
1000
0100
0001
0100
2000
0000
0000
0000
,
3010
0010
0100
0001
0001
0010
0001
1000
,
1000
0000
0010
0000
0100
0000
0100
0000
0001
0010
1000
0000
1000
0010
0001
0000
,
0100
0010
0010
1000
0100
0100
0001
0100
,
0100
0000
1000
0000
0010
0000
0010
0000
0001
0010
1000
0010
0002
0000
0000
0000
,
0013
0100
0010
0010
1000
0010
0010
1000
,
0001
0000
0100
0000
0100
0000
0001
0000
1000
0100
0001
0000
0001
0100
1000
0000
,
0010
1000
0010
2000
0000
0000
3100
0010
0100
0020
0000
0000
0031
0100
0001
2000
,
0000
0000
3010
1000
0100
1000
0001
0000
0010
0100
1000
0100
0010
0001
0100
0001
,
1000
0010
0001
0020
0000
0000
1030
0100
0001
0200
0000
0000
1300
0010
0100
0020
,
0000
0000
0130
0001
0010
0200
0000
0000
1300
0100
0001
0100
1000
0001
0100
1000
,
0100
0001
0001
1000
0010
1000
1000
1000
0100
0010
0010
0100
1000
0001
0001
0001
,
0100
0010
0010
1000
0100
1000
1000
1000
0010
0100
0001
0100
0020
0100
0100
0100
,
0130
0010
1000
0001
,
1000
0010
0100
0010
,
1000
0100
0010
0001
0100
0000
0010
0100
,
1000
0100
0001
0000
0010
0001
1000
0001
,
0100
0010
0001
0010
,
1000
0010
0100
0001
,
1000
0100
0010
0000
0100
0010
0001
0000
,
0001
0010
1000
0000
1000
0010
0001
0000
,
0100
0010
0001
0010
,
0100
1000
0100
0010
,
1000
0001
0010
0100
0010
0000
0100
1000
,
0100
0001
0100
0000
1000
0010
0001
0010
,
0100
0010
1000
0010
,
0100
0001
0010
0100
,
1000
0001
0010
0000
0001
1000
0100
0000
,
1000
0100
0001
0000
0001
0100
1000
0000
,
0101
0000
0010
0000
0001
0100
0001
0000
,
0010
0000
1100
0000
0010
1000
0001
0100
,
0001
0010
0001
0000
1000
0010
1000
0000
,
0100
0001
0100
0000
1000
0100
1000
0100
,
0010
0000
1001
0000
0010
0100
1000
0100
,
0010
0000
1010
0000
0100
0010
0100
1000
,
0100
0010
0100
0000
0001
0010
0001
0000
,
1000
0001
0010
0100
1000
0001
0010
0001
,
0100
0010
2010
0000
0000
0000
3001
0100
,
0120
0000
0000
0000
1030
0001
0012
0000
,
0000
0000
0013
0100
0210
0000
0000
0000
,
1300
0100
0010
0001
0100
0001
0010
0100
,
1000
0001
0020
0000
0001
0000
0031
1000
,
0200
0000
0010
0000
0310
0100
2000
0000
,
0001
0000
3001
1000
0010
0100
0001
0000
,
0001
0100
1000
0100
0001
1000
0100
0001
,
0100
1000
0010
0200
0000
0000
0301
0100
,
0010
2000
0000
0000
3100
0010
0001
0020
,
0000
0000
0031
0010
1000
0010
0001
0000
,
1000
0010
0001
0010
1000
0001
0100
0001
,
1000
0010
0100
0020
0000
1030
0100
0010
,
0100
0002
0000
0103
1000
0100
0010
0200
,
0000
0310
0001
0010
1000
0010
0002
0000
,
0103
0001
0010
0100
1000
0001
0100
0010
,
2000
0000
0000
0000
,
3000
0000
0000
0000
;

//---------------dance-single - ----------------
#NOTEDATA:;
#CHARTNAME:CHALLENGE;
#CHARTHASH:779021644;
#STEPSTYPE:dance-single;
#BANNER:;
#DESCRIPTION:;
#CHARTSTYLE:;
#DIFFICULTY:Challenge;
#METER:18;
#METERF:18.000000;
#LASTSECONDHINT:126.891434;
#RADARVALUES:1.241150,2.138837,0.905493,0.179537,0.659605,1113.000000,997.000000,116.000000,23.000000,0.000000,0.000000,0.000000,0.000000,0.000000,1.241150,2.138837,0.905493,0.179537,0.659605,1113.000000,997.000000,116.000000,23.000000,0.000000,0.000000,0.000000,0.000000,0.000000;
#CREDIT:YonabearCWY;
#NOTES:
1000
0100
0100
0001
1000
0010
0010
0001
0100
1000
0100
0100
0010
1000
0110
0000
,
0001
0000
0010
0000
0010
0000
1000
0000
0001
0000
0100
0000
0100
0000
1000
0000
0010
0000
0100
0000
0001
0000
0010
0000
0010
0000
0001
1000
0010
1000
0100
0010
,
0100
1000
0100
0000
1000
0001
1000
0000
,
0001
0000
0100
0001
0010
0000
0001
0000
,
0100
0010
1000
0000
0010
0100
0001
0000
,
1000
0100
0001
0100
1000
0000
0110
0000
,
0001
0010
0001
0000
0100
0001
0100
0000
,
0010
0000
1000
0100
0010
0000
0100
0000
,
1000
0010
0100
0000
0001
0010
0100
0000
,
1000
0010
0001
0010
1000
0001
0010
1000
,
0010
0001
0010
0000
0001
0100
0001
0000
,
0010
0000
0100
0010
1000
0000
0010
0000
,
0001
0100
0010
0000
1000
0010
0001
0000
,
0010
1000
0010
0100
0010
0001
0010
0100
,
0010
1000
0001
0000
0100
0001
0010
0000
,
0001
0000
0100
0001
0100
0010
1000
0000
,
0100
0010
0001
0000
0100
0010
1000
0000
,
0001
0100
0001
0010
0100
1000
0100
0010
,
0100
1000
0010
0000
0110
0000
0100
0001
0010
0000
0011
0000
0001
0100
1000
0000
,
1100
0000
1000
0100
0001
0000
1001
0000
0010
0100
0001
0100
0020
0000
0000
0000
,
1030
0000
0010
0100
0001
0000
0011
0000
1000
0001
0100
0000
1100
0000
0100
0010
,
0001
0000
0110
0000
1000
0001
0010
0000
0100
0010
0100
1000
0100
1000
0001
0100
,
0001
0010
0100
0000
1100
0000
0010
1000
0001
0000
0101
0000
1000
0010
0001
0000
,
0011
0000
0001
0010
1000
0000
1010
0000
1000
0100
0010
0100
0002
0000
0000
0000
,
0103
0000
1000
0010
0001
0000
0110
0000
0010
0100
0001
0000
1001
0000
1000
0100
,
0010
0000
0011
0000
0001
1000
0100
0000
0010
0100
1000
0100
0010
0001
0010
0100
,
0010
0000
0100
0000
1100
0000
0100
0010
0001
0000
0011
0000
0001
0000
0100
0010
,
1000
0000
1001
0000
0010
0100
0001
0000
0001
0010
1000
0000
1000
0010
0001
0000
,
0100
0000
0110
0000
0010
0001
1000
0000
1000
0000
0100
0010
0001
0000
0101
0000
,
0010
0000
1000
0000
1100
0000
0100
0010
0001
0100
1000
0000
1000
0100
0001
0100
,
1000
0100
0210
0000
0000
0000
0301
0100
0120
0000
0000
0000
1030
0010
0210
0000
,
0000
0000
0301
0010
0120
0000
0000
0000
0130
1000
0100
0010
0001
1000
0100
0010
,
0100
1000
1002
0000
0000
0000
0013
0001
2001
0000
0000
0000
3010
0100
0201
0000
,
0000
0000
0310
1000
1020
0000
0000
0000
0130
0000
0010
1000
0100
0010
0100
0010
,
0001
0100
0001
1000
,
0010
1000
0100
1000
,
1010
1000
1001
1000
,
1100
1000
1010
1000
,
1100
0000
1000
0000
0010
0100
0010
0000
,
0100
0000
0001
0000
0100
0010
0100
0010
,
1000
0101
0001
1001
,
0001
0101
0001
0011
,
0001
0010
0100
0010
,
1000
0010
0001
0100
,
0110
0010
0011
0010
,
1010
0010
0110
0010
,
0011
0000
0100
0001
0100
0000
0010
0000
,
1010
0000
1000
0001
1000
0001
0100
0010
,
0100
1100
0100
0101
,
0100
0000
0100
0001
0100
0010
1000
0010
,
0100
0000
0010
0000
0001
0010
0001
0000
,
0010
0000
0100
0000
1000
0100
0001
0100
,
1000
0110
0001
0110
,
1000
0101
0010
1100
,
0010
0100
1000
0100
0001
0100
0010
0000
,
0100
0010
0001
0010
0100
1000
0100
0000
,
0011
0100
1100
0001
,
1001
1000
1001
0100
,
0110
0000
1000
0010
1000
0000
0010
0000
,
0101
0000
0010
0001
0010
0000
0100
0000
,
1100
1000
0011
0001
,
0110
0100
1010
0010
,
0100
0010
1000
0010
0100
0010
0001
0000
,
0010
0100
0010
0001
0010
0100
1000
0100
,
0010
0101
1001
1010
,
1100
1001
0110
1001
,
0101
0000
0010
0001
1000
0000
1000
0100
,
0010
0000
0100
1000
0001
0100
0001
1000
,
0010
0000
0100
0010
0001
0000
0010
0100
,
0010
0000
0010
1000
0100
1000
0001
0010
,
0100
0000
0010
0100
0010
0000
0010
0001
,
1000
0000
1000
0100
0001
0100
1000
0001
,
0010
0000
0001
0100
1000
0000
0100
0010
,
0100
0001
0011
0000
0010
1000
1100
0000
,
0010
0100
0001
0010
0001
1000
0010
0000
,
1000
0100
0110
0000
0001
0010
0110
0000
,
1000
0100
0001
0100
0010
0100
1000
0000
,
0010
0100
0010
0001
0010
0100
1000
0000
,
0100
0010
0100
0010
0001
0010
0001
0010
,
0100
0010
0100
1000
0100
0000
1001
0000
,
0100
1000
0100
1000
0100
0010
0100
0010
,
0001
0010
0100
1000
0001
1000
0100
0010
,
0001
0100
0001
0000
0010
0000
0100
0001
0100
0000
1000
0000
0010
1000
0010
0000
,
1000
0000
0100
0010
0100
0000
0010
0000
0001
1000
0100
0010
0100
0000
1001
0000
,
0010
0100
0010
0000
1000
0000
0100
0010
0100
0000
0010
0000
0001
0100
0001
0000
,
1000
0000
0100
0010
0001
0010
0100
0000
1000
0100
0001
0000
0001
0100
1000
0100
,
0001
0100
0010
0000
0100
0000
1000
0100
0010
0000
0100
0000
0010
0001
1000
0000
,
0010
0000
0100
0001
1000
0000
0010
0000
0100
0010
0001
0000
0010
0100
0010
1000
,
0010
0100
0001
0000
0100
0000
0010
1000
0001
0000
0100
0000
0001
0010
1000
0000
,
0010
0000
1000
0010
0001
0010
0100
0000
0010
0100
1000
0100
0010
0001
0010
0100
,
0010
0001
0100
0001
0000
1000
0010
1000
0100
1000
0000
0010
0100
0010
0001
0010
,
0000
0100
0001
0100
1000
0100
0000
0010
0100
0010
0001
0010
1000
0010
0001
1000
,
0010
0100
0001
0100
0000
1000
0100
0010
0100
1000
0000
0001
0100
0010
0100
0001
,
0000
1000
0100
0001
0100
1000
0000
0001
0010
1000
0010
0001
0100
0010
1000
0100
,
0010
0000
0001
0000
0001
0000
1000
0000
0010
0000
1000
0100
1000
0000
0010
0000
0010
0000
0100
0000
0001
0000
0010
0000
0001
0000
0100
0001
0100
0000
0010
0000
,
0010
0000
0100
0000
1000
0000
0100
0000
0001
0000
0100
0010
0100
0000
0001
0000
0001
0000
1000
0010
0100
0000
0010
0000
0100
0000
0001
0010
0100
0010
0100
1000
,
0100
1000
0001
0100
,
0010
1000
0010
0100
,
0101
0001
0011
0001
,
1001
1010
1001
0101
,
1001
0000
0010
0000
0100
0001
0100
0000
,
0110
0000
0001
0000
1000
0010
1000
0100
,
0010
0011
1001
1010
,
0101
0000
0001
0010
0100
1000
0100
0010
,
0100
0000
1000
0000
0100
0010
0100
0000
,
0010
0000
0001
0000
0010
1000
0010
0000
,
0011
0100
0101
0001
,
1010
0011
0110
1001
,
0100
0001
0010
0001
0010
0000
1100
0000
,
0010
0100
1000
0100
1000
0000
0101
0000
,
1000
0010
1000
0000
0001
0100
0001
0000
,
0010
0100
1000
0100
0001
0100
1000
0010
,
0001
0010
1000
0010
0100
0001
0100
0000
,
0010
1000
0100
1000
0100
0010
0001
0100
,
0010
1010
0101
0011
,
1010
1100
0101
1001
,
0110
0000
0010
0001
0010
0100
0010
0000
,
0100
1000
0100
0001
0100
1000
0010
0100
,
0001
0010
0110
0000
1100
0000
0101
0000
,
1000
0000
0000
0010
0000
0000
0100
0000
0010
0000
0100
0000
0010
0000
0000
1000
0000
0000
0001
0000
0000
0010
0000
0000
,
0100
1000
0102
0000
0000
0000
0013
0001
,
2010
0000
0000
0000
3001
0100
0021
0000
,
0000
0000
1030
0010
1200
0000
0000
0000
,
1300
0000
0100
0000
0010
0000
0001
0000
0000
0010
0000
0000
0100
0000
0000
0010
0000
0000
0001
0000
0000
1000
0000
0000
,
0010
0100
0011
0000
0001
0000
1001
0001
,
0100
0000
0110
0000
0010
1000
0101
0000
,
0100
0000
0110
1000
0001
0000
1100
0000
,
0010
0000
0100
0000
0001
0000
0100
0000
0000
0010
0000
0000
1000
0000
0000
0100
0000
0000
0010
0000
0000
0001
0000
0000
,
0100
0010
1000
0020
0000
0130
0001
0010
,
0001
2000
0000
3010
1000
0100
0001
0200
,
0000
1300
0001
0010
0100
0020
0000
0031
,
0100
0000
0010
0000
1000
0000
0010
0000
0000
0100
0000
0000
0001
0000
0010
0000
0100
0000
0010
0000
0000
0100
0000
0000
,
1000
0010
0001
0020
0000
1030
0100
0001
,
0100
0020
0000
0130
1000
0100
0001
0200
,
0000
1300
0010
0100
0001
0200
0000
0301
,
0010
0000
1000
0000
0010
0000
0001
0000
0000
0010
0000
0000
0100
0000
0000
0010
0000
0000
0100
0000
0000
1000
0000
0000
,
0002
0000
0000
0000
,
0003
0000
0000
0000
;

//---------------dance-double - ----------------
#NOTEDATA:;
#CHARTNAME:CHALLENGE;
#CHARTHASH:2147483647;
#STEPSTYPE:dance-double;
#BANNER:;
#DESCRIPTION:;
#CHARTSTYLE:;
#DIFFICULTY:Challenge;
#METER:18;
#METERF:18.000000;
#LASTSECONDHINT:126.891434;
#RADARVALUES:1.114024,1.924953,0.265403,0.413717,0.593254,999.000000,965.000000,34.000000,53.000000,0.000000,0.000000,0.000000,0.000000,0.000000,1.114024,1.924953,0.265403,0.413717,0.593254,999.000000,965.000000,34.000000,53.000000,0.000000,0.000000,0.000000,0.000000,0.000000;
#CREDIT:YonabearCWY;
#NOTES:
// measure 0
00010000
00001000
00001000
00100000
00010000
00100000
00100000
00001000
00010000
00001000
00001000
00010000
00000100
00010000
00010000
00001000
,  // measure 1
00000100
00000000
00000010
00000000
00001000
00000000
00000010
00000000
00000100
00000000
00010000
00000000
00001000
00000000
00010000
00000000
01000000
00000000
00100000
00000000
00010000
00000000
00001000
00000000
00100000
00000000
00001000
00010000
00001000
00100000
00001000
00100000
,  // measure 2
00010000
00001000
00000100
00000010
00000100
00000000
00001000
00000000
,  // measure 3
00000010
00000100
00000001
00000010
,  // measure 4
00000100
00010000
00000100
00010000
00001000
00010000
00001000
00000000
,  // measure 5
00100000
00001000
00100000
00000000
00010000
01000000
00010000
00000000
,  // measure 6
10000000
01000000
00100000
00010000
00100000
00000000
01000000
00000000
,  // measure 7
00100000
00001000
00010000
00000100
,  // measure 8
00001000
00000010
00001000
00000010
00010000
00000010
00010000
00000000
,  // measure 9
00000100
00010000
00000100
00000000
00010000
00001000
00010000
00000000
,  // measure 10
00000100
00001000
00000100
00000010
00000100
00000000
00001000
00000000
,  // measure 11
00000001
00000010
00000100
00001000
,  // measure 12
00010000
00100000
00010000
00100000
01000000
00010000
01000000
00000000
,  // measure 13
10000000
00010000
01000000
10000000
01000000
00000000
01010000
00000000
,  // measure 14
00100000
00001000
00010000
00001000
00100000
00000000
00001000
00000000
,  // measure 15
00010000
00000100
00000010
00000001
,  // measure 16
00001000
00000010
00000100
00000010
00010000
00000010
00010000
00000000
,  // measure 17
00001100
00000000
00010000
00001000
00100000
00010000
01000000
10000000
,  // measure 18
01000000
00000000
00100000
00000000
00100000
10000000
00010000
00000000
01000000
00000000
01000000
00010000
00100000
00000000
00001000
00000000
,  // measure 19
00001000
00100000
00010000
00000000
00210000
00000000
00000000
00000000
00301000
00010000
00000100
00000010
00000200
00000000
00000000
00000000
,  // measure 20
00001300
00000000
00000100
00000000
00000010
00000100
00001000
00000000
00000001
00000000
00000010
00000100
00000001
00000000
00000100
00000000
,  // measure 21
00000100
00010000
00001000
00000000
00012000
00000000
00000000
00000000
01003000
00010000
00100000
00001000
00100000
00010000
00000000
00010000
,  // measure 22
10000000
00000000
00100000
01000000
10000000
00000000
01000000
00000000
00010000
01000000
00100000
00000000
01000000
00000000
00010000
00000000
,  // measure 23
00100000
00000000
00001000
00010000
00000200
00000000
00000000
00000000
00001300
00000010
00000001
00000010
00002000
00000000
00000000
00000000
,  // measure 24
00003100
00000000
00001000
00000100
00010000
00000000
00000100
00000000
00001000
00000010
00010000
00000000
00001000
00000000
00010000
00001000
,  // measure 25
00100000
00000000
00001000
00000000
00021000
00000000
00000000
00000000
00031000
00000000
00100000
00001000
00100000
00001000
00010000
00100000
,  // measure 26
01000000
00010000
01000000
00020000
00000000
00000000
10030000
00100000
10000000
00200000
00000000
00000000
01300000
00100000
00010000
00001000
,  // measure 27
00000000
00010000
00001000
00000100
00000020
00000000
00000000
00000000
00001030
00000100
00000001
00000100
00002000
00000000
00000000
00000000
,  // measure 28
00003010
00000100
00000010
00000200
00000000
00000000
00000301
00001000
00000001
00002000
00000000
00000000
00003100
00010000
00001000
00100000
,  // measure 29
00000000
00010000
00100000
01000000
00200000
00000000
00000000
00000000
00310000
00000000
00100000
00010000
00100000
00000000
00001000
00000000
,  // measure 30
00010000
00001000
00021000
00000000
00000000
00000000
00030010
00010000
00010020
00000000
00000000
00000000
00001030
00000100
00020100
00000000
,  // measure 31
00000000
00000000
00031000
00010000
00012000
00000000
00000000
00000000
00103000
00010000
00100000
01000000
10000000
01000000
00100000
00010000
,  // measure 32
00100000
00001000
00102000
00000000
00000000
00000000
01003000
00001000
00201000
00000000
00000000
00000000
00301000
00010000
00021000
00000000
,  // measure 33
00000000
00000000
00031000
01000000
02001000
00000000
00000000
00000000
03010000
00000000
00100000
00010000
00100000
00001000
00010000
00000100
,  // measure 34
00010000
00001000
00100000
00001000
,  // measure 35
00010000
00000100
00000010
00000100
,  // measure 36
00010000
00000100
00000010
00000000
00001000
00000100
00000010
00000000
,  // measure 37
00000100
00001000
00000001
00000000
00000010
00000001
00001000
00000001
,  // measure 38
00000010
00000100
00010000
00001000
,  // measure 39
00010000
00100000
01000000
10000000
,  // measure 40
00010000
10000000
01000000
00000000
00100000
01000000
00010000
00000000
,  // measure 41
01000000
00100000
00001000
00000000
00010000
00000100
00010000
00000010
,  // measure 42
00001000
00000010
00000100
00010000
,  // measure 43
00000100
00000010
00001000
00000100
,  // measure 44
00010000
00000100
00001000
00000000
00000100
00010000
00001000
00000000
,  // measure 45
00010000
00100000
01000000
00010000
01000000
10000000
01000000
00100000
,  // measure 46
01000000
00100000
01000000
00010000
,  // measure 47
00100000
00001000
00010000
00000100
,  // measure 48
00000010
00000100
00010000
00000000
00000100
00010000
00001000
00000000
,  // measure 49
00100000
00000000
00001000
00010000
00000010
00010000
00000100
00000010
,  // measure 50
00000100
00001000
00000010
00000100
,  // measure 51
00001000
00000100
00000001
00001000
,  // measure 52
00000010
00010000
00000100
00010000
00000100
00000000
00010000
00001000
,  // measure 53
00100000
00001000
00100000
00000000
00010000
01000000
10000000
01000000
,  // measure 54
00010000
01000000
10000000
01000000
,  // measure 55
00100000
01000000
00010000
00100000
,  // measure 56
00001000
01000000
00001000
01000000
00010000
00000000
00100000
00001000
,  // measure 57
00100000
00001000
00010000
00000000
00000100
00010000
00000100
00000010
,  // measure 58
00000100
00001000
00000100
00000010
,  // measure 59
00000100
00010000
00000100
00001000
,  // measure 60
00000100
00010000
00001000
00010000
00100000
00010000
00001000
00000100
,  // measure 61
00001000
00100000
00010000
01000000
00010000
10000000
00100000
01000000
,  // measure 62
00010000
01000000
00010000
00001000
,  // measure 63
00010000
01000000
00010000
00100000
,  // measure 64
00001000
00100000
00010000
00100000
01000000
00100000
00010000
00001000
,  // measure 65
00010000
00000100
00000010
00000100
00001000
00000100
00000001
00000100
,  // measure 66
00000020
00000000
00001030
00000010
00020000
00000000
00031000
00100000
,  // measure 67
00020000
00000000
00130000
00010000
00100000
10000000
00100000
00010000
,  // measure 68
02000000
00000000
03001000
00100000
00020000
00000000
00130000
00010000
,  // measure 69
00100000
00001000
00010000
00000100
00020000
00000000
00000000
00030100
,  // measure 70
00002000
00000000
00003010
00001000
00000002
00000000
00000103
00000001
,  // measure 71
00000020
00000000
00000130
00000010
00000100
00001000
00010000
00001000
,  // measure 72
00020000
00000000
00031000
01000000
00020000
00000000
00130000
00010000
,  // measure 73
10000000
00100000
10000000
01000000
20000000
00000000
00000000
30010000
,  // measure 74
01000000
10000000
01000000
00010000
,  // measure 75
00100000
00001000
00100000
00001000
00010000
00000100
00010000
00000100
,  // measure 76
00000010
00000000
00000100
00000000
00001000
00000000
00000001
00000100
,  // measure 77
00001000
00000100
00000001
00001000
00000010
00010000
00000010
00010000
,  // measure 78
00001000
00010000
00001000
00100000
,  // measure 79
00010000
00000000
10000000
01000000
00100000
00010000
00100000
01000000
,  // measure 80
00100000
00001000
00010000
00001000
,  // measure 81
00100000
00001000
00010000
00001000
00010000
00000100
00000010
00000100
,  // measure 82
00000001
00000000
00001100
00000000
00001000
00000010
00000001
00000000
00000110
00000000
00000001
00000010
00001000
00000000
00010000
00000000
,  // measure 83
00001000
00000000
00100000
00001000
00010000
00001000
00010000
00000000
00000100
00010000
00001000
00010000
00002000
00000000
00000000
00000000
,  // measure 84
01003000
00000000
01010000
00000000
10000000
00000000
10000000
01000000
00010000
00000000
01100000
00000000
00010000
01000000
10000000
00000000
,  // measure 85
01000000
00000000
00100000
00001000
00100000
00001000
00010000
00000000
00001000
00010000
00000100
00010000
00000200
00000000
00000000
00000000
,  // measure 86
00001300
00000100
00000010
00000200
00000000
00000000
00000310
00000001
00000010
00002000
00000000
00000000
00003010
00000001
00001000
00000001
,  // measure 87
00001000
00000000
00000100
00010000
00001000
00000000
00010000
00000000
00100000
01000000
00100000
01000000
10000000
00000000
00100000
00000000
,  // measure 88
01000000
00010000
01000000
00200000
00000000
00000000
10300000
01000000
00010000
02000000
00000000
00000000
13000000
00100000
01000000
00100000
,  // measure 89
01000000
00000000
00010000
00100000
00001000
00000000
00010000
00000000
00001000
00000100
00000010
00000100
00001000
00000100
00000010
00001000
,  // measure 90
00000001
00000100
00001000
00000100
00000001
00000000
00001000
00000100
00000001
00000100
00001000
00000000
00000010
00010000
00001000
00010000
,  // measure 91
00000100
00000000
00010000
00001000
00010000
00001000
00100000
00010000
00100000
01000000
10000000
00100000
02000000
00000000
00000000
00000000
,  // measure 92
03010000
00100000
10000000
00100000
00010000
00000000
10000000
00100000
00010000
00100000
10000000
00000000
00100000
01000000
00010000
01000000
,  // measure 93
00001000
00000000
00100000
00001000
00010000
00001000
00010000
00000100
00000010
00000100
00010000
00000100
00001000
00000010
00000100
00000001
,  // measure 94
00000200
00000010
00000310
00001000
00000100
00000010
00000100
00010000
00002000
00010000
00013000
00001000
00010000
00100000
01000000
00100000
,  // measure 95
00020000
00100000
00130000
01000000
00100000
01000000
00010000
00100000
00002000
00010000
00013000
00001000
00010000
00000100
00000010
00000100
,  // measure 96
00001000
00000010
00000001
00000010
,  // measure 97
00001000
00000000
00000010
00000000
00010000
00000000
00001000
00010000
,  // measure 98
00001000
00000000
00100000
00001000
00100000
00000000
00010000
01000000
,  // measure 99
10000000
01000000
00010000
00000000
10000000
00000000
00100000
00000000
,  // measure 100
01100000
10000000
01000000
00100000
,  // measure 101
00101000
00010000
00001000
00100000
,  // measure 102
00001000
00010000
00001000
00000000
00010000
00000100
00010000
00000000
,  // measure 103
00000010
00001000
00000010
00001000
00000100
00000010
00000100
00000010
,  // measure 104
00000001
00001000
00000010
00010000
,  // measure 105
00000010
00010000
00001000
00100000
,  // measure 106
00001000
00000000
00100000
00010000
00100000
00000000
00001000
00010000
,  // measure 107
00001000
00000000
00010000
00000100
00010000
00000100
00000010
00000000
,  // measure 108
00001100
00000100
00010000
00001000
,  // measure 109
01001000
00100000
10000000
01000000
,  // measure 110
00100000
00001000
00100000
00000000
00001000
00010000
00001000
00000000
,  // measure 111
00010000
00000000
01000000
00100000
00010000
00001000
00000100
00001000
,  // measure 112
00000100
00000010
00001000
00000100
,  // measure 113
00000001
00000000
00000100
00000000
00010000
00000000
00001000
00100000
,  // measure 114
00010000
00000000
01000000
00010000
00100000
00000000
01000000
10000000
,  // measure 115
01000000
00100000
00010000
00100000
01000000
00010000
00001000
00010000
,  // measure 116
00001000
00010100
00001000
00000010
,  // measure 117
00000110
00000001
00000010
00001100
,  // measure 118
00000100
00010000
00001000
00000000
00010000
00001000
00100000
00000000
,  // measure 119
00010000
00000000
01000000
00010000
00100000
00010000
00100000
01000000
,  // measure 120
10000000
00010000
10000000
00100000
01000000
00000000
00010000
01000000
,  // measure 121
00010000
00100000
00001000
00000000
00010000
00001000
00010000
00000100
,  // measure 122
00000010
00000000
00000100
00000001
00000100
00001000
00000100
00000010
,  // measure 123
00000100
00000000
00000001
00000000
00000100
00000000
00000001
00000000
00000000
00000100
00000000
00000000
00001000
00000000
00000000
00000100
00000000
00000000
00010000
00000000
00000000
00001000
00000000
00000000
,  // measure 124
00010000
01000000
00010000
01000000
00100000
00000000
00010000
10000000
,  // measure 125
00100000
01000000
00100000
00000000
01000000
00001000
01000000
00001000
,  // measure 126
00010000
00000000
00001000
00010000
00000100
00000010
00000100
00000000
,  // measure 127
00001000
00000000
00000001
00000000
00001000
00000000
00000001
00000000
00000000
00000010
00000000
00000000
00000100
00000000
00000000
00001000
00000000
00000000
00000100
00000000
00000000
00010000
00000000
00000000
,  // measure 128
00000100
00010000
00012000
00000000
00000000
00000000
00103000
00010000
,  // measure 129
20010000
00000000
00000000
00000000
30100000
01000000
01002000
00000000
,  // measure 130
00000000
00000000
00013000
00001000
00021000
00000000
00000000
00000000
,  // measure 131
00030100
00001000
00001100
00000000
00000010
00000001
00001001
00000000
,  // measure 132
00000010
00010000
00012000
00000000
00000000
00000000
00013000
00001000
,  // measure 133
02001000
00000000
00000000
00000000
03100000
10000000
10020000
00000000
,  // measure 134
00000000
00000000
01030000
00100000
00210000
00000000
00000000
00000000
,  // measure 135
01300000
00100000
10000000
01000000
00100000
00001000
00100000
00002000
,  // measure 136
00000000
00000000
00000000
00000000
,  // measure 137
00003000
00000000
00000000
00000000
;
