#TITLE:忍びアン子は恋の呪文;
#SUBTITLE:;
#ARTIST:新腹筋忍者台 feat.meli ♥ melo;
#TITLETRANSLIT:Shinobi Anko wa koi no jumon;
#SUBTITLETRANSLIT:;
#ARTISTTRANSLIT:SHINFUKKIN NINJA-DAI feat.meli ♥ milo;
#GENRE:ニンジャ卍ヒロイン;
#CREDIT:YonabearCWY;
#BANNER:Shinobi Anko wa koi no jumon.png;
#BACKGROUND:Shinobi Anko wa koi no jumon-bg.png;
#LYRICSPATH:;
#CDTITLE:pop'n music.png;
#MUSIC:Shinobi Anko wa koi no jumon.ogg;
#OFFSET:-5.760000;
#SAMPLESTART:11.375058;
#SAMPLELENGTH:15.000000;
#SELECTABLE:YES;
#DISPLAYBPM:170.000000;
#BPMS:0.000000=170.000000
,312.000000=740.000000
,355.000000=74.000000
;
#STOPS:269.000000=0.870000
;
#BGCHANGES:0.000=amoeba4.mp4=1.600=1=0=1===CrossFade==,
8.000=amoeba2.mp4=1.400=0=0=1=====,
16.000=ants1.mp4=2.000=0=0=1=====,
24.000=basket1.mp4=1.600=0=0=1=====,
32.000=ribbon1.mp4=1.600=0=0=1=====,
40.000=amoeba2.mp4=1.400=0=1=1=StretchRewind====,
44.000=attack1.mp4=1.600=0=0=1=====,
48.000=ants1.mp4=2.000=0=1=1=StretchRewind====,
56.000=basket1.mp4=1.600=0=1=1=StretchRewind====,
64.000=ribbon2.mp4=1.600=0=0=1=====,
72.000=amoeba4.mp4=1.600=0=1=1=StretchRewind====,
80.000=snow6.mp4=1.600=0=0=1=====,
82.000=room2.mp4=1.600=0=0=1=====,
84.000=ring13.mp4=2.000=0=0=1=====,
88.000=rotation1.mp4=1.600=0=0=1=====,
104.000=sakura1.mp4=2.000=0=0=1=====,
112.000=amoeba2.mp4=1.400=0=1=1=StretchRewind====,
120.000=ring8.mp4=1.600=0=0=1=====,
128.000=ring12.mp4=1.600=0=0=1=====,
136.000=ring13.mp4=2.000=0=1=1=StretchRewind====,
144.000=room2.mp4=1.600=0=1=1=StretchRewind====,
152.000=sun3.mp4=1.600=0=0=1=====,
160.000=ribbon1.mp4=1.600=0=1=1=StretchRewind====,
168.000=ribbon2.mp4=1.600=0=1=1=StretchRewind====,
183.500=ninja4.mp4=1.600=0=0=1=====,
191.500=ninja5.mp4=1.600=0=0=1=====,
200.000=ants1.mp4=2.000=0=1=1=StretchRewind====,
208.000=basket1.mp4=1.600=0=1=1=StretchRewind====,
216.000=ribbon1.mp4=1.600=0=1=1=StretchRewind====,
224.000=amoeba2.mp4=1.600=0=1=1=StretchRewind====,
232.000=ants1.mp4=2.000=0=1=1=StretchRewind====,
240.000=basket1.mp4=1.600=0=1=1=StretchRewind====,
248.000=ribbon2.mp4=1.600=0=1=1=StretchRewind====,
256.000=amoeba4.mp4=1.600=0=1=1=StretchRewind====,
264.000=ninja4.mp4=1.600=0=1=1=StretchRewind====,
265.000=ninja4.mp4=0.600=0=0=1=====,
266.500=ninja2.mp4=0.600=0=0=1=====,
269.000=ninja2.mp4=0.100=0=0=1=====,
269.500=attack1.mp4=2.000=0=1=1=StretchRewind====,
273.500=snow6.mp4=1.600=0=1=1=StretchRewind====,
289.500=snow1.mp4=2.000=0=0=1=====,
304.500=Shinobi Anko wa koi no jumon-bg.png=1.000=0=0=1=====,
352.750=fireworks3a.mp4=2.000=0=0=0=StretchNoLoop====,
355.000=Shinobi Anko wa koi no jumon-bg.png=1.000=0=0=1===CrossFade_Faster==,
99999=-nosongbg-=1.000=0=0=0 // don't automatically add -songbackground-
;
#KEYSOUNDS:;
#ATTACKS:;

//---------------dance-single - ----------------
#NOTES:
     dance-single:
     BEGINNER:
     Beginner:
     5:
     0.000000,0.000000,0.000000,0.000000,0.000000,0.000000,0.000000,0.000000,0.000000,0.000000,0.000000,0.000000,0.000000,0.000000,0.000000,0.000000,0.000000,0.000000,0.000000,0.000000,0.000000,0.000000:
0000
1000
0000
0000
,
0000
1000
0000
0000
,
0001
0001
0001
0001
,
1001
0000
0000
0000
,
0000
0010
0000
0010
,
0000
0010
0000
0000
,
0000
0100
0000
0100
,
0000
0100
0000
0000
,
0000
0001
0000
0000
,
0000
0001
0000
0000
,
1000
1000
1000
1000
,
1001
0000
0000
0000
,
0000
0001
0000
0001
,
0000
0001
0000
0000
,
0000
1000
0000
1000
,
0000
1000
0000
0000
,
0000
0100
0000
0000
,
0000
0100
0000
0000
,
0010
0010
0010
0010
,
0110
0000
0000
0000
,
1001
0000
1001
0000
,
1001
0000
0000
0000
,
0000
0010
0000
0010
,
0000
0010
0000
0000
,
0000
0100
0000
0000
,
0000
0100
0000
0000
,
0000
0001
0000
0001
,
0000
0001
0000
0000
,
0000
1000
0000
0000
,
0000
1000
0000
0000
,
0100
0100
0000
0100
,
0100
0000
0000
0000
,
0000
0010
0010
0000
,
0000
0010
0010
0000
,
0100
0100
0000
0000
,
0100
0100
0000
0000
,
0000
0010
0010
0000
,
0000
0010
0110
0000
,
1001
0000
0000
0000
,
0001
0100
0001
0000
,
1001
0000
0000
0000
,
1000
0010
1000
0000
,
0110
0000
0000
0000
,
0001
1000
0001
0000
,
0110
0000
0000
0000
,
1000
1000
0001
0001
,
1001
0000
0000
0000
,
0010
0010
0010
0000
,
0110
0000
0000
0000
,
0100
0100
0100
0000
,
1001
0000
0000
0000
,
1000
1000
1000
0000
,
0001
0000
0000
0000
,
0001
0001
0001
0000
,
0100
0000
0100
0000
,
0010
0000
0010
0000
,
0100
0100
0010
0010
,
0100
0000
0000
0000
,
0110
0000
0000
0000
,
0001
0001
0001
0000
,
0100
0000
0000
0000
,
0010
0010
0010
0000
,
1000
0000
1000
0000
,
0001
0000
0001
0000
,
1000
1000
0001
0001
,
0010
0000
0000
0000
,
0000
1001
0000
0000
,
0000
1001
0000
0000
,
0000
0000
0000
0000
0000
1000
0000
0000
,
0000
1000
0000
0000
0000
1000
0000
0000
,
0000
0000
0000
0000
0000
0001
0000
0000
,
0000
0001
0000
0000
0000
0001
0000
0000
,
0000
0000
0000
0000
0000
0100
0000
0000
,
0000
0100
0000
0000
0000
0100
0000
0000
,
0000
0000
0000
0000
0000
0010
0000
0000
,
0000
0010
0000
0000
0000
0010
0000
0000
,
0000
2002
0000
0000
0000
0000
0000
0000
,
0000
0000
0000
0000
,
3003
0000
0000
0000
,
0000
0000
0000
0000
,
0000
0000
0000
0000
,
0000
0000
0000
0000
,
0000
0000
0000
0000
,
0000
0000
0000
0000
,
0000
0000
0000
0000
,
0000
0000
0000
0000
,
0000
0000
0000
0000
,
0000
0000
0000
0000
,
0000
0000
0000
1000
;

//---------------dance-single - ----------------
#NOTES:
     dance-single:
     BASIC:
     Easy:
     7:
     0.000000,0.000000,0.000000,0.000000,0.000000,0.000000,0.000000,0.000000,0.000000,0.000000,0.000000,0.000000,0.000000,0.000000,0.000000,0.000000,0.000000,0.000000,0.000000,0.000000,0.000000,0.000000:
0000
1000
1000
1000
,
0000
0001
0001
0001
,
0000
0100
0000
0100
0000
0100
0000
0100
,
0010
0000
1001
1001
,
0110
1000
0001
0100
,
0001
0010
0000
0001
0020
0000
0030
0000
,
0110
0001
0010
0100
,
1000
0100
0000
1000
0200
0000
0300
0000
,
0000
1000
0000
1000
,
0000
0001
0000
0001
,
0010
0010
0010
0010
,
0220
0000
0000
0330
,
1001
0100
0010
0001
,
1000
0001
0000
1000
0002
0000
0003
0000
,
1001
0010
0100
1000
,
0001
1000
0000
0001
2000
0000
3000
0000
,
0000
0010
0000
0010
,
0000
0100
0000
0100
,
0001
0001
0001
0001
,
2002
0000
0000
3003
,
0100
0010
0000
0000
0100
0010
0000
0000
,
0100
0010
0000
2002
0000
0000
3003
0000
,
0000
1000
0000
1000
,
0010
1000
0100
0010
,
0001
0100
0000
0100
,
0001
0010
0001
1000
,
0000
0010
0000
0010
,
0000
0100
0000
0100
,
0000
1001
1001
0010
,
0000
0110
0110
1000
,
0001
0000
0001
0000
,
0100
0001
0010
0001
,
1000
0000
1000
0000
,
0010
0100
0010
0001
,
0010
0000
0010
0000
,
0100
0010
0100
1000
,
0100
0000
0000
0000
0100
0000
0002
2000
,
0000
0000
0000
3003
,
0000
0010
0000
0010
,
0100
0000
0100
0000
,
0100
0010
0000
0001
,
0000
0010
0000
0100
,
1000
0000
0100
0000
,
0010
0100
0010
0000
,
1000
0001
1000
0001
,
0220
0000
0000
0330
,
0000
0001
0000
0000
0000
0001
0000
0000
,
0000
0001
0000
0001
0000
1000
0000
1000
,
0000
0000
0000
1000
0000
0000
0000
1000
,
0000
1000
0000
0001
0000
0001
0000
0001
,
1000
0010
0100
0001
,
0010
0100
0000
0010
0200
0000
0300
0000
,
1000
0010
0100
0001
,
1000
0001
0000
1000
0002
0000
0003
0000
,
0010
0010
0010
0010
,
0100
0100
0100
0100
,
1001
1001
1001
0010
,
0010
0010
0100
0100
,
0100
0001
0010
0100
,
1000
0010
0000
1000
0020
0000
0030
0000
,
0100
0001
0010
0001
,
0100
0001
0000
0100
0002
0000
0003
0000
,
1000
1000
1000
1000
,
0001
0001
0001
0001
,
0110
0110
0110
1000
,
1000
1000
0001
0001
,
0001
1000
2002
0000
0000
0000
0000
0000
,
3003
0110
0000
0000
,
0000
0000
0000
0000
0000
1000
0000
0000
,
0000
1000
0000
0000
0000
1000
0000
0100
,
0000
0010
0000
0000
0000
0010
0000
0000
,
0000
0010
0000
0000
0000
0010
0000
0001
,
0000
0100
0000
0001
0000
1000
0000
0001
,
0000
1000
0000
0100
0000
0010
0000
0100
,
0000
0010
0000
0001
0000
0100
0000
1000
,
0000
0100
0000
0001
0000
0010
0000
0100
,
0000
2002
0000
0000
0000
0000
0000
0000
,
0000
0000
0000
0000
,
3003
0000
0000
0000
,
0000
0000
0000
0000
,
0000
0000
0000
0000
,
0000
0000
0000
0000
,
0000
0000
0000
0000
,
0000
0000
0000
0000
,
0000
0000
0000
0000
,
0000
0000
0000
0000
,
0000
0000
0000
0000
,
0000
0000
0000
0000
,
0000
0000
0000
1001
;

//---------------dance-single - ----------------
#NOTES:
     dance-single:
     DIFFICULT:
     Medium:
     11:
     0.000000,0.000000,0.000000,0.000000,0.000000,0.000000,0.000000,0.000000,0.000000,0.000000,0.000000,0.000000,0.000000,0.000000,0.000000,0.000000,0.000000,0.000000,0.000000,0.000000,0.000000,0.000000:
0000
0000
0100
0010
0100
0000
1000
0001
,
1000
0000
0010
0000
0100
0000
0001
0010
,
0000
0010
0100
1000
0100
0010
0001
2002
,
0000
0000
0000
3003
,
1100
0110
0011
1001
,
0001
0100
1000
0100
0001
1000
0100
0000
,
0110
1100
0101
0011
,
0001
0010
1000
0010
0001
1000
0010
0000
,
0100
0100
0010
0010
,
1000
0000
0001
0000
1000
0010
0001
0000
,
0001
0010
1000
0000
0001
0100
0001
0100
,
0010
0000
0100
0000
0001
1000
1001
0000
,
0101
1001
1010
1100
,
0010
0001
1000
0100
0010
0100
1000
0000
,
0110
0011
0101
1001
,
0001
0010
0100
0010
0001
1000
0010
0000
,
1000
1000
0001
0001
,
0010
0000
0100
0000
0001
0100
1000
0000
,
1000
0100
0001
0000
1100
0000
0010
0100
,
0001
1000
0001
0000
1000
0100
0010
0001
,
1000
2000
0000
0000
0001
3002
0000
0000
,
0100
0103
0000
0220
0000
0000
0330
0000
,
0000
0000
0001
0000
0100
0000
0001
0010
,
0001
0000
1000
0000
0010
0000
1000
0100
,
1000
0000
0001
0000
0100
0000
0001
1000
,
0001
0000
0010
0000
0100
0000
1000
0100
,
0020
0000
0000
0001
0031
0000
0100
0010
,
0200
0001
1000
0301
,
0010
1000
0000
0100
0010
0100
0010
0010
,
0100
0000
1001
0000
0010
0100
0010
0000
,
2000
0001
0100
3001
,
1100
1010
0101
0011
,
0002
1000
0010
1003
,
0110
1001
1100
0011
,
0200
0001
1000
0301
,
0110
1010
0101
1001
,
0100
0010
0000
0001
1000
0001
0001
1000
,
0001
0010
0220
0000
0000
0000
0330
0000
,
0000
1000
0100
0010
,
0001
0100
0000
0100
0001
0010
0001
0000
,
0101
0001
1000
0000
0010
0000
1000
0000
,
0100
1000
0100
0000
0010
0001
1000
0000
,
0110
0100
0001
0000
0100
1000
0100
0000
,
1002
0000
0000
0010
0010
0000
0103
0000
,
0010
1000
0000
0100
0010
0001
0001
1000
,
0020
0000
0100
0000
0001
0000
0130
0210
,
0000
0310
1000
0100
1000
0100
0010
0001
,
1000
1000
0000
0202
0000
0303
0000
2010
,
0000
3001
0100
1000
0100
0001
1000
0010
,
0100
0100
0000
2002
0000
0000
3003
0000
,
0010
0010
0100
0100
,
0001
0100
1000
0100
0001
1000
0100
0001
,
0100
0100
1000
1000
,
1000
0001
0010
1000
0010
0001
0100
0010
,
0100
0000
0010
1000
1001
0000
0100
0000
,
1100
0000
1000
0010
0100
0001
0100
0000
,
0001
0010
0000
0011
0000
1001
0000
1000
,
0200
0000
0000
1000
1300
0010
0100
0001
,
0100
0100
0001
0001
,
0010
0100
1000
0100
0010
0001
1000
0000
,
0010
0010
0100
0100
,
0001
0100
1000
0100
0001
1000
0010
0001
,
0010
0000
0100
0010
1010
0000
0101
0000
,
0010
0000
0001
0100
0110
0000
1001
0000
,
0100
0010
0001
0010
0001
1000
0010
1000
,
0010
0100
0010
0000
1000
0001
1000
1001
,
0000
0220
0000
0000
,
0330
2002
0000
0000
,
3003
0000
1000
1000
,
0001
0000
0001
1000
0100
0001
0100
1000
,
0001
0000
0010
0100
0000
0100
0000
0010
,
0000
0010
0000
0001
0010
1000
0010
0001
,
1000
0000
1000
0010
1000
0100
1000
0000
,
0001
0100
0001
0000
0010
0001
0010
0100
,
1000
1001
0000
0100
0010
0100
0000
0001
,
0010
0001
0000
1000
0001
1000
0001
0010
,
0100
2002
0000
0000
0000
0000
0000
0000
,
0000
0000
0000
0000
,
3003
0000
0000
0000
,
0000
0000
0000
0000
,
0000
0000
0000
0000
,
0000
0000
0000
0000
,
0000
0000
0000
0000
,
0000
0000
0000
0000
,
0000
0000
0000
0000
,
0000
0000
0000
0000
,
0000
0000
0000
0000
,
0000
0000
0000
0000
,
0000
0000
0000
1001
;

//---------------dance-single - ----------------
#NOTES:
     dance-single:
     EXPERT:
     Hard:
     14:
     0.707074,0.803988,0.296477,0.140003,0.284124,601.000000,565.000000,36.000000,17.000000,0.000000,0.000000,0.707074,0.803988,0.296477,0.140003,0.284124,601.000000,565.000000,36.000000,17.000000,0.000000,0.000000:
// measure 0
0000
1000
0010
1000
0001
0000
0010
0200
,  // measure 1
0000
0000
1000
0000
0000
0000
1300
0000
0100
0000
0010
0001
0010
0000
0100
0000
,  // measure 2
0010
0010
0000
0100
0100
0100
0100
1001
,  // measure 3
0000
0000
0010
0001
0010
0000
0001
1000
0001
0000
1000
0000
0100
0000
0010
0000
,  // measure 4
0001
0000
0000
0001
0100
0000
0000
0100
0010
0000
0000
0010
1000
0000
0000
1000
,  // measure 5
0100
0000
1000
0000
0001
0000
0010
0000
0100
0000
0000
1000
0001
0000
0010
0000
,  // measure 6
0100
0000
0000
0100
1000
0000
0000
1000
0010
0000
0000
0010
0100
0000
0000
0100
,  // measure 7
0001
0000
0000
1000
0010
0000
0100
0001
0100
0000
0001
0000
0010
0000
0100
0000
,  // measure 8
1000
0000
0010
1000
0100
0000
0011
0000
,  // measure 9
0100
0000
0001
0000
1000
0000
0020
0000
0000
0000
0100
0000
0130
0000
0001
1000
,  // measure 10
0001
0001
0000
0010
0010
0010
0010
1001
,  // measure 11
0000
0000
1000
0010
1000
0000
0001
0100
0001
0000
0010
0000
0100
0000
1000
0000
,  // measure 12
0010
0000
0000
0010
0100
0000
0000
0100
0001
0000
0000
0001
1000
0000
0000
1000
,  // measure 13
0100
0000
0010
0000
0001
0000
0100
0000
0010
0000
0000
0100
0001
0000
0010
0000
,  // measure 14
0100
0000
0000
1000
0010
0000
0000
0010
0100
0000
0000
0100
0001
0000
0000
0001
,  // measure 15
1000
0000
0000
0010
0100
0000
0001
1000
0001
0000
1000
0000
0100
0000
0010
0000
,  // measure 16
0100
0000
1000
0001
0010
0000
1100
0000
,  // measure 17
0010
0100
0001
0200
0000
0010
0310
1000
,  // measure 18
0001
0001
0000
0100
0100
0100
0100
1001
,  // measure 19
0000
0000
0010
0000
0100
0000
1000
0010
1000
0000
0001
0000
0100
0010
0100
0010
,  // measure 20
0100
1010
0000
0100
0001
0011
0000
0100
,  // measure 21
1100
1010
0000
0220
0000
0000
0330
0000
,  // measure 22
0101
0000
1000
0010
0100
0010
0001
0020
,  // measure 23
0000
0130
1000
0100
0010
0001
0110
0000
,  // measure 24
1010
0000
0100
0001
0010
0100
1000
0200
,  // measure 25
0000
0000
1300
0000
0010
0000
0001
0000
0010
0000
0100
0001
0100
0000
0010
0000
,  // measure 26
1000
0000
0100
0010
0000
0001
0100
0000
,  // measure 27
1000
0000
0100
0000
0000
0000
0010
0000
0100
0000
0000
0001
1000
0000
0000
0000
,  // measure 28
0010
0001
0000
0010
0100
0000
0010
1000
,  // measure 29
0000
0000
0100
0000
0010
0000
0000
0001
0100
0000
0100
0000
0100
0000
0100
0000
,  // measure 30
0200
0000
0310
1000
0100
1000
0001
1000
,  // measure 31
0010
0000
0000
1000
0100
0000
0000
1000
0001
0000
0010
0000
0010
0000
0010
0000
,  // measure 32
0010
0001
0100
0001
1000
0001
0010
0001
,  // measure 33
0100
0000
0000
0010
1000
0000
0000
0001
0100
0000
0100
0000
0100
0000
0000
0010
,  // measure 34
0100
1000
0100
0010
0100
0001
0100
0010
,  // measure 35
1000
0000
0100
0010
0100
0000
0000
0000
0010
0000
0010
0000
0010
0000
0010
0100
,  // measure 36
1000
1000
0000
0010
0010
0010
0010
1001
,  // measure 37
0000
0000
0110
0000
0110
0000
0000
1000
0100
0000
0000
0010
0001
0000
1001
0000
,  // measure 38
0000
0000
0010
0000
0100
0000
0000
1000
0010
0000
0100
0000
0000
0000
0011
0000
,  // measure 39
0000
0000
1000
0000
0001
0000
0000
0010
0100
0010
0100
0000
1000
0000
0010
0000
,  // measure 40
0100
0101
0000
0010
0000
1000
0100
0010
,  // measure 41
0001
0000
0000
0000
1000
0000
0010
0100
0010
0000
1000
0000
0001
0010
0000
0010
,  // measure 42
0100
1001
0000
0100
0000
0001
0010
0000
,  // measure 43
0100
1000
0001
0100
1000
0100
0001
1000
,  // measure 44
0100
0000
1000
0010
1000
0000
0001
0100
0001
0000
0010
0001
0010
0000
0100
0000
,  // measure 45
1001
1001
0000
0010
0010
0010
0010
0210
,  // measure 46
0000
1300
0100
0001
1000
0010
0001
1000
,  // measure 47
0100
0100
0000
1001
0000
0110
0000
2001
,  // measure 48
0000
0000
3001
0000
0010
0000
1000
0000
0001
0000
0100
0010
0100
0000
1000
0000
,  // measure 49
0001
0001
0000
0120
0000
1000
1000
1000
,  // measure 50
1030
0010
0100
0001
0100
0001
0010
0100
,  // measure 51
1000
0000
0001
0000
0100
0000
0000
0010
1000
0000
0000
0001
0100
0000
0100
0000
,  // measure 52
0010
1000
0100
0010
0100
0010
0001
1000
,  // measure 53
0100
0000
0000
0010
0001
0000
0000
1000
0010
0000
0010
0000
0010
0000
0010
0000
,  // measure 54
0010
0100
0001
1000
0001
1000
0100
0010
,  // measure 55
0001
0100
0010
1000
0010
0001
0010
0100
,  // measure 56
0010
0010
1000
1000
0100
0100
0100
1001
,  // measure 57
0000
0000
0100
0001
0100
0000
0001
0010
0001
0000
1000
0000
0010
0000
0001
0000
,  // measure 58
0010
0100
0001
0100
0010
1000
0100
0010
,  // measure 59
0001
0000
0001
0000
1000
0000
0001
0100
0001
0000
1000
0000
1000
0000
0001
0000
,  // measure 60
1000
0010
1000
0100
0001
0100
1000
0010
,  // measure 61
0100
0000
0100
0000
0010
0000
1000
0001
1000
0000
0010
0000
0010
0000
0100
0000
,  // measure 62
0001
0010
0100
1000
0001
0100
0010
1000
,  // measure 63
0100
0000
1000
0010
0000
0100
0001
0100
,  // measure 64
0010
0010
0100
0100
0010
0010
0010
1001
,  // measure 65
0000
0000
0010
0000
0100
0000
1000
0001
1000
0000
0001
0000
0100
0010
0100
0010
,  // measure 66
0100
0010
2002
0000
0000
0000
0000
0000
,  // measure 67
3003
0000
0000
0000
0110
0000
0000
0000
1000
0010
1000
0010
1000
0000
0001
0000
,  // measure 68
0100
0001
0100
0000
0001
0010
0100
0000
1000
0000
0100
0000
1000
0000
0001
0000
,  // measure 69
0100
0001
1000
0010
1000
0100
0010
0001
,  // measure 70
2000
0000
0010
3010
1000
0100
0010
0001
,  // measure 71
0100
0010
1000
0100
1000
0001
0100
0001
,  // measure 72
0020
0000
0001
0031
0100
0000
0110
0000
,  // measure 73
1000
1001
0010
0011
,  // measure 74
0100
0001
0100
0000
0010
0000
1000
0000
1000
0000
0100
0000
0010
0000
0001
0000
,  // measure 75
1000
0010
1000
0001
0100
0001
0010
0100
,  // measure 76
1000
2002
0000
0000
0000
0000
0000
0000
,  // measure 77
0000
0000
0000
0000
,  // measure 78
3003
0000
0000
0000
,  // measure 79
0000
0000
0000
0000
,  // measure 80
0000
0000
0000
0000
,  // measure 81
0000
0000
0000
0000
,  // measure 82
0000
0000
0000
0000
,  // measure 83
0000
0000
0000
0000
,  // measure 84
0000
0000
0000
0000
,  // measure 85
0000
0000
0000
0000
,  // measure 86
0000
0000
0000
0000
,  // measure 87
0000
0000
0000
0000
,  // measure 88
0000
0000
0000
1001
;

//---------------dance-double - ----------------
#NOTES:
     dance-double:
     EXPERT:
     Hard:
     14:
     0.000000,0.000000,0.000000,0.000000,0.000000,0.000000,0.000000,0.000000,0.000000,0.000000,0.000000,0.000000,0.000000,0.000000,0.000000,0.000000,0.000000,0.000000,0.000000,0.000000,0.000000,0.000000:
00000000
01000000
00100000
00010000
00001000
00000010
00000100
00001000
,
00000000
00000010
00000100
00000010
00001000
00010000
00100000
01000000
,
00000000
10010000
00000000
00100000
00100000
00100000
00100000
01100000
,
00000000
00000000
10000000
01000000
10000000
00000000
00010000
00100000
00010000
00000000
01000000
00000000
00100000
00000000
00010000
00000000
,
00100000
00000000
00000000
00100000
01000000
00000000
00000000
01000000
00001000
00000000
00000000
00001000
00100000
00000000
00000000
00100000
,
00010000
00001000
00000100
00000010
00000001
00000100
00001000
00000000
,
00000100
00000000
00000000
00000100
00000001
00000000
00000000
00000001
00000010
00000000
00000000
00000010
00001000
00000000
00000000
00001000
,
00010000
00001000
00100000
00010000
01000000
00100000
01000000
00010000
,
00100000
00000000
00001000
00100000
00010000
00000000
00001000
00000100
,
00000010
00000000
00000001
00000010
00001000
00000010
00000010
00000000
,
00000100
00000100
00000010
00000010
00000100
00000100
00000100
00001001
,
00000000
00000000
00000010
00000000
00001000
00000000
00000100
00001000
00000100
00000000
00010000
00000000
00001000
00000000
01000000
00000000
,
00100000
00000000
00000000
00100000
10000000
00000000
00000000
10000000
01000000
00000000
00000000
01000000
00010000
00000000
00000000
00010000
,
00001000
00000010
00001000
00010000
00001000
00000100
00000100
00000000
,
00000001
00000000
00000000
00000001
00000010
00000000
00000000
00000010
00001000
00000000
00000000
00001000
00010000
00000000
00000000
00010000
,
01000000
00100000
00001000
00100000
00010000
01000000
01000000
00000000
,
00100000
10000000
00010000
00000000
01000000
00001000
00010000
00000000
,
00000100
00010000
00001000
00000100
00000010
00000100
00000100
00000000
,
00000001
00000001
00001000
00001000
00000001
00000001
00000001
00000110
,
00000000
00000000
00001000
00000000
00000010
00000000
00010000
00001000
00010000
00000000
00000100
00000000
00001000
00000000
00010000
00000000
,
00100000
01000000
11000000
00000000
10000000
00010000
01010000
00000000
,
01000000
00001000
00000000
00022000
00000000
00000000
00033000
00000000
,
00000000
00000100
00010000
00001000
00000100
00000010
00000100
00000020
,
00000000
00001030
00000001
00000010
00000100
00001000
00000010
00002000
,
00000000
00003100
00010000
00001000
00100000
00001000
00010000
00200000
,
00000000
00000000
01300000
00000000
00010000
00000000
01000000
00000000
00100000
00000000
10000000
00010000
10000000
00000000
00200000
00000000
,
00000000
01300000
00100000
00010000
00001000
00010000
01000000
00010000
,
00000000
00000000
00001000
00000000
00010000
00000000
00000100
00000000
00010000
00000000
00000010
00001000
00000010
00000000
00001010
00000000
,
00000000
00000101
00000000
00000010
00000010
00000010
00000010
00001001
,
00000000
00000000
00000100
00000000
00001000
00000001
00001000
00000001
00001000
00000000
00000010
00000000
00000110
00000000
00000000
00000000
,
00001000
00000100
00010000
00001000
00010000
00100000
02000000
00000000
,
03100000
00000000
10000000
01000000
10000000
00000000
01000000
00100000
01000000
00000000
00100000
00010000
00100000
00000000
01000000
00000000
,
00100000
00001000
00010000
00001000
00000100
00001000
00010000
00000100
,
00000010
00000000
00000001
00001000
00000001
00000000
00000100
00000010
00000100
00000000
00000001
00000100
00000001
00000000
00001000
00000000
,
00000010
00000100
00001000
00010000
01000000
00100000
00020000
00000000
,
10030000
00000000
00000000
10000000
01000000
00000000
00100000
00000000
00010000
00000000
01000000
00010000
01000000
00000000
00001000
00000000
,
00100000
00001000
00010000
00000100
00000010
00000000
00000001
00001002
,
00000000
00000010
00000013
00000100
00000020
00000000
00000130
00001001
,
00000000
00002100
00000010
00010000
,
00003100
00000000
00000000
00000000
00010000
00000000
00001000
00000000
00100000
00000000
00001000
00010000
00001000
00000000
00100000
00000000
,
00010000
10000000
01200000
00000000
00010000
00000000
10000000
00000000
,
01300000
00000000
00000000
00000000
00010000
00000000
01000000
00000000
00001000
00000000
00100000
00001000
00000000
00001000
00100000
00000000
,
00001000
00010000
00000210
00000000
00000010
00000000
00000001
00000000
,
00001300
00000000
00000000
00000000
00000010
00000000
00001000
00000000
00000100
00000000
00010000
00001000
00000000
00001000
00010000
00000000
,
00001000
00100000
00010000
10000000
01000000
00100000
00010000
01000000
,
00010000
00100000
00101000
00000000
00010000
00000100
00001000
00001020
,
00000000
00000000
00000100
00000000
00000100
00000000
00000130
00000000
00000001
00000000
00000100
00000010
00002000
00000000
00000100
00000000
,
00000100
00003100
00000000
00010010
00000000
00001000
00000000
00012000
,
00000000
00000000
00100000
00000000
00100000
00000000
00103000
00000000
00010000
00000000
10000000
01000000
20000000
00000000
00100000
00000000
,
00100000
30100000
00000000
20020000
00000000
00000000
30030000
00000000
,
00100000
10000000
01000000
00100000
01000000
00100000
00001000
00100000
,
00001000
00000000
01000000
00000000
00100000
00000000
01000000
00010000
01000000
00000000
00001000
00000000
00100000
00000000
00001000
00000000
,
00010000
00001000
00000100
00000010
00000100
00000010
00001000
00000001
,
00000010
00000000
00000100
00000000
00000010
00000000
00000100
00001000
00000100
00000000
00010000
00000000
00010000
00000000
00001000
00100000
,
01000000
00000000
10000000
01000000
01010000
00000000
00100000
00000000
,
01001000
00000000
00001000
00100000
00010000
00001000
00000100
00001000
,
00000010
00000010
00001000
00001000
00000100
00000100
00000100
00001001
,
00000000
00000000
00000010
00000000
00000001
00000000
00000100
00000001
00000100
00000000
00000010
00000000
00001000
00000100
00001000
00000100
,
00010000
00001000
00010000
00001000
00100000
01000000
00100000
00010000
,
01000000
00000000
10000000
00000000
01000000
00000000
00010000
10000000
00010000
10000000
00010000
00000000
01000000
00000000
00100000
00000000
,
10000000
01000000
10000000
01000000
00100000
00001000
00100000
00001000
,
00010000
00000000
00000100
00000000
00001000
00000000
00000100
00010000
00000100
00010000
00000100
00000000
00010000
00000000
00001000
00000000
,
00000010
00000100
00001000
00000100
00000010
00000001
00000101
00000000
,
00000001
00001000
00000100
00000010
00000100
00010000
00001000
01000000
,
00100000
00100000
01000000
01000000
00100000
00100000
00100000
10010000
,
00000000
00000000
00100000
00000000
10000000
00000000
01000000
00100000
01000000
00000000
10000000
00000000
00010000
01000000
00010000
01000000
,
00010000
01000000
02002000
00000000
00000000
00000000
00000000
03003000
,
00000000
00000000
00000000
00000000
00011000
00000000
00000000
00000000
00000001
00000010
00000001
00000010
00000001
00000000
00001000
00000000
,
00000010
00001000
00000100
00001000
00000100
00000000
00010000
00000000
00001000
00000000
00010000
00000000
00100000
00000000
01000000
00000000
,
10000000
01000000
00100000
00010000
00100000
01000000
00100000
01000000
,
00001000
00000000
00001000
00100000
00010000
00001000
00000100
00010000
,
00001000
00000100
00010000
00000100
00000010
00001000
00000010
00000100
,
00000001
00001000
00000001
00000010
00000100
00001100
00000000
00010000
,
00000010
00000000
00001010
00000000
00000000
00000000
00000100
00000000
00010000
00001000
00010000
00000000
00001000
00100000
00001000
00000000
,
00010000
00100000
01000000
10000000
00100000
10100000
00000000
00001000
,
00100000
00000000
00110000
00000000
00000000
00000000
00001000
00000000
00010000
00000100
00010000
00000000
00000100
00000000
00001000
00000000
,
00000010
00020020
00000000
00000000
00000000
00000000
00000000
00000000
,
00000000
00000000
00000000
00000000
,
00030030
00000000
00000000
00000000
,
00000000
00000000
00000000
00000000
,
00000000
00000000
00000000
00000000
,
00000000
00000000
00000000
00000000
,
00000000
00000000
00000000
00000000
,
00000000
00000000
00000000
00000000
,
00000000
00000000
00000000
00000000
,
00000000
00000000
00000000
00000000
,
00000000
00000000
00000000
00000000
,
00000000
00000000
00000000
00000000
,
00000000
00000000
00000000
11000000
;
