#TITLE:SLEIGH RIDE;
#SUBTITLE:;
#ARTIST:MC F 40;
#TITLETRANSLIT:;
#SUBTITLETRANSLIT:;
#ARTISTTRANSLIT:;
#GENRE:CHRISTMAS SPEED;
#CREDIT:YonabearCWY;
#BANNER:SLEIGH RIDE.png;
#BACKGROUND:SLEIGH RIDE-bg.png;
#LYRICSPATH:;
#CDTITLE:Christmas Speed.png;
#MUSIC:SLEIGH RIDE.ogg;
#OFFSET:-1.320000;
#SAMPLESTART:10.974654;
#SAMPLELENGTH:15.000000;
#SELECTABLE:YES;
#BPMS:0.000000=180.000000
;
#STOPS:
;
#BGCHANGES:0.000=snow4.mp4=1.000=1=0=1===CrossFade==,
16.000=kaliedoscope9.mp4=1.000=0=0=1=====,
28.000=blizzard1.mp4=1.000=0=0=1=====,
32.000=kaliedoscope4.mp4=1.000=0=0=1=====,
48.000=snow5.mp4=1.000=0=0=1=====,
60.000=blizzard1.mp4=1.000=0=1=1=StretchRewind====,
64.000=kaliedoscope5.mp4=1.000=0=0=1=====,
80.000=kaliedoscope6.mp4=1.000=0=0=1=====,
88.000=tunnel12.mp4=1.000=0=0=1=====,
96.000=tunnel9.mp4=1.000=0=0=1=====,
104.000=spiral1.mp4=1.000=0=0=1=====,
112.000=spiral2.mp4=1.000=0=0=1=====,
120.000=tunnel10.mp4=1.000=0=0=1=====,
128.000=sphere4.mp4=1.000=0=0=1=====,
144.000=smoke1.mp4=1.000=0=0=1=====,
156.000=blizzard1.mp4=1.000=0=1=1=StretchRewind====,
160.000=snow4.mp4=1.000=0=1=1=StretchRewind====,
176.000=feather1.mp4=1.000=0=0=1=====,
188.000=blizzard1.mp4=1.000=0=1=1=StretchRewind====,
192.000=ring2.mp4=1.000=0=0=1=====,
208.000=tunnel9.mp4=1.000=0=1=1=StretchRewind====,
216.000=spiral1.mp4=1.000=0=1=1=StretchRewind====,
224.000=spiral2.mp4=1.000=0=1=1=StretchRewind====,
240.000=tunnel10.mp4=1.000=0=1=1=StretchRewind====,
248.000=kaliedoscope4.mp4=1.000=0=1=1=StretchRewind====,
264.000=kaliedoscope6.mp4=1.000=0=1=1=StretchRewind====,
272.000=kaliedoscope5.mp4=1.000=0=1=1=StretchRewind====,
280.000=kaliedoscope9.mp4=1.000=0=1=1=StretchRewind====,
296.000=SLEIGH RIDE-bg.png=1.000=0=0=1=====,
99999=-nosongbg-=1.000=0=0=0 // don't automatically add -songbackground-
;
#KEYSOUNDS:;
#ATTACKS:;

//---------------dance-single - ----------------
#NOTES:
     dance-single:
     BEGINNER:
     Beginner:
     4:
     0.000000,0.000000,0.000000,0.000000,0.000000,0.000000,0.000000,0.000000,0.000000,0.000000,0.000000,0.000000,0.000000,0.000000,0.000000,0.000000,0.000000,0.000000,0.000000,0.000000,0.000000,0.000000:
1000
0000
1000
0000
,
1000
1000
0000
0000
,
0001
0000
0001
0000
,
0001
0001
0000
0000
,
0100
0000
0100
0000
,
0100
0100
0000
0000
,
0010
0000
0010
0000
,
0010
0010
0000
0000
,
0110
0000
0000
0000
,
1000
1000
1000
0000
,
0001
0000
0000
0000
,
0000
0000
0000
0000
,
1001
0000
0000
0000
,
0010
0010
0010
0000
,
0100
0000
0000
0000
,
0000
0000
0000
0000
,
1000
0000
1000
0000
,
1000
0000
0001
0000
,
1001
0000
0000
0000
,
0000
0000
0000
0000
,
0010
0000
0010
0000
,
0010
0000
0100
0000
,
0110
0000
0000
0000
,
0001
0001
0001
0000
,
1000
0000
1000
0000
,
1000
0000
1001
0000
,
1001
0000
0000
0000
,
0001
0001
0001
0000
,
0010
0000
0010
0000
,
0010
0000
0010
0000
,
0010
0000
0100
0000
,
1000
0000
0001
0000
,
0100
0000
0100
0000
,
0100
0000
0110
0000
,
0110
0000
0000
0000
,
1000
1000
1000
0000
,
2002
0000
0000
0000
,
3003
0000
0000
0000
,
0020
0000
0000
0000
,
0030
0000
0000
0000
,
0100
0000
0100
0000
,
0100
0100
0100
0000
,
0110
0000
0000
0000
,
0000
0000
0000
0000
,
0010
0000
0010
0000
,
0010
0010
0010
0000
,
0110
0000
0000
0000
,
0000
0000
0000
0000
,
1000
0000
1000
0000
,
1000
1000
1000
0000
,
1001
0000
0000
0000
,
0000
0000
0000
0000
,
0001
0000
0001
0001
,
2002
0000
0000
3003
,
0000
0010
0010
0000
,
0000
0010
0010
0000
,
0000
0100
0100
0000
,
0000
0100
0100
0000
,
0000
0001
0001
0000
,
0000
0001
0001
0000
,
0000
1000
1000
0000
,
0000
1000
1000
0000
,
1000
0000
0000
0000
,
1000
1000
1000
0000
,
0001
0000
0000
0000
,
0001
0001
0001
0000
,
0100
0000
0000
0000
,
0100
0100
0100
0000
,
0010
0000
0000
0000
,
0010
0010
0010
0000
,
2002
0000
0000
0000
,
0000
0000
0000
3003
,
0000
0000
0000
0000
,
0010
0010
0010
0000
,
1001
0000
0000
0000
;

//---------------dance-single - ----------------
#NOTES:
     dance-single:
     BASIC:
     Easy:
     7:
     0.000000,0.000000,0.000000,0.000000,0.000000,0.000000,0.000000,0.000000,0.000000,0.000000,0.000000,0.000000,0.000000,0.000000,0.000000,0.000000,0.000000,0.000000,0.000000,0.000000,0.000000,0.000000:
1001
1000
1000
1000
,
1000
0000
0000
0001
0000
0100
0000
0000
,
0011
0001
0001
0001
,
0001
0000
0000
0100
0000
0010
0000
0000
,
0110
0100
0100
0100
,
0100
0000
0000
0001
0000
1000
0000
0000
,
1010
0010
0010
0010
,
0220
0000
0000
0330
,
1000
1000
1010
0000
,
0001
0001
0011
0000
,
0100
0000
0100
0000
,
0010
0010
0010
0000
,
1000
0000
0001
0000
,
1000
0000
0001
0000
,
0220
0000
0000
0330
,
0001
0000
1000
0000
,
0100
0100
0110
0000
,
0001
0001
0101
0000
,
1000
0000
1000
0000
,
0001
0001
0001
0000
,
0100
0000
0010
0000
,
0100
0000
0010
0000
,
2002
0000
0000
3003
,
0100
0010
0100
0000
,
0010
0000
0010
0000
,
0010
0010
2002
3003
,
1000
0100
0010
0001
,
0200
0000
0000
0300
,
0010
0000
0010
0000
,
0100
0000
0100
0000
,
1001
0000
1001
0000
,
0110
0000
0110
0000
,
0100
0000
0100
0000
,
0100
0100
2002
3003
,
0001
0010
0100
1000
,
0020
0000
0000
0030
,
0220
0000
0000
0000
,
0000
0000
0000
0330
,
2002
0000
0000
0000
,
3003
0000
0000
0000
,
1000
1000
1000
0000
,
0100
0100
0100
0000
,
0010
0000
0010
0000
,
0001
0000
0001
0000
,
0011
0000
1100
0000
,
0011
0000
1100
0000
,
2002
0000
0000
3003
,
0010
0100
1000
0110
,
0001
0001
0001
0000
,
0010
0010
0010
0000
,
0100
0000
0100
0000
,
1000
0000
1000
0000
,
1010
0000
0101
0000
,
2002
0000
0000
3003
,
0010
0010
0010
0010
,
0010
0000
0000
0100
0000
0001
0000
0000
,
1000
1000
1000
1000
,
1000
0000
0000
0010
0000
1000
0000
0000
,
0001
0001
0001
0001
,
0001
0000
0000
0100
0000
0010
0000
0000
,
0100
0100
0100
0100
,
0100
0000
0000
1001
0000
1001
0000
0000
,
0010
0010
0010
0010
,
0010
0000
0000
0110
0000
0110
0000
0000
,
1000
1000
1000
1000
,
1000
0000
0000
1001
0000
1001
0000
0000
,
0001
0001
0001
0001
,
0001
0000
0000
0011
0000
0011
0000
0000
,
0100
0100
0100
0100
,
0100
0000
0000
1001
0000
1001
0000
0000
,
0220
0000
0000
0000
,
0000
0000
0000
0330
,
1000
1000
1000
0000
,
0001
0001
0001
0000
,
1001
0000
0000
0000
;

//---------------dance-single - ----------------
#NOTES:
     dance-single:
     DIFFICULT:
     Medium:
     10:
     0.000000,0.000000,0.000000,0.000000,0.000000,0.000000,0.000000,0.000000,0.000000,0.000000,0.000000,0.000000,0.000000,0.000000,0.000000,0.000000,0.000000,0.000000,0.000000,0.000000,0.000000,0.000000:
1002
0100
0010
0100
,
1003
0000
0001
0010
0000
1100
0000
0010
,
0021
1000
0001
1000
,
0130
0000
0010
0100
0000
1001
0000
0100
,
0210
0001
1000
0001
,
0310
0000
1000
0010
0000
0100
0001
0010
,
2100
0010
0001
0010
,
3100
1010
1001
0101
,
1001
0000
0010
0000
1000
0001
0010
0000
,
0110
0000
0100
0000
1000
0100
0001
0000
,
2100
0010
0100
0010
,
3100
0000
1000
0010
0000
0100
0001
0000
,
0110
0000
0001
0010
0000
0100
1000
0000
,
0010
0010
0000
1000
0100
0010
0001
0000
,
0120
1000
0001
1000
,
0031
1010
0101
0011
,
1100
0000
0010
0000
0001
0010
1000
0000
,
0011
0000
0100
0000
1000
0100
0001
0000
,
0100
0010
0100
0000
0010
1000
0010
0000
,
1000
0000
0100
0010
0000
0001
0010
0000
,
1100
0000
0010
0100
0000
0001
1000
0000
,
0010
0010
0000
0100
0010
0001
0010
0000
,
0220
0000
0000
0330
,
0001
1000
0001
1000
0100
0010
0100
0000
,
1100
0001
1100
0001
,
1001
0110
2002
3003
,
0001
0010
0001
0000
1000
0010
1000
0000
,
0100
0000
0010
0001
0000
1000
0010
0000
,
0100
0010
0100
0000
0001
1000
0001
0000
,
0010
0000
0100
1000
0000
0001
0100
0000
,
0010
1000
0000
0100
0010
0100
0000
0010
,
0001
0010
0000
0001
1000
0100
0010
0000
,
0101
1000
0101
1000
,
0110
1001
0220
0330
,
0010
0100
1000
0000
0001
0100
0010
1000
,
0100
0000
0010
0001
0000
1000
0010
0000
,
0220
0000
0000
0000
,
0000
0000
0000
0330
,
2002
0000
0000
0000
,
3003
0110
1010
0101
,
0011
0000
0100
0001
0000
0010
0100
1000
,
0001
0100
0000
0010
1000
0100
0010
0000
,
1100
0000
0010
0100
0010
0000
1000
0001
,
1000
0000
0001
0010
0100
0010
0001
0000
,
0101
0000
0010
0100
0000
1000
0100
0000
,
0010
0001
0010
0000
0100
0100
0100
0000
,
1002
0010
1000
0010
,
0103
0011
1001
1010
,
1100
0000
0010
0100
0000
1000
0100
0010
,
0001
0100
0000
0010
0100
0001
0100
0000
,
0010
0000
1000
0010
1000
0000
0001
0100
,
0001
0000
0010
0001
0010
0000
0100
1000
,
0001
0000
0010
0001
0000
1000
0010
0000
,
0220
0000
0000
0330
,
1001
0000
1000
0010
1000
0000
0010
1000
,
0010
0000
1000
0100
0000
0010
0000
0001
,
0101
0000
0010
0001
0010
0000
0001
0100
,
0001
0000
0010
0100
0000
1000
0100
0010
,
0110
0000
1000
0001
1000
0000
0001
1000
,
0001
0000
0010
0100
0000
1000
0000
0100
,
0110
0000
1000
0010
0001
0000
0001
0010
,
1000
0000
0010
0100
0000
0010
0000
1000
,
1100
0000
0010
0001
0100
0001
0010
0000
,
0001
0000
0010
0100
0000
1000
0000
0100
,
0011
0000
1000
0010
0100
0010
1000
0000
,
0101
0000
0010
0100
0000
0010
0000
1000
,
0110
0000
0001
0010
1000
0010
0001
0000
,
0110
0000
1000
0001
0000
0010
0000
0100
,
0011
0000
1000
0100
0001
0100
1000
0000
,
0110
0000
0001
0010
0000
0100
0000
1000
,
2002
0000
0000
0000
,
0000
0000
0000
3003
,
0010
0000
1000
0010
0100
0010
0100
0000
,
0001
0000
0010
0100
0010
0100
1000
0000
,
1001
0000
0000
0000
;

//---------------dance-single - ----------------
#NOTES:
     dance-single:
     EXPERT:
     Hard:
     13:
     0.727848,0.684845,0.438379,0.185093,0.131514,523.000000,478.000000,45.000000,19.000000,0.000000,0.000000,0.727848,0.684845,0.438379,0.185093,0.131514,523.000000,478.000000,45.000000,19.000000,0.000000,0.000000:
// measure 0
1000
0010
1000
0010
0100
0001
0100
0001
,  // measure 1
0010
0100
1000
0010
0000
0110
0000
0001
,  // measure 2
0011
0000
0100
1000
0100
1000
0001
0100
,  // measure 3
0001
0010
0100
1000
0001
0000
0010
0100
,  // measure 4
1100
0000
0010
0100
0001
0010
0001
0010
,  // measure 5
0100
1000
0100
1000
0001
0010
0000
0100
,  // measure 6
0110
0000
1000
0100
0010
0001
0100
0001
,  // measure 7
0010
0001
0010
0000
1100
0000
0000
0000
0011
0000
0000
0000
0110
0000
0000
0000
,  // measure 8
1002
0000
0010
0000
0103
0001
1000
0000
,  // measure 9
0120
0000
0001
0000
1030
0010
0100
0000
,  // measure 10
1001
0010
0100
1000
,  // measure 11
0100
1000
0100
0010
0000
0001
0100
0000
,  // measure 12
1010
0000
0100
0001
0000
0010
0100
0000
,  // measure 13
1000
0100
0010
0001
0100
0010
0100
0000
,  // measure 14
0012
1000
0100
1000
,  // measure 15
0013
0001
0010
0000
0001
0000
0100
0000
0010
0000
1000
0000
1100
0000
0000
0000
,  // measure 16
0012
0000
1000
0000
0103
0010
0001
0000
,  // measure 17
2010
0010
0000
3001
1000
0100
0010
0000
,  // measure 18
0100
0010
0001
1000
0100
0010
0100
0010
,  // measure 19
0001
1000
0010
0200
0000
0301
1001
0000
,  // measure 20
0110
0000
1000
0100
0000
0010
0001
0000
,  // measure 21
0010
0100
1000
0001
0100
0010
0100
0000
,  // measure 22
2010
0000
0000
0000
0100
0000
0000
0000
3001
1000
0001
1000
0001
0000
0010
0000
,  // measure 23
1100
0000
1010
0000
0011
0000
0100
0001
,  // measure 24
1000
0000
0100
1000
0010
0000
0100
0010
,  // measure 25
0001
0000
1010
0000
0010
0100
0010
0010
,  // measure 26
0000
0100
0001
0010
0100
1000
0001
0100
,  // measure 27
0020
0000
1000
1000
0000
0001
0031
0000
,  // measure 28
0101
0000
0010
1000
0100
0010
0001
0000
,  // measure 29
0110
0000
1000
0100
0001
0100
1000
0000
,  // measure 30
0012
1000
0000
0103
0010
0002
0000
0013
,  // measure 31
0100
0020
0000
1030
0010
0200
0000
0301
,  // measure 32
1000
0000
0100
0010
0001
0000
1000
0010
,  // measure 33
0100
0000
0011
0000
1000
0001
1000
1000
,  // measure 34
0000
0010
0100
0010
1000
0100
0010
0001
,  // measure 35
0200
0000
0001
0001
0000
1000
1300
0000
,  // measure 36
1010
0010
0100
0001
0010
0100
1000
0020
,  // measure 37
0000
0000
0000
0130
0001
0010
0100
1000
,  // measure 38
0010
0100
0001
0000
1000
0010
0100
0001
,  // measure 39
0010
0101
0011
1010
,  // measure 40
2001
0000
0010
3010
0000
0100
0001
0000
,  // measure 41
1000
0010
0001
0010
1000
0000
0010
0100
,  // measure 42
1000
0100
0001
0100
0010
0001
0010
0100
,  // measure 43
0001
1010
0101
0110
,  // measure 44
1000
0100
0000
0011
0000
0100
1000
0001
,  // measure 45
0010
0100
0000
1000
0100
0001
0100
0000
,  // measure 46
2001
0010
0001
0100
,  // measure 47
3001
1000
1100
0000
0011
0001
1001
0000
,  // measure 48
0110
0000
1000
0010
0001
0010
1000
0001
,  // measure 49
0100
0000
0001
0100
1000
0100
0001
0010
,  // measure 50
0001
0000
0100
0010
0100
1000
0100
0010
,  // measure 51
0001
0010
0100
0010
1000
0100
0010
0001
,  // measure 52
0101
0000
0010
1000
0000
0100
0010
0000
,  // measure 53
2001
0010
0000
3100
1000
0001
1000
0000
,  // measure 54
0100
0010
0000
0000
0001
0000
0010
0000
0100
0000
0010
0000
0100
0000
1000
0000
,  // measure 55
0001
0100
0010
0100
0000
0010
0010
0010
,  // measure 56
0010
1000
0000
0000
0100
0000
0010
0000
0001
0000
1000
0000
0100
0000
0010
0000
,  // measure 57
0100
1000
0001
0100
0000
0001
0001
0001
,  // measure 58
0001
0100
0000
0000
0010
0000
1000
0000
0100
0000
1000
0000
0010
0000
0100
0000
,  // measure 59
0001
0010
0001
1000
0000
0100
0100
0100
,  // measure 60
0100
1000
0100
0000
1000
0000
0001
0000
1000
0000
0001
0000
0010
0000
0100
0000
,  // measure 61
0010
0001
0010
0000
0100
0000
1001
0000
0000
0000
1000
0000
1000
0000
1000
0000
,  // measure 62
1000
0010
0000
0000
0010
0100
0000
0000
0100
0001
0000
0000
0001
0010
0000
0000
,  // measure 63
0010
0100
1000
0001
0000
0010
0010
0010
,  // measure 64
0010
0001
0000
0000
0001
0100
0000
0000
0100
0010
0000
0000
0010
1000
0000
0000
,  // measure 65
1000
0100
0010
0100
0000
1000
1000
1000
,  // measure 66
1000
0001
0000
0000
0001
1000
0000
0000
1000
0100
0000
0000
0100
0010
0000
0000
,  // measure 67
0010
0001
0010
0000
0001
0000
1000
0000
0000
0000
0100
0000
0100
0000
0100
0000
,  // measure 68
0100
0010
0100
0000
1000
0010
0000
0000
0010
0100
0000
0000
0100
0001
0000
0000
,  // measure 69
0001
0010
0001
0000
0010
0000
0100
0000
0000
0000
0010
0000
0010
0000
0010
0000
,  // measure 70
2002
0000
0000
3003
,  // measure 71
1000
0000
0100
0010
0001
1000
0010
0000
,  // measure 72
0100
0000
0001
0010
0100
1000
0010
0100
,  // measure 73
0001
0000
1000
0100
0010
0100
1000
0001
,  // measure 74
1001
0000
0000
0000
;

//---------------dance-double - ----------------
#NOTES:
     dance-double:
     BASIC:
     Easy:
     7:
     0.000000,0.000000,0.000000,0.000000,0.000000,0.000000,0.000000,0.000000,0.000000,0.000000,0.000000,0.000000,0.000000,0.000000,0.000000,0.000000,0.000000,0.000000,0.000000,0.000000,0.000000,0.000000:
01100000
00100000
00100000
00100000
,
00100000
00000000
00000000
01000000
00000000
01000000
00000000
00000000
,
00101000
00001000
00001000
00001000
,
00001000
00000000
00000000
00010000
00000000
00010000
00000000
00000000
,
00001010
00001000
00001000
00001000
,
00001000
00000000
00000000
00000100
00000000
00000100
00000000
00000000
,
00011000
00010000
00010000
00010000
,
00022000
00000000
00000000
00033000
,
00001000
00100000
00001000
00000000
,
00100000
00010000
00100000
00000000
,
00001000
00000000
00001000
00000000
,
00010000
00000000
00010000
00000000
,
00000100
00010000
00000100
00000000
,
00010000
00000010
00010000
00000000
,
00000220
00000000
00000000
00000330
,
00000001
00000000
00000010
00000000
,
00000100
00001000
00000100
00000000
,
00010000
00000100
00010000
00000000
,
00001000
00000000
00001000
00000000
,
00010000
00000000
00010000
00010000
,
00001000
00100000
00001000
00000000
,
00100000
00010000
00100000
00000000
,
20020000
00000000
00000000
30030000
,
00100000
00100000
01000000
01000000
,
00010000
00100000
00001000
00100000
,
00001000
00010000
00001000
00010000
,
00000100
00000000
00000100
00000000
,
00000010
00000001
00000010
00000100
,
00002000
00000000
00003100
00010000
,
00002000
00000000
00103000
00010000
,
10010000
00000000
10010000
00000000
,
01100000
00000000
01100000
00000000
,
01000000
00010000
01000000
00001000
,
00100000
00001000
00010000
00000100
,
00000010
00000000
00000100
00001000
,
00000001
00000010
00000100
00001000
,
00000220
00000000
00000000
00000000
,
00000330
00000000
00000000
00000000
,
00022000
00000000
00000000
00000000
,
00033000
00001000
00001000
00010000
,
00010000
00000000
00001000
00010000
,
00100000
01000000
00000000
00100000
,
10000000
00010000
00000000
01000000
,
00010000
00100000
00001000
00010000
,
00001000
00010000
00000100
00000010
,
00000001
00001000
00000010
00000100
,
00000220
00000000
00000000
00000330
,
00000010
00001000
00000100
00010000
,
00001000
00000000
00001000
00010000
,
00001000
01000000
00000000
00100000
,
10000000
01000000
00100000
00000000
,
00001000
00010000
00001000
00000100
,
00000220
00000000
00000000
00000330
,
00002002
00000000
00000000
00003003
,
00001010
00000010
00000010
00000010
,
00000010
00000000
00000000
00001000
00000000
00001000
00000000
00000000
,
00010100
00000100
00000100
00000100
,
00000100
00000000
00000000
00010000
00000000
00010000
00000000
00000000
,
00011000
00010000
00010000
00010000
,
00010000
00000000
00000000
00001000
00000000
00001000
00000000
00000000
,
00110000
00100000
00100000
00100000
,
00100000
00000000
00000000
10010000
00000000
10010000
00000000
00000000
,
00100000
01000000
00010000
01000000
,
00001000
00000000
00000000
00011000
00000000
00011000
00000000
00000000
,
00010000
00000100
00001000
00000100
,
00000010
00000000
00000000
00000011
00000000
00000011
00000000
00000000
,
00000100
00000010
00001000
00000010
,
00010000
00000000
00000000
00011000
00000000
00011000
00000000
00000000
,
00100000
01000000
10000000
01000000
,
00010000
00000000
00000000
01100000
00000000
01100000
00000000
00000000
,
20020000
00000000
00000000
00000000
,
00000000
00000000
00000000
30030000
,
00100000
01000000
00100000
00000000
,
01000000
00001000
01000000
00000000
,
00011000
00000000
00000000
00000000
;

//---------------dance-double - ----------------
#NOTES:
     dance-double:
     DIFFICULT:
     Medium:
     10:
     0.000000,0.000000,0.000000,0.000000,0.000000,0.000000,0.000000,0.000000,0.000000,0.000000,0.000000,0.000000,0.000000,0.000000,0.000000,0.000000,0.000000,0.000000,0.000000,0.000000,0.000000,0.000000:
00120000
01000000
10000000
01000000
,
00130000
00000000
00100000
00001000
00000000
00010000
00000000
00000100
,
00001200
00000010
00000001
00000010
,
00001300
00000000
00000100
00010000
00001000
00000000
00010000
00001000
,
00201000
00010000
01000000
00010000
,
00301000
00000000
00010000
00001000
00000000
00010000
00000000
00000100
,
00010200
00001000
00000010
00001000
,
00010300
00000100
00001000
00000000
00000100
00010000
00001000
00000000
,
00011000
00000000
00011000
00000000
00001000
00100000
01000000
00000000
,
11000000
00000000
11000000
00000000
10000000
00010000
00100000
00000000
,
00101000
00000000
00101000
00000000
00001000
00010000
00000100
00000010
,
00000100
00000000
00001000
00000001
00000000
00000010
00000100
00000000
,
00010100
00000000
00000100
00010000
00000000
00010000
00001000
00000000
,
00010000
00001000
00010000
00001000
00100000
00000000
01000000
00000000
,
10000000
01000000
00100000
00010000
,
01000000
00010000
01000000
00000000
00001000
00100000
00001000
00000000
,
00011000
00000000
00011000
00000000
00010000
00000010
00000100
00000000
,
00000100
00000001
00000000
00001000
00000010
00001000
00000100
00000000
,
00000110
00000100
00010000
00000100
,
00010000
00000000
00001000
00100000
00010000
00000000
01000000
00000000
,
10010000
00000000
00100000
01000000
00000000
01000000
00010000
00000000
,
00100000
00001000
00000000
00001000
00010000
00000100
00010000
00000000
,
00002002
00000000
00000000
00003003
,
00000010
00000100
00000010
00001000
00000010
00001000
00000100
00000000
,
00010100
00010000
00011000
00001000
,
00101000
00000000
00100000
00010000
10000000
00000000
00100000
10000000
,
00010000
01000000
00010000
00100000
,
00001000
00010000
00000100
00000010
,
00000001
00000000
00001000
00000100
00000010
00000000
00000100
00000000
,
00010000
00001000
00100000
00000000
00010000
00000000
10000000
00010000
,
02000000
00000000
00000000
10000000
10000000
00000000
00000000
00010000
,
00010000
00000000
00000000
03100000
01000000
00010000
01000000
00000000
,
01001000
00001000
00101000
00100000
,
00110000
00000000
00010000
00000000
00011000
00000000
00001000
00000100
,
00000010
00000000
00000001
00000000
00000100
00000010
00000100
00000000
,
00001001
00000000
00000100
00000010
00000000
00000100
00000010
00001000
,
00002020
00000000
00000000
00000000
,
00000000
00000000
00003030
00000000
00010000
00000100
00010000
00001000
,
00022000
00000000
00000000
00000000
,
00033000
00000000
00010000
01000000
00100000
00000000
10000000
00100000
,
01000000
00000000
00100000
01000000
00000000
00100000
10000000
00000000
,
00010000
00000000
00100000
00001000
00100000
00000000
00001000
00000000
,
00010000
00000000
00000100
00010000
00000100
00000000
00001000
00000000
,
00000100
00000000
00000010
00000001
00000000
00000010
00000100
00000000
,
00001100
00010000
00001000
00100000
,
01000000
10000000
00000000
00010000
01000000
00010000
00100000
00000000
,
00201000
00010000
00001000
00010000
,
00301000
00100000
00001000
00000000
00010000
00001000
00010000
00000000
,
00000100
00010000
00000100
00000000
00001000
00000000
00000010
00000100
,
00000001
00000000
00001000
00000000
00000010
00000000
00000100
00001000
,
00010000
00000000
00001000
00010000
00001000
00000000
00100000
00000000
,
00010000
00000000
01000000
00100000
01000000
00000000
00010000
00000000
,
00101000
00000000
00010000
00001000
00000000
00000100
00000010
00000000
,
00010200
00000000
00000000
00001300
00000100
00010000
00000100
00000000
,
00012000
00100000
00010000
00100000
,
00013000
00000000
00000000
00001000
00000000
00100000
00000000
00010000
,
02010000
10000000
00100000
10000000
,
03010000
00000000
00000000
01000000
00000000
00010000
00000000
00100000
,
00101000
00000000
00010000
00001000
00010000
00000000
00000100
00010000
,
00000100
00000000
00001000
00000010
00000000
00000100
00000000
00000001
,
00000010
00000000
00000100
00000010
00000100
00000000
00001000
00000001
,
00001000
00000010
00000001
00000010
,
00001020
00000100
00010000
00000100
,
00001030
00000000
00000000
00001000
00000000
00000100
00000000
00010000
,
00021000
00000100
00001000
00000100
,
00031000
00000000
00010000
00001000
00000000
00100000
00000000
00010000
,
01010000
00000000
00100000
00010000
00100000
00000000
00010000
10000000
,
00010000
00000000
01000000
00010000
00000000
00100000
00000000
00001000
,
00010000
00000000
00000100
00010000
00000100
00000000
00001000
00000010
,
00001000
00000000
00000010
00000100
00000000
00000001
00000000
00001000
,
00002002
00000000
00000000
00000000
,
00000000
00000000
00000000
00003003
,
00000010
00000000
00001000
00000010
00010000
00000000
00000100
00000000
,
00010000
00000000
00001000
00100000
00010000
01000000
00000000
00100000
,
10010000
00000000
00000000
00000000
;

//---------------dance-double - ----------------
#NOTES:
     dance-double:
     EXPERT:
     Hard:
     13:
     0.000000,0.000000,0.000000,0.000000,0.000000,0.000000,0.000000,0.000000,0.000000,0.000000,0.000000,0.000000,0.000000,0.000000,0.000000,0.000000,0.000000,0.000000,0.000000,0.000000,0.000000,0.000000:
00101000
00000000
00010000
01000000
00100000
01000000
00010000
01000000
,
00001000
00100000
00001000
00001000
00000000
00011000
00000000
00010000
,
00010100
00000000
00001000
00000010
00010000
00000010
00001000
00000010
,
00000100
00000010
00001000
00001000
00000000
00011000
00000000
00100000
,
01100000
00000000
10000000
01000000
00010000
01000000
10000000
00010000
,
01000000
00100000
00010000
00001000
00100000
00001000
00011000
00000000
,
00000100
00000010
00000001
00001000
00000010
00000001
00000010
00001000
,
00000100
00000010
00001010
00000000
00011000
00000000
01010000
00000000
,
11000000
00000000
00100000
01000000
10000000
01000000
01000000
00000000
,
00101000
00000000
00010000
00001000
00100000
00001000
00001000
00000000
,
00010000
00000100
00010000
00000000
00000010
00010000
00000010
00000000
,
00001000
00000100
00000010
00000002
00000000
00001000
00001003
00000000
,
00000011
00000000
00000000
00001000
00000010
00000000
00001000
00000000
00000100
00000000
00001000
00000000
00010000
00000000
00100000
00000000
,
00010000
00000000
00000000
10000000
00100000
00000000
01000000
00000000
00100000
00000000
00010000
00000000
00001000
00000000
00000000
00000000
,
00021000
00000000
00000100
00000000
00001000
00001000
00001000
00000000
,
00030100
00000000
00010000
00001000
00000100
00000010
00001000
00000001
,
00000010
00000000
00000000
00000100
00000010
00000000
00000100
00000000
00010000
00000000
00001000
00000000
00100000
00000000
01000000
00000000
,
00100000
00000000
00000000
00010000
10000000
00000000
00100000
00000000
01000000
00000000
00010000
00000000
00001000
00000000
00100000
00000000
,
00010000
00001000
00000100
00000020
00000000
00001030
00000001
00000200
,
00000000
00000301
00000010
00000100
00001100
00000000
00010100
00000000
,
00110000
00000000
00000000
00000000
01000000
10000000
00000000
10000000
00010000
00000000
00100000
00000000
01000000
00000000
00100000
00000000
,
00001000
00010000
00000000
00010000
00000100
00001000
00000100
00000010
,
00000011
00000000
00000000
00000000
00001000
00000000
00000010
00000000
00000100
00000010
00000100
00000010
00000100
00000000
00000010
00000000
,
00001000
00000100
00010000
00100000
01000000
10000000
01000000
00010000
,
01010000
00000000
01000000
10000000
10100000
00000000
01000000
00010000
,
00110000
00011000
00002200
00000000
,
00003300
00000000
00000100
00000010
00000001
00001000
00000100
00000020
,
00000000
00000031
00002000
00000010
00000000
00000010
00000010
00003010
,
00001000
00000000
00011000
00000000
00100000
00010000
01000000
10000000
,
01000000
00000000
00100000
01000000
00000000
00001000
00100000
00000000
,
00010100
00001000
00000110
00000100
,
00011000
00000000
00100000
00000000
00011000
00000000
00000010
00001000
,
00001100
00000000
00000010
00000001
00000101
00000000
00000010
00001000
,
00001010
00011000
02020000
00000000
,
03030000
00000000
00100000
01000000
10000000
00010000
01000000
00100000
,
20000000
00000000
00010000
00020000
00000000
00000000
30030000
00000000
,
10000000
01000000
00100000
00001000
00010000
00000100
00000010
00000002
,
00000000
00001003
00000010
00000100
00001000
00010000
00001000
00010000
,
00100000
01000000
00000000
10000000
01000000
00010000
01000000
00100000
,
01000000
01100000
00101000
00011000
,
00010200
00000000
00001300
00000100
00000010
00000001
00001000
00000010
,
00000100
00000000
00000010
00001000
00000100
00010000
00001000
00000000
,
00011000
00000000
00100000
00010000
00000000
01000000
00010000
01000000
,
00000000
00000000
00100000
00000000
10000000
00000000
00100000
00000000
00010000
00000000
00100000
01000000
00100000
00000000
00000000
00000000
,
11000000
00000000
00100000
01000000
10000000
01000000
00010000
01000000
,
00100000
01000000
00010000
00001000
00010000
00000100
00001000
00000000
,
00000101
00000000
00000010
00001000
00000000
00000100
00000010
00000100
,
00000000
00000000
00000010
00000000
00000001
00000000
00001000
00000000
00000010
00000100
00000010
00000100
00000010
00000000
00000000
00000000
,
00010010
00000000
00000100
00010000
00001000
00010000
00000010
00010000
,
00001000
00000000
00100000
00001000
00010000
00001000
01000000
00001000
,
00100000
00001000
00010000
00100000
00000000
01000000
00010000
01000000
,
00000000
00100000
10000000
01000000
00100000
00010000
00100000
00000000
,
00011000
00000000
00000100
00000010
00000001
00001000
00000010
00000000
,
00000100
00000100
00000000
00000010
00001000
00000100
00010000
00000000
,
01100000
00000000
00000000
00000000
10000000
01000000
00000000
00000000
10000000
01000000
00000000
00000000
01000000
00100000
00000000
00000000
,
00100000
00001000
00001000
00001000
00000000
00010000
00001000
00000100
,
00000010
00000000
00000000
00000000
00000100
00000001
00000000
00000000
00000100
00000001
00000000
00000000
00001000
00000010
00000000
00000000
,
00000100
00000010
00001000
00010000
01000000
00100000
01000000
00000000
,
10010000
00000000
00000000
00000000
00100000
00010000
00000000
00000000
00100000
00010000
00000000
00000000
01000000
00010000
00000000
00000000
,
00010000
00100000
00100000
00100000
00000000
00001000
00010000
00000100
,
00001000
00000000
00000000
00000000
00000100
00000010
00000000
00000000
00000100
00000010
00000000
00000000
00000001
00001000
00000000
00000000
,
00000100
00010000
00001000
00100000
00010000
00001000
00010000
01000000
,
00100000
00000000
00000000
00000000
10000000
00100000
00000000
00000000
00100000
01000000
00000000
01000000
00010000
00000000
00000000
00000000
,
00100000
00001000
00100000
00001000
00010000
00001000
00010000
00000100
,
00000010
00000001
00001000
00000000
00000100
00010000
00001000
00000000
,
00010000
00000100
00000010
00000100
00010000
00001000
00010000
00100000
,
01000000
00000000
00000000
00000000
10000000
01000000
00000000
00000000
00010000
01000000
00000000
01000000
00100000
00000000
00000000
00000000
,
01000000
00010000
01000000
00001000
00100000
00001000
00100000
00001000
,
00010000
00000100
00000010
00000000
00000001
00000010
00001000
00000000
,
00000010
00000001
00000010
00000100
00001000
00000100
00000010
00000100
,
00022000
00000000
00000000
00000000
,
00000000
00000000
00000000
00033000
,
00001000
00000000
00010000
00100000
01000000
00010000
10000000
00100000
,
01000000
00000000
00100000
01000000
00100000
00010000
00001000
00000100
,
00000110
00000000
00000000
00000000
;
