#VERSION:0.83;
#TITLE:SIMON SAMURAI;
#SUBTITLE:;
#ARTIST:TIPSY & TIPSY;
#TITLETRANSLIT:;
#SUBTITLETRANSLIT:;
#ARTISTTRANSLIT:;
#GENRE:EUROBEAT;
#ORIGIN:;
#TAGS:;
#CREDIT:YonabearCWY;
#BANNER:SIMON SAMURAI.png;
#BACKGROUND:SIMON SAMURAI-bg.png;
#PREVIEWVID:;
#JACKET:SIMON SAMURAI-jacket.png;
#CDIMAGE:;
#DISCIMAGE:;
#LYRICSPATH:;
#CDTITLE:ASIA Records.png;
#MUSIC:SIMON SAMURAI.ogg;
#OFFSET:-5.980000;
#SAMPLESTART:56.901630;
#SAMPLELENGTH:15.000000;
#SELECTABLE:YES;
#BPMS:0.000000=160.020004
;
#STOPS:;
#DELAYS:;
#WARPS:;
#TIMESIGNATURES:0.000000=4=4
;
#TICKCOUNTS:0.000000=4
;
#COMBOS:0.000000=1
;
#SPEEDS:0.000000=1.000000=0.000000=0
;
#SCROLLS:0.000000=1.000000
;
#FAKES:;
#LABELS:0.000000=Song Start
;
#BGCHANGES:0.000=sakura1.mp4=1.000=1=0=1===CrossFade==,
8.000=film1.mp4=0.900=0=0=1=====,
36.000=ring12.mp4=1.400=0=0=1=====,
40.000=kaliedoscope1.mp4=1.000=0=0=1=====,
48.000=ribbon1.mp4=1.400=0=0=1=====,
56.000=amoeba2.mp4=1.000=0=0=1=====,
68.000=text10.mp4=1.400=0=0=1=====,
72.000=kaliedoscope1.mp4=1.000=0=1=1=StretchRewind====,
80.000=ribbon1.mp4=1.400=0=1=1=StretchRewind====,
88.000=amoeba2.mp4=1.000=0=1=1=StretchRewind====,
96.000=text10.mp4=1.400=0=1=1=StretchRewind====,
103.000=text10.mp4=0.001=0=0=1=====,
104.000=text22.mp4=1.000=0=0=1=====,
112.000=rotation1.mp4=1.400=0=0=1=====,
120.000=ring12.mp4=1.400=0=1=1=StretchRewind====,
128.000=egg5.mp4=1.400=0=0=1=====,
135.000=egg5.mp4=0.001=0=0=1=====,
136.000=ninja2.mp4=0.900=0=0=1=====,
138.000=ninja4.mp4=0.900=0=0=1=====,
140.000=ninja3.mp4=0.900=0=0=1=====,
144.000=magic1.mp4=1.400=0=0=1=====,
152.000=ninja2.mp4=0.900=0=1=1=StretchRewind====,
154.000=ninja4.mp4=0.900=0=0=1=====,
156.000=ninja3.mp4=0.900=0=1=1=StretchRewind====,
160.000=heart11.mp4=1.400=0=0=1=====,
168.000=ninja2.mp4=0.900=0=1=1=StretchRewind====,
169.000=ninja2.mp4=0.001=0=0=1=====,
170.000=ninja3.mp4=0.900=0=1=1=StretchRewind====,
171.000=ninja3.mp4=0.001=0=0=1=====,
172.000=ninja4.mp4=0.900=0=0=1=====,
176.000=ribbon1.mp4=1.400=0=1=1=StretchRewind====,
184.000=ninja2.mp4=0.900=0=1=1=StretchRewind====,
186.000=ninja4.mp4=0.900=0=0=1=====,
188.000=ninja3.mp4=0.900=0=1=1=StretchRewind====,
192.000=star1.mp4=1.400=0=0=1=====,
200.000=film1.mp4=0.900=0=1=1=StretchRewind====,
228.000=heart11.mp4=1.400=0=1=1=StretchRewind====,
232.000=SIMON SAMURAI-bg.png=1.000=0=0=1=====,
99999=-nosongbg-=1.000=0=0=0 // don't automatically add -songbackground-
;
#KEYSOUNDS:;
#ATTACKS:
;

//---------------dance-single - ----------------
#NOTEDATA:;
#CHARTNAME:BEGINNER;
#CHARTHASH:1161685726;
#STEPSTYPE:dance-single;
#BANNER:;
#DESCRIPTION:;
#CHARTSTYLE:;
#DIFFICULTY:Beginner;
#METER:4;
#METERF:4.000000;
#LASTSECONDHINT:94.093987;
#RADARVALUES:0.000000,0.000000,0.000000,0.000000,0.000000,0.000000,0.000000,0.000000,0.000000,0.000000,0.000000,0.000000,0.000000,0.000000,0.000000,0.000000,0.000000,0.000000,0.000000,0.000000,0.000000,0.000000,0.000000,0.000000,0.000000,0.000000,0.000000,0.000000;
#CREDIT:YonabearCWY;
#NOTES:
0000
0000
0000
0000
,
0000
0000
0000
0000
,
1000
0000
1000
1000
,
1000
0000
1000
0000
,
0001
0000
0001
0001
,
0001
0000
0001
0000
,
1000
0000
1000
1000
,
1000
0000
1000
0000
,
0001
0000
0001
0001
,
2002
0000
0000
3003
,
0000
0010
0010
0000
,
0000
0100
0100
0000
,
0000
0010
0010
0000
,
0000
0100
0100
0000
,
0001
0001
0001
0000
,
1000
1000
1000
0000
,
0001
0001
1000
1000
,
0220
0000
0330
0000
,
1000
1000
1000
0000
,
0001
0001
0001
0000
,
0100
0100
0100
0000
,
0010
0010
0010
0000
,
1000
0000
1000
0000
,
0001
0000
0001
0000
,
0100
0100
0010
0010
,
2002
0000
3003
0000
,
0010
0010
0010
0000
,
0100
0000
0000
0100
0000
0000
0000
0000
,
0010
0010
0010
0000
,
0100
0000
0100
0000
,
0001
0001
0001
0000
,
1000
0000
0000
1000
0000
0000
0000
0000
,
0001
0001
0001
0001
,
2002
0000
3003
0000
,
0100
0000
0100
0000
,
0100
0000
0000
0000
,
0010
0000
0010
0000
,
0010
0000
0000
0000
,
1000
0000
1000
0000
,
1000
0000
0000
0000
,
0001
0000
0001
0000
,
0001
0000
0000
0000
,
0100
0000
0100
0000
,
0100
0000
0000
0000
,
0010
0000
0010
0000
,
0010
0000
0000
0000
,
1000
0000
1000
0000
,
1000
0000
0000
0000
,
0001
0000
0001
0000
,
0001
0000
0000
0000
,
1000
0000
1000
0000
,
1000
1000
1000
0000
,
0001
0000
0001
0000
,
0001
0001
0001
0000
,
0100
0000
0100
0000
,
0100
0100
0100
0000
,
0010
0000
0010
0000
,
0010
0010
0100
0100
,
2002
0000
0000
3003
;

//---------------dance-single - ----------------
#NOTEDATA:;
#CHARTNAME:EXPERT;
#CHARTHASH:1892972431;
#STEPSTYPE:dance-single;
#BANNER:;
#DESCRIPTION:;
#CHARTSTYLE:;
#DIFFICULTY:Hard;
#METER:13;
#METERF:13.000000;
#LASTSECONDHINT:94.281464;
#RADARVALUES:0.657723,0.676124,0.313201,0.292321,0.292321,441.000000,411.000000,30.000000,28.000000,0.000000,0.000000,0.000000,0.000000,0.000000,0.657723,0.676124,0.313201,0.292321,0.292321,441.000000,411.000000,30.000000,28.000000,0.000000,0.000000,0.000000,0.000000,0.000000;
#CREDIT:YonabearCWY;
#NOTES:
// measure 0
2002
0000
0000
0000
,  // measure 1
0000
3003
0000
0110
,  // measure 2
1000
0010
1000
0010
1000
0000
0001
0100
0000
0100
0001
0000
0010
0000
0100
0000
,  // measure 3
0010
0001
0000
0001
0010
0000
0001
1000
0000
1000
0001
0000
0100
0000
0010
0000
,  // measure 4
0100
0001
0100
0001
0100
0000
0010
1000
0000
1000
0010
0000
1000
0000
0001
0000
,  // measure 5
0010
0000
0100
1000
0000
1000
0010
0000
0100
0010
0000
0010
0001
0000
0010
0000
,  // measure 6
0100
0001
0100
0001
1000
0000
0010
1000
0000
1000
0100
0000
0010
0000
0001
0000
,  // measure 7
1000
0010
0000
0010
0100
0000
0100
0001
0000
0001
0010
0000
0100
0000
0010
0000
,  // measure 8
0100
0000
1000
0001
1000
0000
0010
0000
0100
0001
0100
0000
0010
0000
1000
0000
,  // measure 9
0001
0010
0100
1000
0010
0100
0001
1000
,  // measure 10
1100
0000
0010
0001
0100
0000
0010
0000
,  // measure 11
1001
0000
0100
1000
0010
0000
0100
0000
,  // measure 12
0010
0100
0010
0001
0010
0000
0100
0001
,  // measure 13
1000
0000
0100
0010
0100
1000
0100
0000
,  // measure 14
2001
0100
0010
3100
,  // measure 15
1020
0100
0001
0130
,  // measure 16
0010
0010
0100
0001
1000
1000
0100
0010
,  // measure 17
1002
0100
0000
0010
0000
0100
0103
0000
,  // measure 18
0011
0000
1000
0010
0100
0000
0001
0000
,  // measure 19
0110
0000
0001
1000
0010
0000
1000
0000
,  // measure 20
0001
0100
1000
0100
0001
0100
0010
0000
,  // measure 21
1000
0010
0001
0010
1000
0010
0100
0100
,  // measure 22
1002
0010
0100
0013
,  // measure 23
1200
0001
1000
0301
,  // measure 24
0100
1000
1000
0010
0100
0001
0001
0100
,  // measure 25
0110
0000
0000
1000
0000
0001
0100
0000
0010
0000
0010
0000
2001
0000
0000
0000
,  // measure 26
3100
1000
0100
0010
1000
0010
0001
0100
,  // measure 27
0202
0000
0303
2001
0000
0010
3010
0000
,  // measure 28
0100
0001
0010
0100
1000
0010
0001
0010
,  // measure 29
0100
0010
1000
0100
0001
0100
0010
0001
,  // measure 30
1000
0010
0100
1000
0100
0001
0010
0000
,  // measure 31
2200
0000
3300
1002
0000
0000
0013
0000
,  // measure 32
0001
0010
1000
0010
0100
1000
0001
0010
,  // measure 33
1200
0000
1000
0000
0000
0000
0301
0000
0000
0000
0100
0010
0100
0000
0000
0000
,  // measure 34
0011
0001
1000
0000
1100
1000
0001
0000
,  // measure 35
0100
0100
0010
0010
1000
0100
0100
0000
,  // measure 36
0010
0001
1000
0010
0001
0010
1000
0001
,  // measure 37
0100
0010
0010
0100
0001
0001
1000
0000
,  // measure 38
1010
0010
0001
0000
0110
0100
1000
0000
,  // measure 39
0100
0100
0010
0010
0100
0001
0001
1000
,  // measure 40
0200
0000
1300
0020
0001
0000
0031
0010
,  // measure 41
1000
0100
0010
0001
0100
0010
1001
0000
,  // measure 42
0220
0330
2002
3003
,  // measure 43
1000
0100
0010
0001
0202
0000
0303
0000
,  // measure 44
0010
0100
1000
0001
0100
1000
0100
0100
,  // measure 45
0010
1000
0001
0100
1000
0100
0010
0010
,  // measure 46
1100
0100
0001
0000
0110
0100
1000
0000
,  // measure 47
0001
0010
0010
0100
1000
0010
0100
0001
,  // measure 48
2000
0000
3001
0200
1000
0000
1300
0100
,  // measure 49
0001
0010
0000
0110
0000
0001
2000
0000
,  // measure 50
3010
0100
0010
0100
0010
0000
1000
0001
0000
0001
0010
0000
0100
0000
0001
0000
,  // measure 51
0100
1000
0000
1000
0010
0000
0100
0000
0001
0010
0000
0010
0100
0000
0010
0000
,  // measure 52
0001
1000
0001
1000
0001
0000
0010
0100
0000
0100
0001
0000
0010
0000
0001
0000
,  // measure 53
1000
0000
0010
1000
0000
1000
0100
0000
0010
0001
0000
0001
0100
0000
0010
0000
,  // measure 54
1000
0100
1000
0100
0010
0000
0001
0100
0000
0100
0010
0000
1000
0000
0001
0000
,  // measure 55
0010
0000
0100
1000
0000
1000
0001
0000
0100
0000
0010
0100
0010
0000
1000
0000
,  // measure 56
0010
0000
0100
0001
0000
0001
0010
0000
0100
1000
0000
1000
0010
0000
0100
0000
,  // measure 57
0001
1000
0100
0010
0001
0100
0010
2002
,  // measure 58
0000
0000
0000
0000
0000
0000
0000
3003
;

//---------------dance-single - ----------------
#NOTEDATA:;
#CHARTNAME:BASIC;
#CHARTHASH:3139085076;
#STEPSTYPE:dance-single;
#BANNER:;
#DESCRIPTION:;
#CHARTSTYLE:;
#DIFFICULTY:Easy;
#METER:7;
#METERF:7.000000;
#LASTSECONDHINT:94.093987;
#RADARVALUES:0.000000,0.000000,0.000000,0.000000,0.000000,0.000000,0.000000,0.000000,0.000000,0.000000,0.000000,0.000000,0.000000,0.000000,0.000000,0.000000,0.000000,0.000000,0.000000,0.000000,0.000000,0.000000,0.000000,0.000000,0.000000,0.000000,0.000000,0.000000;
#CREDIT:YonabearCWY;
#NOTES:
0000
0000
0000
0000
,
0000
0000
0000
0110
,
1000
1000
1000
0000
,
0001
0001
0001
1000
,
0001
0001
0001
0000
,
1000
1000
1000
0001
,
0100
0100
0100
0000
,
0010
0010
0010
0000
,
0100
0000
0100
0000
,
0010
1000
0001
0100
,
1001
0010
0010
0000
,
1001
0100
0100
0000
,
0110
1000
1000
0000
,
0110
0001
0001
0000
,
0201
1000
0010
1000
,
0320
0100
0001
0130
,
2002
3003
0220
0330
,
1001
0000
0000
0100
0000
0010
0000
0000
,
0100
0100
1010
0100
,
0010
0010
0101
0010
,
0001
0001
1100
0010
,
0100
0100
0011
1000
,
0002
0100
1000
0100
,
2003
0001
0100
0001
,
3020
1000
2030
3100
,
0120
0000
0000
0000
0031
1000
0001
0000
,
0100
0100
0100
0010
,
1010
0000
0000
1001
0000
0001
0010
0000
,
0001
0100
0010
1000
,
0200
0000
0310
0001
,
0100
1000
0100
0001
,
0011
0000
0000
1001
0000
1000
0100
0000
,
1000
0010
0100
0010
,
1002
0000
0000
0000
0013
0100
0010
0000
,
1100
0000
1100
0000
,
0010
0100
0001
0010
,
0001
0001
1000
1000
,
0010
0100
0001
0100
,
0101
0000
0101
0000
,
0010
0100
1000
0100
,
0010
0010
0100
0100
,
0001
0001
1000
1000
,
0110
0000
1001
0000
,
0110
1001
0110
0000
,
1000
0100
0010
0001
,
0100
0010
0100
0001
,
0101
0000
1010
0000
,
1100
0100
0010
0001
,
0100
0100
0010
0010
,
1000
0001
0010
0100
,
1100
0000
1000
0010
,
0100
0000
0100
0000
,
0011
0000
0001
0100
,
0010
0000
0100
0000
,
0110
0000
0001
1000
,
0001
0000
1000
0000
,
0100
0000
0010
0000
,
0001
0000
0010
0000
0100
0000
2000
0002
,
0000
0000
0000
3003
;

//---------------dance-single - ----------------
#NOTEDATA:;
#CHARTNAME:DIFFICULT;
#CHARTHASH:3731472674;
#STEPSTYPE:dance-single;
#BANNER:;
#DESCRIPTION:;
#CHARTSTYLE:;
#DIFFICULTY:Medium;
#METER:10;
#METERF:10.000000;
#LASTSECONDHINT:94.093987;
#RADARVALUES:0.000000,0.000000,0.000000,0.000000,0.000000,0.000000,0.000000,0.000000,0.000000,0.000000,0.000000,0.000000,0.000000,0.000000,0.000000,0.000000,0.000000,0.000000,0.000000,0.000000,0.000000,0.000000,0.000000,0.000000,0.000000,0.000000,0.000000,0.000000;
#CREDIT:YonabearCWY;
#NOTES:
0000
0000
0000
0000
,
0000
0000
0000
0110
,
1000
0010
1000
0100
1000
0001
1000
0000
,
0010
0000
0000
0100
0000
0000
0001
0000
0000
0010
0000
0000
0001
0000
0100
0000
,
0010
1000
0010
0001
0010
0100
0010
0000
,
0100
0000
0000
0001
0000
0000
1000
0000
0000
0100
0000
0000
0010
0000
0001
0000
,
1000
0001
0100
0001
0010
0001
1000
0000
,
0100
0000
0000
0010
0000
0000
0100
0000
0000
1000
0000
0000
0001
0000
0100
0000
,
0010
0000
0000
1000
0000
0000
0001
0000
0000
0100
0000
0000
0001
0000
0010
0000
,
0100
1000
0001
0100
0010
1000
0100
0010
,
1001
0000
0110
0000
1000
0100
1000
0000
,
0010
0000
0010
0000
0100
0001
0100
0000
,
0011
0000
1100
0000
0001
0100
0001
0000
,
0100
0000
0100
0000
0010
1000
0001
0010
,
0200
1000
0001
1000
,
0320
0001
1000
0031
,
0010
0001
0100
0000
0010
1000
0100
0000
,
2002
0000
0000
3003
,
0010
0100
1000
0100
0010
0000
0100
0000
,
0010
0100
0001
0100
0010
0000
1000
0010
,
0001
0010
1000
0010
0001
0000
0010
0000
,
0100
0001
0100
1000
0100
0000
0010
0100
,
0002
0010
1000
0010
,
2003
0001
0100
3001
,
0100
0010
1000
0000
0010
0100
0001
0000
,
0220
0000
0330
1001
,
0010
0001
0100
0000
0010
1000
0100
0000
,
1100
0000
1000
0010
0000
0100
0001
0000
,
0010
0100
1000
0001
0010
0100
0010
0001
,
1000
0010
0100
0001
,
0010
0001
1000
0000
0010
0100
1000
0000
,
0101
0000
0010
0100
0000
0100
0001
0000
,
1000
0010
0001
0010
1000
0001
0100
0001
,
1000
0100
0001
0100
1000
0010
0110
0000
,
0101
1000
0101
1000
,
0010
1000
0100
0010
0001
1000
0001
0000
,
0110
1000
0110
0001
,
0010
0100
1000
0001
1000
1000
1000
0000
,
1100
0001
1100
0001
,
0100
0001
0010
0100
1000
0010
0100
0001
,
0020
0000
0001
0001
0001
0000
1000
1000
,
1000
0000
0100
0100
0130
0000
0010
0000
,
2002
3003
0220
0330
,
0001
0010
0100
1000
1001
0000
0110
0000
,
1001
0010
1001
0100
,
0001
0100
1000
0100
0001
0001
0001
0000
,
0011
1000
0011
1000
,
0010
0001
0100
0001
1000
0000
0010
1000
,
0200
0000
0010
0010
0010
0000
0001
0001
,
0001
0000
1000
1000
1300
0000
0110
0000
,
0001
0010
0100
0010
0001
0010
0100
1000
,
0001
0000
0000
0100
0000
0000
0010
0000
0000
1000
0000
0000
0010
0000
0100
0000
,
0001
1000
0010
1000
0100
0010
0001
0100
,
0001
0000
0000
1000
0000
0000
0100
0000
0000
0010
0000
0000
0100
0000
0010
0000
,
0100
1000
0001
0100
0010
0100
0001
1000
,
0010
0000
0000
0100
0000
0000
0001
0000
0000
0010
0000
0000
0100
0000
0010
0000
,
0100
0000
0000
0010
0000
0000
1000
0000
0000
0100
0000
0000
0010
0000
0001
0000
,
1000
0100
0010
0001
0100
0010
1000
2002
,
0000
0000
0000
3003
;

//---------------dance-double - ----------------
#NOTEDATA:;
#CHARTNAME:BASIC;
#CHARTHASH:936974655;
#STEPSTYPE:dance-double;
#BANNER:;
#DESCRIPTION:;
#CHARTSTYLE:;
#DIFFICULTY:Easy;
#METER:7;
#METERF:7.000000;
#LASTSECONDHINT:94.093987;
#RADARVALUES:0.000000,0.000000,0.000000,0.000000,0.000000,0.000000,0.000000,0.000000,0.000000,0.000000,0.000000,0.000000,0.000000,0.000000,0.000000,0.000000,0.000000,0.000000,0.000000,0.000000,0.000000,0.000000,0.000000,0.000000,0.000000,0.000000,0.000000,0.000000;
#CREDIT:YonabearCWY;
#NOTES:
00000000
00000000
00000000
00000000
,
00000000
00000000
00000000
00011000
,
00000100
00000010
00000001
00001000
,
00000010
00000000
00000000
00000010
00000000
00000000
00000010
00000000
,
00001000
00000100
00010000
00001000
,
00100000
00000000
00000000
00100000
00000000
00000000
00100000
00000000
,
00010000
10000000
01000000
00100000
,
00001000
00000000
00000000
00001000
00000000
00000000
00010000
00000000
,
00001000
00000100
00000010
00001000
,
00022000
00000000
00000000
00033000
,
00100000
00100000
00100000
00000000
,
00100000
00100000
00100000
00000000
,
01000000
01000000
01000000
00000000
,
01000000
01000000
01000000
00000000
,
00010000
00100000
00001000
00010000
,
00000100
00000010
00000001
00001000
,
00002020
00003030
00022000
00033000
,
02200000
00000000
00000000
03300000
,
10000000
10000000
10000000
00000000
,
00010000
00010000
00010000
00000000
,
01000000
01000000
01000000
00000000
,
00100000
00100000
00100000
00000000
,
01000000
00001000
00010000
00001000
,
00000100
00000010
00001000
00000001
,
00000022
00000033
00002200
00003300
,
00022000
00000000
00000000
00033000
,
00100000
00100000
00010000
00010000
,
01010000
00000000
00000000
10010000
00000000
00000000
10000000
00000000
,
01000000
00100000
00010000
00100000
,
00001000
00010000
00000100
00000010
,
00000001
00001000
00000010
00000100
,
00000110
00000000
00000000
00000011
00000000
00000000
00000100
00000000
,
00000010
00001000
00000100
00010000
,
00022000
00000000
00000000
00033000
,
00100000
00000000
00100000
00000000
,
01000000
01000000
10010000
00000000
,
00100000
00000000
00100000
00000000
,
00001000
00001000
00010000
00010000
,
00000100
00000000
00000100
00000000
,
00001000
00000000
00001000
00000000
00000110
00000000
00000001
00001000
,
00000002
00000000
00000100
00000000
,
00000100
00000000
00000103
00000000
,
00002020
00003030
00022000
00033000
,
01010000
01100000
20020000
30030000
,
00100000
00000000
00100000
00000000
,
01000000
01000000
00001000
00000000
,
00010000
00000000
00010000
00000000
,
00000100
00000100
00001000
00000100
,
00000022
00000033
00002200
00003300
,
00022000
00033000
02200000
03300000
,
10000000
00000000
10000000
00000000
,
00010000
00010000
00010000
00000000
,
00100000
00000000
00100000
00000000
,
00001000
00001000
00001000
00000000
,
00010000
00000000
00010000
00000000
,
00000100
00000100
00000100
00000000
,
00000010
00000000
00000010
00000000
,
00000001
00000010
00000100
00001000
,
00022000
00000000
00000000
00033000
;

//---------------dance-double - ----------------
#NOTEDATA:;
#CHARTNAME:DIFFICULT;
#CHARTHASH:3118440710;
#STEPSTYPE:dance-double;
#BANNER:;
#DESCRIPTION:;
#CHARTSTYLE:;
#DIFFICULTY:Medium;
#METER:10;
#METERF:10.000000;
#LASTSECONDHINT:94.093987;
#RADARVALUES:0.000000,0.000000,0.000000,0.000000,0.000000,0.000000,0.000000,0.000000,0.000000,0.000000,0.000000,0.000000,0.000000,0.000000,0.000000,0.000000,0.000000,0.000000,0.000000,0.000000,0.000000,0.000000,0.000000,0.000000,0.000000,0.000000,0.000000,0.000000;
#CREDIT:YonabearCWY;
#NOTES:
00000000
00000000
00000000
00000000
,
00000000
00000000
00000000
00011000
,
00100000
00010000
01000000
10000000
01000000
00010000
00100000
00000000
,
00001000
00000000
00000000
00010000
00000000
00000000
00000100
00000000
00000000
00000010
00000000
00000000
00000001
00000000
00001000
00000000
,
00000100
00001000
00000010
00000001
00000010
00001000
00000100
00001000
,
00000010
00000000
00000000
00010000
00000000
00000000
00000100
00000000
00000000
00010000
00000000
00000000
00001000
00000000
00100000
00000000
,
00010000
01000000
00100000
00000000
10000000
00000000
01000000
00100000
,
00001000
00000000
00000000
00010000
00000000
00000000
00000100
00000000
00000000
00000010
00000000
00000000
00000001
00000000
00000010
00000000
,
00001000
00000000
00000000
00000011
00000000
00000000
00000100
00000000
00000000
00001010
00000000
00000000
00000010
00000000
00010000
00000000
,
00001000
00000000
00010000
00001000
00100000
00000000
00010000
01000000
,
00100000
00000000
00100000
00000000
01000000
00000000
00100000
10000000
,
01000000
00000000
01000000
00000000
00100000
00000000
00001000
00010000
,
00000100
00000000
00000100
00000000
00001000
00000000
00000010
00000100
,
00000001
00000000
00000001
00000000
00000010
00000000
00000100
00001000
,
00010000
00100000
00020000
00000000
00130000
01000000
00200000
00000000
,
01300000
10000000
02000000
00000000
13000000
00010000
20000000
00000000
,
30100000
10000000
00100000
01000000
,
00021000
00000000
00000000
00001000
00000000
00031000
00000000
00000000
,
00000100
00001000
00000010
00001000
00000100
00001000
00000001
00000000
,
00001000
00000010
00010000
00000010
00001000
00000010
00010000
00000000
,
00001000
00100000
00001000
00010000
00001000
00100000
00001000
00000000
,
00100000
00010000
10000000
00010000
01000000
00010000
10000000
00000000
,
01000000
00010000
02000000
00000000
03010000
00001000
00020000
00000000
,
00030010
00001000
00000020
00000000
00000130
00000001
00000200
00000000
,
00000310
00001000
00000100
00010000
,
00022000
00000000
00000000
00033000
,
01000000
00100000
00010000
00100000
01000000
00000000
00100000
00000000
,
11000000
00000000
00000000
10020000
00000000
00100000
00130000
00000000
,
00001000
00010000
00000100
00000000
00001000
00000100
00000010
00000000
,
00000001
00000010
00000100
00001000
00000001
00000000
00000100
00000010
,
00001000
00000010
00010000
00000100
00010000
00000000
00001000
00000000
,
00011000
00000000
00000000
00201000
00000000
00000000
00310000
00000000
,
01000000
00100000
00010000
00000000
00100000
01000000
10000000
00000000
,
02002000
00000000
03003000
00000000
,
00011000
00100000
00011000
00000100
,
00010000
00001000
00000100
00000010
00000100
00001000
00000100
00000000
,
00000001
00000010
00001000
00010000
,
00001000
00100000
00010000
01000000
00100000
00010000
00001000
00000000
,
00011000
00000010
00011000
01000000
,
00001000
00010000
00100000
01000000
00100000
10000000
00100000
01000000
,
00020000
00000000
00130000
00001000
00010000
00000100
00002000
00000000
,
00003010
00001000
00000100
00000010
00000002
00000000
00000103
00000000
,
00002002
00003003
00022000
00033000
,
01100000
10010000
02200000
03300000
,
10000000
01000000
00100000
00000000
00001000
00000000
00010000
00000000
,
00000100
00001000
00000010
00000000
00000100
00000000
00000001
00000000
,
00000110
00010000
00011000
00001000
,
01100000
00000000
01000000
10000000
00010000
00000000
00100000
01000000
,
20000000
00000000
30100000
01000000
00002000
00000000
00103000
00001000
,
00020000
00000000
00030100
00001000
00000100
00000010
00000001
00000000
,
00001000
00000010
00001000
00000100
00000010
00000100
00001000
00000010
,
00001000
00000000
00000000
00000100
00000000
00000000
00010000
00000000
00000000
00001000
00000000
00000000
00010000
00000000
00001000
00000000
,
00100000
00010000
01000000
00010000
10000000
00010000
01000000
00010000
,
00100000
00000000
00000000
00010000
00000000
00000000
01000000
00000000
00000000
00100000
00000000
00000000
00010000
00000000
00001000
00000000
,
00100000
00001000
00010000
00000100
00010000
00001000
00010000
00000100
,
00000010
00000000
00000000
00000001
00000000
00000000
00000100
00000000
00000000
00000010
00000000
00000000
00001000
00000000
00000100
00000000
,
00010000
00000000
00000000
00011000
00000000
00000000
00001000
00000000
00000000
00101000
00000000
00000000
00100000
00000000
00010000
00000000
,
10000000
00000000
01000000
00000000
00100000
00001000
00010000
00000000
,
00000220
00000000
00000000
00000330
;

//---------------dance-double - ----------------
#NOTEDATA:;
#CHARTNAME:EXPERT;
#CHARTHASH:1104789922;
#STEPSTYPE:dance-double;
#BANNER:;
#DESCRIPTION:;
#CHARTSTYLE:;
#DIFFICULTY:Hard;
#METER:13;
#METERF:13.000000;
#LASTSECONDHINT:94.093987;
#RADARVALUES:0.000000,0.000000,0.000000,0.000000,0.000000,0.000000,0.000000,0.000000,0.000000,0.000000,0.000000,0.000000,0.000000,0.000000,0.000000,0.000000,0.000000,0.000000,0.000000,0.000000,0.000000,0.000000,0.000000,0.000000,0.000000,0.000000,0.000000,0.000000;
#CREDIT:YonabearCWY;
#NOTES:
00022000
00000000
00000000
00000000
,
00000000
00000000
00033000
00000110
,
00000001
00000010
00000001
00000000
00001000
00000000
00000010
00000000
00001000
00000000
00000100
00000000
00010000
00000000
00000100
00000000
,
00010000
00001000
00000000
00100000
00000000
00000000
00010000
01000000
00000000
00100000
00000000
00000000
10000000
00000000
01000000
00000000
,
00100000
01000000
00100000
00000000
01000000
00000000
10000000
00010000
00000000
00010000
00100000
00000000
00001000
00000000
00010000
00000000
,
00000100
00010000
00000100
00000010
00000100
00001000
00000010
00000100
,
00000010
00001000
00000010
00000000
00000100
00000000
00000010
00000001
00000010
00000000
00000100
00000000
00000001
00000000
00001000
00000000
,
00000010
00001000
00000000
00000100
00000000
00000000
00010000
00001000
00000000
00100000
00000000
00010000
01000000
00000000
00100000
00000000
,
10000000
00000000
01000000
10000000
00000000
10000000
00010000
00000000
01000000
00010000
00000000
00010000
00100000
00000000
00001000
00000000
,
00010000
00001000
00010000
00000000
00000100
00000000
00001000
00000000
00000010
00000001
00000010
00000000
00001000
00000000
00000010
00000100
,
00000010
00000000
00001000
00000100
00010000
00000000
00001000
00000000
,
00101000
00000000
01000000
10000000
00010000
00000000
01100000
00000000
,
00010000
10000000
00100000
01000000
10000000
01000000
00100000
00000000
,
01000000
00010000
00100000
00001000
00000100
00001000
00010000
00000100
,
00000020
00000001
00001000
00000001
,
00000230
00000010
00010000
00000310
,
00000100
00001000
00000100
00010000
00001000
00100000
00001000
00010000
,
00100000
00000000
01000000
00100000
01000000
00000000
00010000
00000000
10000000
00000000
10000000
00000000
10000000
00000000
00000000
00000000
,
00100000
01000000
00010000
00001000
00010000
01000000
00010000
00000000
,
00100000
00010000
00001000
00000100
00001000
00010000
00001000
00000000
,
00000010
00001000
00000100
00000010
00000001
00000010
00000100
00000000
,
00001000
00000100
00010000
00000100
00001000
00010000
00100000
00010000
,
00200000
10000000
00010000
10000000
,
02300000
00001000
00100000
03001000
,
01000000
00100000
00010000
00100000
00001000
00010000
00001000
00010000
,
00000100
00000000
00000010
00000001
00000000
00000001
00001000
00000000
00000010
00000000
00000010
00000000
00000110
00000000
00000000
00000000
,
00010100
00011000
00101000
01100000
,
10000000
00010000
00100000
00010000
00010000
01000000
00010000
00100000
,
10000000
00100000
01000000
00100000
00010000
00001000
00000100
00001000
,
00000020
00000000
00000000
00000000
00000130
00000000
00000001
00000000
00000010
00000100
00000000
00000100
00001000
00000000
00000010
00000000
,
00010000
00000100
00001000
00000100
00010000
00000000
00011000
00000000
,
00100000
00010000
00001000
00010000
01000000
00010000
00100000
01000000
,
10000000
00010000
20010000
00000000
30100000
01000000
01020000
00000000
,
00130000
00000000
00000000
00001000
00000000
00010000
00000100
00000000
00001000
00000000
00000010
00000000
00000110
00000000
00000000
00000000
,
00001001
00001000
00000010
00000000
00001001
00000001
00000100
00000000
,
00000010
00000010
00001000
00001000
00000100
00010000
00001000
00010000
,
00100000
00000000
01000000
00000000
00100000
10000000
00100000
00000000
01000000
00000000
00010000
00000000
01000000
00100000
01000000
00000000
,
00010000
00100000
01000000
10000000
01000000
00100000
00100000
00000000
,
01100000
01000000
10000000
00000000
01100000
00100000
00010000
00000000
,
00100000
00001000
00010000
00001000
00100000
00001000
00010000
00001000
,
00000200
00000000
00000310
00000100
00000002
00000000
00001003
00000010
,
00000200
00000000
00000000
00000000
00000310
00000000
00010000
00000000
00001000
00010000
00001000
00010000
00001000
00000000
00000000
00000000
,
02200000
03300000
20020000
30030000
,
01000000
00000000
00010000
00000000
00001000
00000000
00010000
00000000
00100000
00000000
00001000
00000000
00010000
00001000
00010000
00001000
,
00010000
00000100
00000010
00000100
00010000
00000010
00001000
00000010
,
00000100
00000000
00000001
00000000
00001000
00000000
00000100
00000000
00000010
00000000
00000100
00001000
00000100
00000000
00000000
00000000
,
00000110
00000010
00001000
00000000
00001001
00000001
00000100
00000000
,
00000010
00000010
00001000
00001000
00000010
00000100
00001000
00010000
,
00001000
00100000
00020000
00000000
10030000
01000000
00200000
00000000
,
00310000
01000000
00100000
10000000
01000000
00100000
10010000
00000000
,
00100000
01000000
00100000
00000000
01000000
00000000
00010000
00100000
00001000
00000000
00100000
00000000
00001000
00000000
00010000
00000000
,
00000100
00000000
00000000
00000010
00000001
00000000
00000100
00000000
00000000
00000010
00001000
00000000
00000001
00000000
00000010
00000000
,
00000100
00001000
00000100
00000000
00010000
00000000
00001000
00100000
00010000
00000000
01000000
00000000
00100000
00000000
01000000
00000000
,
10000000
00000000
00100000
01000000
00000000
00000000
00010000
00000000
01000000
00010000
00000000
00010000
00100000
00000000
00001000
00000000
,
00010000
00000100
00010000
00000000
00000100
00000000
00001000
00000010
00001000
00000000
00000010
00000000
00000100
00000000
00000001
00000000
,
00000010
00000100
00000000
00001000
00000000
00000000
00010000
00100000
00000000
01000000
00000000
00100000
10000000
00000000
00100000
00000000
,
00010000
00000000
01000000
00100000
00000000
00100000
10000000
00000000
00010000
00100000
00000000
00100000
01000000
00000000
00100000
00000000
,
00001000
00010000
00001000
00000000
00010000
00000000
00000100
00000000
00001000
00000001
00001000
00000000
00000010
00000000
00000220
00000000
,
00000000
00000000
00000000
00000330
;
