#TITLE:SA-DA-ME;
#SUBTITLE:;
#ARTIST:good-cool feat. すわひでお;
#TITLETRANSLIT:;
#SUBTITLETRANSLIT:;
#ARTISTTRANSLIT:good-cool feat. Hideo Suwa;
#GENRE:HARD ROCK;
#CREDIT:YonabearCWY;
#BANNER:SA-DA-ME.png;
#BACKGROUND:SA-DA-ME-bg.png;
#LYRICSPATH:;
#CDTITLE:pop'n music.png;
#MUSIC:SA-DA-ME.ogg;
#OFFSET:-9.680000;
#SAMPLESTART:47.187996;
#SAMPLELENGTH:18.750000;
#SELECTABLE:YES;
#BPMS:0.000000=128.000000
;
#STOPS:
;
#BGCHANGES:0.000=SA-DA-ME.mp4=1.000=1=0=0=StretchNoLoop==CrossFade==,
176.000=SA-DA-ME-bg.png=1.000=1=0=1===CrossFade==,
99999=-nosongbg-=1.000=0=0=0 // don't automatically add -songbackground-
;
#KEYSOUNDS:;
#ATTACKS:;

//---------------dance-single - ----------------
#NOTES:
     dance-single:
     BASIC:
     Easy:
     7:
     0.227849,0.243358,0.205799,0.174930,0.015435,155.000000,135.000000,20.000000,17.000000,0.000000,0.000000,0.227849,0.243358,0.205799,0.174930,0.015435,155.000000,135.000000,20.000000,17.000000,0.000000,0.000000:
2020
0000
0000
3030
,
0202
0000
0000
0303
,
0010
0010
0010
1001
,
0100
0100
0100
1001
,
0010
0010
0010
0000
,
0100
0000
0100
0000
,
0010
0010
0010
0010
,
0110
0110
0000
0001
,
0100
0100
0100
0000
,
0010
0000
0010
0000
,
0100
0100
0100
0100
,
0110
0110
0000
1000
,
2010
0000
0000
0001
0000
0000
0100
0000
,
3002
1000
0203
0010
,
0301
0100
2002
3003
,
1000
0010
2002
3000
,
0103
0100
0100
0010
,
0100
0100
0100
0001
,
0010
0010
0010
0100
,
0010
0010
0010
1000
,
0210
0000
0301
1000
,
0120
0000
1030
0010
,
2001
0000
0000
0010
0000
0000
3100
0000
,
1002
0000
0000
0100
0000
0000
0013
0000
,
0001
0100
1000
0100
,
0001
1000
0010
0001
,
0010
1000
0001
1000
,
0001
0001
1000
1000
,
0110
0000
0000
0000
0000
0000
0000
1001
0000
0000
0000
0000
0000
0000
0000
0110
,
0000
0000
0000
0000
0000
0000
0000
1001
0000
0000
0010
0000
0100
0000
0000
0000
,
1000
1000
1000
0000
,
1000
1000
1000
0000
,
0001
0001
0001
0000
,
0001
0001
0001
0000
,
0100
0100
0100
0000
,
0100
0100
0100
0000
,
0010
0010
0010
0000
,
0010
0010
0010
0000
,
0100
0000
0000
1000
0000
0000
0001
0000
,
0100
0000
0000
0001
0000
0000
0010
0000
,
0001
0000
0000
1000
0000
0000
0010
0000
,
1000
0001
1000
0001
,
2002
0000
0000
0000
,
3003
0000
0000
0000
;

//---------------dance-single - ----------------
#NOTES:
     dance-single:
     EXPERT:
     Hard:
     12:
     0.501269,0.486716,0.246959,0.144060,0.324134,341.000000,317.000000,24.000000,14.000000,0.000000,0.000000,0.501269,0.486716,0.246959,0.144060,0.324134,341.000000,317.000000,24.000000,14.000000,0.000000,0.000000:
2010
0000
0010
0000
0010
0000
0000
0001
0000
0000
0100
0000
3100
0000
0000
0000
,
0012
0000
0010
0000
0010
0000
0000
1000
0000
0000
0100
0000
0103
0000
0000
0000
,
0001
1000
1000
0100
0010
1000
1001
0000
,
0010
0000
0100
0000
0010
0000
1000
0001
0000
0000
0100
0000
0001
0010
0001
0000
,
0010
0000
0100
0000
1000
0000
0000
0010
0000
0000
1000
0000
0100
0000
1000
0000
,
0000
0000
0010
0000
0100
0000
0001
0010
0000
0000
0100
0000
0100
0000
0100
0000
,
0010
0000
0001
0000
1000
0000
0000
0010
0000
0100
0001
0000
0010
0000
0001
0000
,
0000
0000
1000
0000
0010
0000
0000
0100
0000
0001
1000
0000
0010
0000
0100
0000
,
0001
0000
0010
0000
0100
0000
0000
1000
0000
0000
0010
0000
0100
0000
0010
0000
,
0000
0000
1000
0000
0100
0000
0010
0001
0000
0000
1000
0000
0010
0000
0000
0000
,
0100
0000
0001
0000
0010
0000
0000
0100
0000
1000
0010
0000
0100
0000
0001
0000
,
0000
0000
0010
0000
0001
0000
0100
0010
0100
0000
0000
0000
1001
0000
0000
0000
,
0020
1000
0000
0100
0000
0001
0000
0130
,
0002
0000
0013
0100
2000
0000
3001
0100
,
0101
0010
1010
0000
2002
0000
3003
0000
,
1100
0000
0100
0000
0011
0000
0000
0000
1000
0001
1000
0001
1000
0010
1000
0010
,
2000
0100
0000
0010
0000
0001
0000
3100
,
0020
0000
0031
0100
2000
0000
3100
0010
,
0100
0001
0001
0010
0010
0100
0100
1000
,
1000
0000
0000
0001
0010
0000
0001
0000
0000
1000
0010
0000
0000
1100
0000
0000
,
1001
0010
0001
0100
0010
1000
1000
0010
,
0100
0001
0010
0001
0011
0000
1100
0000
,
0010
0100
0100
0001
0010
0100
1000
0010
,
0100
0000
0100
0000
0001
0000
0001
0000
0010
0000
0001
0000
1000
0001
0000
0000
,
0100
0000
0010
0000
0001
0000
0010
0000
0100
0000
0010
1000
0010
0000
0100
0000
,
0010
0000
1000
0000
0100
0000
0010
0000
0100
0000
1000
0001
1000
0000
0000
0000
,
0010
0000
0100
0000
0010
0000
0001
0000
0010
0000
0100
0001
0100
0000
0010
0000
,
1000
0000
0010
0000
0100
0001
0000
0001
0100
0000
0010
0000
1001
0000
0000
0000
,
0100
0000
0100
0000
0001
0010
0000
0110
0000
0000
1000
0000
0100
0010
0000
0011
,
0000
0000
0100
0000
0001
1000
0001
1000
0000
0000
0101
0000
1010
0000
0000
0000
,
0120
0000
0100
0000
0100
0000
0000
0001
0000
0000
1000
0000
1030
0000
0000
0000
,
0100
0000
1000
0000
0100
0000
0010
0001
0000
0001
0100
0000
0010
0000
0000
0000
,
1002
0000
0100
0000
0100
0000
0000
1000
0000
0000
0010
0000
0013
0000
0000
0000
,
0100
0000
0001
0000
0010
0000
0100
1000
0100
0000
1000
0000
0010
0000
0100
0000
,
0001
0000
1000
0000
0001
0000
1000
0100
1000
0000
0010
0000
0010
0000
0000
0000
,
0100
0000
0001
0000
0100
0000
0010
1000
0010
0000
1100
0000
0000
1001
0000
0000
,
0011
0000
0100
0000
0001
0000
0010
0001
0010
0000
0100
0000
0100
0000
1000
0000
,
0100
0000
0010
0000
0001
1000
0001
0000
0100
0000
0010
0000
1000
0100
1000
0100
,
0000
0000
0010
0000
0000
0001
0000
0000
0100
0010
0000
0010
1000
0000
1001
0000
,
0100
0000
0001
0000
0000
0010
0000
0000
0100
0000
1000
0100
1000
0000
0010
0000
,
0100
0000
0010
1000
0000
1000
0001
0000
0100
0001
0000
0001
0010
0000
0100
0000
,
1000
0100
0000
0010
0000
0001
0000
0100
0000
0001
0000
1000
0000
0001
1000
0002
,
2000
0000
0000
0000
,
3003
0000
0000
0000
;

//---------------dance-single - ----------------
#NOTES:
     dance-single:
     BEGINNER:
     Beginner:
     3:
     0.129360,0.199111,0.133770,0.123480,0.000000,88.000000,75.000000,13.000000,12.000000,0.000000,0.000000,0.129360,0.199111,0.133770,0.123480,0.000000,88.000000,75.000000,13.000000,12.000000,0.000000,0.000000:
2002
0000
3003
0000
,
0220
0000
0330
0000
,
0010
0000
0010
0000
,
0100
0000
0100
0000
,
0002
0000
0003
0000
,
0001
0001
0001
0000
,
0001
0000
0000
0000
,
1000
0000
1000
0000
,
2000
0000
3000
0000
,
1000
1000
1000
0000
,
1000
0000
0000
0000
,
0001
0000
0001
0000
,
1001
0000
0000
0000
,
0010
0010
0010
0000
,
1001
0000
0000
0000
,
0110
0000
0000
0000
,
0100
0100
0100
0000
,
0100
0000
0000
0000
,
0010
0010
0010
0000
,
0010
0000
0000
0000
,
1000
0000
1000
0000
,
2000
0000
3000
0001
,
0001
0000
0001
0000
,
0002
0000
0003
0000
,
0100
0000
0100
0100
,
0200
0000
0300
0000
,
0010
0000
0010
0010
,
0020
0000
0030
0000
,
0001
0000
0001
0000
,
1000
0000
1001
1001
,
0110
0000
0000
0000
,
0010
0010
0010
0000
,
0010
0000
0000
0000
,
0100
0100
0100
0000
,
0100
0000
0000
0000
,
0001
0001
0001
0000
,
0001
0000
0000
0000
,
1000
1000
1000
0000
,
1001
0000
0000
0000
,
0110
0000
0000
0000
,
1001
0000
0000
0000
,
0110
0000
0000
0000
,
2002
0000
0000
0000
,
3003
0000
0000
0000
;

//---------------dance-single - ----------------
#NOTES:
     dance-single:
     DIFFICULT:
     Medium:
     10:
     0.407189,0.464592,0.329279,0.133770,0.144060,277.000000,245.000000,32.000000,13.000000,0.000000,0.000000,0.407189,0.464592,0.329279,0.133770,0.144060,277.000000,245.000000,32.000000,13.000000,0.000000,0.000000:
2002
0000
0000
3003
,
0220
0000
0000
0330
,
1000
0001
0001
0100
0001
1000
1000
0000
,
0010
0100
0100
0010
1000
0010
0010
0100
,
0001
0000
0010
0000
0001
0000
0000
1000
0000
0000
0010
0000
1000
0000
0010
0000
,
0000
0000
0100
0000
0001
0000
0000
0010
0000
0000
0001
0000
1000
0000
0000
0000
,
0010
0000
1000
0000
0010
0000
0000
1000
0000
0000
0100
0000
0010
0000
0001
0000
,
1000
0000
0010
0000
0100
0001
1001
0000
,
0100
0000
0010
0000
0100
0000
0000
0010
0000
0000
0001
0000
1000
0000
0001
0000
,
0000
0000
1000
0000
0100
0000
0000
0010
0000
0000
0001
0000
0100
0000
1000
0000
,
0000
0000
0100
0000
0010
0000
0000
1000
0000
0000
0001
0000
0100
0000
0001
0000
,
1000
0000
0100
0000
0010
0100
1100
0000
,
2001
0010
0000
0100
0000
3001
0010
0100
,
0020
0001
0230
1000
,
0310
0100
0110
0000
2002
0000
3003
0000
,
0100
0010
0110
0000
2002
0000
0003
0000
,
3010
1000
0100
0010
0001
0100
0010
0000
,
1000
0010
0100
1000
0100
0001
0010
0000
,
1100
0011
0110
1001
,
0100
0000
0001
0000
0100
0000
0000
0000
0010
0000
1000
0000
0000
0110
0000
0000
,
1001
0000
0010
0000
0001
0100
1000
0000
,
0100
0000
0010
1000
0001
0100
1001
0000
,
0010
0000
0001
0000
0100
0000
0000
0010
0000
0000
1000
0000
0010
0000
0100
0000
,
0010
0000
0000
0000
0100
0000
0000
0001
0000
0000
0010
0000
0000
0100
0000
0000
,
1001
0000
0100
0000
0010
0100
1000
0000
,
0010
0100
0001
0010
0001
1000
0110
0000
,
0001
0000
1000
0000
0010
0000
0000
1000
0000
0000
0100
0000
0010
0000
0000
0000
,
0001
0000
0100
0000
0000
0010
0000
0000
1000
0000
0000
0100
0000
0000
0010
0000
,
1001
0100
0010
0000
1000
0010
1000
0000
,
0001
0000
0100
0000
0001
0000
0000
1100
0000
0000
0001
0000
1000
0000
0000
0000
,
0010
0000
0010
0000
0010
0000
0000
1000
0000
0000
0001
0000
0100
0000
0000
0000
,
0010
0000
0010
0000
0010
0000
0000
1001
0000
0000
0100
0000
1000
0000
0000
0000
,
0100
0000
0100
0000
0100
0000
0000
1000
0000
0000
0001
0000
0010
0000
0000
0000
,
0100
0000
0100
0000
0100
0000
0000
1001
0000
0000
0010
0000
0001
0000
0000
0000
,
0100
0001
0001
1000
0010
1000
1000
0000
,
0010
0100
0100
0001
0010
0001
0001
0000
,
1000
0100
0010
0001
0100
0010
1000
0001
,
0010
0100
1000
0001
0100
0100
0010
1001
,
0000
0000
0100
0000
0000
1000
0000
0000
0010
0000
0000
0000
0100
0000
0001
0000
,
0010
0000
0011
0000
0000
0001
0000
0000
1001
0000
0000
0000
0100
0000
0010
0000
,
1100
0000
0000
1001
0000
0000
0011
0000
0000
0110
0000
0000
1100
0000
0001
0000
,
0101
0000
0000
0010
0000
1000
0000
0001
0000
1000
0000
0010
0000
0100
0000
0000
,
2002
0000
0000
0000
,
3003
0000
0000
0000
;

//---------------dance-single - ----------------
#NOTES:
     dance-single:
     CHALLENGE:
     Challenge:
     14:
     0.626218,0.730073,0.452759,0.092610,0.627688,426.000000,382.000000,44.000000,9.000000,0.000000,0.000000,0.626218,0.730073,0.452759,0.092610,0.627688,426.000000,382.000000,44.000000,9.000000,0.000000,0.000000:
// measure 0
1010
0000
1000
0000
0100
0000
0000
1000
0000
0001
0100
0000
0001
0000
0010
0000
,  // measure 1
0011
0000
1000
0000
0001
0000
0100
0010
0000
0010
1000
0000
0000
0011
0000
0000
,  // measure 2
0110
0000
0100
0000
1000
0000
0100
0001
0100
0000
1100
0000
0101
0000
0000
0000
,  // measure 3
0010
0000
0100
0000
1000
0000
0001
0100
0001
0100
0001
0000
1000
0010
1000
0000
,  // measure 4
0110
0000
0001
0000
0010
0000
0100
1000
0000
0000
0010
0000
0001
0000
0010
0000
,  // measure 5
0000
0000
1000
0000
0010
0000
0100
0001
0100
0000
0001
0000
0010
0100
0000
0000
,  // measure 6
1100
0000
1000
0000
0001
0000
0100
0001
0000
0000
0010
0000
0100
0000
0010
0000
,  // measure 7
0000
0000
0100
0000
1000
0000
0100
0010
0000
0010
0001
0000
1000
0010
1000
0000
,  // measure 8
1001
0000
0100
0000
0010
0000
0001
0010
0000
0000
0100
0000
0001
0000
0100
0000
,  // measure 9
0000
0000
1000
0000
0100
0000
0010
1000
0010
0000
0100
0000
1000
0001
0000
0000
,  // measure 10
0110
0000
0001
0000
0010
0000
0100
1000
0100
1000
0100
0000
1000
0000
0001
0000
,  // measure 11
0100
0000
0010
0000
1000
0000
0100
1000
0100
0000
0010
0001
0010
0000
0100
0001
,  // measure 12
0200
0000
1000
1000
0000
0010
0010
0000
,  // measure 13
0301
0000
0100
0000
1000
0000
0100
0010
0000
0010
0001
0000
1010
0000
0000
0001
,  // measure 14
0100
0000
0110
0000
2010
0000
0000
0000
0200
0000
0000
0000
3300
0000
0000
0100
,  // measure 15
0010
0000
0011
0000
1002
0000
0000
0000
0013
0001
0010
0001
1000
0010
1000
0010
,  // measure 16
0200
0000
0001
0001
0000
1000
1000
0000
,  // measure 17
0310
0000
0100
0000
0001
0000
1000
0001
1000
0000
0100
0000
0010
0000
0001
1000
,  // measure 18
0001
0000
1000
0010
1000
0000
0100
0001
0100
0000
0010
0001
0010
0000
0001
0100
,  // measure 19
0001
0100
0000
0100
0010
0000
0010
1000
0000
1000
0100
0000
0000
1001
0000
0000
,  // measure 20
0110
0000
0000
1000
0010
0000
0100
0000
0100
0000
0001
0000
0010
0000
0001
0100
,  // measure 21
0010
0000
0100
0000
1000
0000
0100
0000
0001
0100
0000
0010
1000
0010
0000
1000
,  // measure 22
0100
0000
0000
0010
0001
0000
1000
0000
1000
0000
0010
0000
0100
0000
0001
0000
,  // measure 23
0010
0000
0010
0000
0010
0001
0000
1001
0000
0000
1010
0000
0000
0101
0000
0000
,  // measure 24
0110
0000
0000
0001
0010
0000
0100
0000
0100
0000
0010
0000
0100
0000
1000
0100
,  // measure 25
0001
0000
0100
0000
0010
0000
0001
0000
0010
0100
0000
1000
0001
1000
0000
0100
,  // measure 26
1000
0000
0000
0001
0010
0000
0001
0000
0001
0000
0100
0000
0010
0000
1000
0000
,  // measure 27
0100
0000
0100
0000
0100
1000
0000
1010
0000
0010
0100
0000
0000
0101
0000
0002
,  // measure 28
1000
0000
1000
0000
1003
0010
0000
2010
0000
0000
0001
0000
3001
0010
0000
0011
,  // measure 29
0000
0001
0100
0000
0100
0010
0000
1010
0000
0000
1100
0000
0101
0000
0000
0000
,  // measure 30
1001
0000
1000
0000
0010
0000
1000
0100
0000
0100
0010
0000
0000
0001
0100
0000
,  // measure 31
0010
0000
1000
0000
0001
0000
0100
0001
0000
0001
0010
0000
0000
1100
0000
0000
,  // measure 32
0001
0010
0001
0000
1000
0000
0010
1000
0000
1000
0100
0000
0000
0010
0001
0010
,  // measure 33
0100
0000
0010
0000
0100
0000
1000
0010
0000
0010
0100
0000
0000
0011
0000
0000
,  // measure 34
1000
0010
1000
0000
0001
0000
0100
0001
0000
0001
0010
0000
0100
0000
1000
0000
,  // measure 35
0010
0100
0010
0000
1000
0000
0100
0010
0000
0010
0001
0000
0000
0110
0000
0001
,  // measure 36
1000
0001
1000
0000
0010
0000
0100
0001
0000
0001
0010
0000
0100
0000
1000
0000
,  // measure 37
0001
0010
0001
0010
0001
0000
1000
0100
1000
0100
1000
0000
0001
0000
0100
0000
,  // measure 38
0001
0010
0000
0010
0100
0000
0100
1000
0000
1000
0001
0000
0110
0000
0110
0000
,  // measure 39
1000
0100
0010
0100
1000
0000
0001
0100
0010
0100
0001
0000
1010
0000
1010
0000
,  // measure 40
0100
0010
1000
0010
1000
0100
1000
0000
0001
0100
0010
0100
0101
0000
0101
0000
,  // measure 41
0001
1001
0000
1010
0000
0110
0000
1100
0000
1001
0000
0001
0100
0010
1000
0001
,  // measure 42
2002
0000
0000
0000
,  // measure 43
3003
0000
0000
0000
;

//---------------dance-double - ----------------
#NOTES:
     dance-double:
     BASIC:
     Easy:
     6:
     0.214619,0.265481,0.174930,0.082320,0.015435,146.000000,129.000000,17.000000,8.000000,0.000000,0.000000,0.214619,0.265481,0.174930,0.082320,0.015435,146.000000,129.000000,17.000000,8.000000,0.000000,0.000000:
00022000
00000000
00000000
00033000
,
00100000
00100000
00010000
00010000
,
10000000
00000000
10000000
00000000
,
00010000
00000000
00010000
00000000
,
00011000
00001000
00001000
00000000
,
00000100
00000000
00000100
00000000
,
00000010
00000000
00000010
00000000
,
00000001
00000001
00001000
00001000
,
00011000
00010000
00010000
00000000
,
00100000
00000000
00100000
00000000
,
01000000
01000000
10000000
10000000
,
10010000
00000000
01000000
00100000
,
00010000
00001000
00000100
00010000
,
00000100
00001000
00000010
00000100
,
00000010
00000100
00002002
00003003
,
00010000
00001000
00202000
00003000
,
00310000
00100000
01000000
10000000
,
00010000
01000000
00010000
00001000
,
00000100
00000010
00000001
00001000
,
00000110
00000000
00000000
00001001
00000000
00000000
00000010
00000000
,
00000100
00000000
00000100
00000000
,
00000010
00000010
00010000
00010000
,
00001000
00000000
00001000
00000000
,
00010000
00010000
00001000
00001000
,
00100000
00000000
00100000
00000000
,
01000000
01000000
10000000
10000000
,
00100000
00000000
00100000
00000000
,
01000000
01000000
00001000
00001000
,
00011000
00000000
00000000
00000000
00000000
00000000
00000000
00001010
00000000
00000000
00000000
00000000
00000000
00000000
00000000
00010100
,
00000000
00000000
00000000
00000000
00000000
00000000
00000000
00110000
00000000
00000000
00010000
00000000
10000000
00000000
00000000
00000000
,
00100000
00100000
00100000
00000000
,
01000000
01000000
01000000
00000000
,
00001000
00001000
00001000
00000000
,
00010000
00010000
00010000
00000000
,
00000100
00000100
00000100
00000000
,
00000010
00000010
00000010
00000000
,
00001000
00001000
00001000
00000000
,
00010000
00010000
00010000
00000000
,
10010000
00000000
00000000
00100000
00000000
00000000
01000000
00000000
,
00001000
00000000
00000000
00010000
00000000
00000000
00000100
00000000
,
00001000
00000000
00000000
00000110
00000000
00000000
00000001
00000000
,
00000010
00001000
00000110
00000110
,
00002002
00000000
00000000
00000000
,
00003003
00000000
00000000
00000000
;

//---------------dance-double - ----------------
#NOTES:
     dance-double:
     DIFFICULT:
     Medium:
     10:
     0.414539,0.420345,0.339569,0.113190,0.154350,282.000000,249.000000,33.000000,11.000000,0.000000,0.000000,0.414539,0.420345,0.339569,0.113190,0.154350,282.000000,249.000000,33.000000,11.000000,0.000000,0.000000:
00002010
00000000
00000010
00000000
00000010
00000000
00000000
00000100
00000000
00000000
00003100
00000000
00000000
00000000
00000000
00000000
,
00102000
00000000
00100000
00000000
00100000
00000000
00000000
00010000
00000000
00000000
00013000
00000000
00000000
00000000
00000000
00000000
,
00001000
01000000
00001000
00000000
01000000
00100000
01000000
00000000
,
00010000
10000000
00010000
01000000
00010000
00100000
00001000
00000100
,
00000010
00000000
00000010
00000000
00000010
00000000
00000000
00001000
00000000
00000000
00000100
00000000
00000010
00000000
00000001
00000000
,
00000000
00001000
00000010
00000000
00010000
00010000
00011000
00000000
,
01000000
00000000
01000000
00000000
01000000
00000000
00000000
00010000
00000000
00000000
00100000
00000000
01000000
00000000
10000000
00000000
,
00000000
00000000
00100000
00000000
01100000
00000000
00000000
10000000
00000000
00000000
00010000
00000000
01000000
00000000
00001000
00000000
,
00010000
00000000
00010000
00000000
00010000
00000000
00000000
00000100
00000000
00000000
00001000
00000000
00000010
00000000
00000100
00000000
,
00000000
00000001
00000010
00000000
00000100
00000100
00010100
00000000
,
00001000
00000000
00001000
00000000
00001000
00000000
00000000
00100000
00000000
00000000
00010000
00000000
00100000
00000000
01000000
00000000
,
10000000
00010000
01000000
00010000
10010000
00000000
01100000
00000000
,
00210000
00000000
01000000
01000000
00000000
00001000
00301000
00000000
,
00012000
00103000
00021000
00030100
,
00001000
00000010
00000110
00000000
00002002
00000000
00003003
00000000
,
00000100
00010000
00011000
00000000
02020000
00000000
03000000
00000000
,
10030000
00100000
10000000
00000000
00010000
01000000
00010000
00000000
,
00100000
00001000
00100000
00001000
00000100
00000010
00001000
00000001
,
00001000
00000010
00000001
00000010
,
00001000
00000000
00000010
00000000
00000100
00000000
00001000
00000000
00010000
00000000
00001000
00000000
00000000
00100000
00000000
00000000
,
11000000
00000000
00100000
00000000
00010000
01000000
00010000
00000000
,
00100000
00000000
00011000
00000000
00000100
00000100
00000100
00000000
,
00001010
00000000
00000100
00000000
00000001
00001000
00000001
00000000
,
00000010
00000000
00000000
00000000
00001000
00000000
00000000
00000000
00010000
00000000
00001000
00000000
00000000
00100000
00000000
00000000
,
01100000
00000000
00010000
00000000
10000000
00100000
10000000
00000000
,
01000000
00000000
00101000
00000000
00010000
00010000
00010000
00000000
,
00001100
00000000
00000010
00000000
00000100
00000001
00000100
00000000
,
00000010
00001000
00000100
00010000
00100000
01000000
10010000
00000000
,
01000000
00000000
00010000
00000000
01000000
00000000
00000000
11000000
00000000
00000000
00100000
00000000
01000000
00000000
00000000
00101000
,
00000000
00000000
00010000
00000000
00000100
00000000
00000000
00010100
00000000
00000000
00000110
00000000
00001001
00000000
00000000
00000000
,
00000010
00000000
00000010
00000000
00000010
00000000
00000000
00000100
00000000
00000000
00001000
00000000
00000100
00000000
00000000
00000000
,
00010000
00000000
00010000
00000000
00010000
00000000
00000000
00001000
00000000
00000000
00100000
00000000
01000000
00000000
10000000
00000000
,
00100000
00000000
00100000
00000000
00100000
00000000
00000000
10000000
00000000
00000000
00010000
00000000
01000000
00000000
00000000
00000000
,
00001000
00000000
00001000
00000000
00001000
00000000
00000000
00100000
00000000
00000000
00001000
00000000
00010000
00000000
00000100
00000000
,
00000010
00000000
00000100
00000000
00001000
00000000
00000000
00000100
00000000
00000000
00001000
00000000
00001001
00000000
00000000
00000000
,
00000010
00000000
00010000
00000000
00001000
00000000
00000000
00010000
00000000
00000000
00001000
00000000
00100000
00000000
00010000
00000000
,
01000000
00000000
00100000
00000000
10000000
00000000
00000000
00100000
00000000
00000000
01000000
00000000
01100000
00000000
00000000
00000000
,
00010000
01000000
00010000
00100000
00001000
00100000
00010000
00001000
,
00000100
00000000
00001000
00000000
00000000
00000010
00000000
00000000
00000100
00000000
00000000
00000000
00000001
00000000
00000010
00000000
,
00000100
00000000
00000000
00010000
00000000
00000000
00001000
00000000
00000000
00100000
00000000
00000000
01000000
00000000
10000000
00000000
,
00010000
00000000
00000000
01010000
00000000
00000000
10010000
00000000
00000000
01001000
00000000
00000000
00100000
00000000
00001000
00000000
,
00011000
00000000
00000000
00010000
00000000
00000100
00000000
00000010
00000000
00000001
00000000
00001000
00000000
00000010
00000000
00000000
,
00002002
00000000
00000000
00000000
,
00003003
00000000
00000000
00000000
;

//---------------dance-double - ----------------
#NOTES:
     dance-double:
     EXPERT:
     Hard:
     13:
     0.529199,0.508839,0.185219,0.113190,0.370439,360.000000,342.000000,18.000000,11.000000,0.000000,0.000000,0.529199,0.508839,0.185219,0.113190,0.370439,360.000000,342.000000,18.000000,11.000000,0.000000,0.000000:
00000010
00000000
00001000
00000000
00000100
00000000
00010000
00000100
00000000
00010000
00000200
00000000
00000000
00000000
00010300
00000000
,
00001000
00000000
00100000
00000000
01000000
00000000
10000000
00010000
00000000
10000000
00010000
00000000
00100000
00000000
00100000
00000000
,
00010000
01000000
00100000
00010000
00001000
00010000
00011000
00000000
,
00000100
00000000
00010000
00000000
00001000
00000000
00000100
00000000
00000010
00000000
00000100
00000000
00000001
00001000
00000001
00000000
,
00000100
00000000
00000100
00000000
00000100
00000000
00000000
00000010
00000000
00000000
00001000
00000000
00000100
00000000
00001000
00000000
,
00000000
00000000
00000100
00000000
00010000
00000000
00000100
00001000
00000100
00000000
00010000
00000000
00010000
00000000
00000000
00000000
,
00001000
00100000
01000000
00010000
01000000
10000000
00100000
00010000
,
00100000
01000000
00100000
00000000
10000000
00000000
00010000
02000000
00000000
00000000
00100000
00000000
03100000
00000000
00000000
00000000
,
01000000
00000000
01000000
00000000
01000000
00000000
00000000
00010000
00000000
00000000
00100000
00000000
00001000
00000000
00100000
00000000
,
00000000
00000000
00010000
00000000
00100000
00000000
00001000
00010000
00001000
00000000
00010000
00000000
00010000
00000000
00000000
00000000
,
00000100
00001000
00000100
00000010
00000001
00001000
00000010
00010000
,
00001000
00010000
00001000
00000000
00100000
00000000
00010000
01000000
00020000
00000000
00000000
00000000
00230000
00000000
00000000
00000000
,
01300000
10000000
01000000
00100000
00010000
01000000
00100000
10000000
,
00010000
00000000
01000000
00000000
00001000
00000000
00100000
00010000
00000000
00000000
00001000
00000000
00000100
00000000
00000010
00000001
,
00001000
00000000
00001000
00000000
00001000
00000000
00000000
00000000
00000220
00000000
00000000
00000000
00000330
00000000
00001000
00010000
,
00000100
00000000
00000100
00000000
00010200
00000000
00000000
00000000
00010300
00000000
00001000
00100000
00001000
00100000
00010000
01000000
,
00100000
00000000
01000000
10000000
01000000
00000000
00100000
01000000
,
10000000
00000000
01000000
00000000
00010000
00000000
01000000
00001000
01000000
00000000
00001000
00000000
00100000
00000000
00001000
00010000
,
00001000
00010000
00000100
00000010
00000001
00001000
00000100
00010000
,
00001000
00000000
00000000
00100000
00001000
00000000
00010000
00000000
00100000
00000000
01100000
00000000
00000000
11000000
00000000
00000000
,
01010000
00000000
00000000
10000000
00100000
00000000
01000000
00000000
00010000
00000000
00100000
00000000
00100000
00000000
00000000
00000000
,
00010000
00000000
01000000
00000000
00001000
00000000
00010000
00000000
00001000
00000000
00000000
00010000
00000100
00000000
00000000
00001000
,
00000010
00000000
00000000
00000010
00000001
00000000
00000010
00000000
00000100
00000000
00000010
00000000
00000010
00000000
00000000
00000000
,
00001000
00000000
00000100
00000000
00010000
00000000
00001000
00010000
00001000
00000000
00010000
00000000
00000000
00110000
00000000
00000000
,
00101000
00000000
00000000
00010000
00001000
00000000
00100000
00000000
00010000
00000000
01000000
00000000
01000000
00000000
00000000
00000000
,
00010000
00000000
00100000
00000000
00010000
00000000
00001000
00000000
00000100
00000000
00000000
00001000
00000010
00000000
00000000
00010000
,
00001000
00000000
00000000
00100000
00010000
00000000
00100000
00000000
01000000
00000000
00100000
00000000
00100000
00000000
00000000
00000000
,
00010000
00000000
10000000
00000000
00100000
00000000
10000000
00010000
10000000
00000000
00010000
00000000
00100000
00001000
00100000
00000000
,
00001000
00000000
00001000
00000000
00001000
00010000
00000000
00011000
00000000
00000000
00100000
00000000
00100000
00010000
00000000
10010000
,
00000000
00000000
00010000
00000000
00100000
00001000
00000000
00011000
00000000
00000000
00001010
00000000
00000011
00000000
00000000
00000000
,
00001000
00000000
00000100
00000000
00000010
00000000
00000100
00001000
00000000
00001000
00000200
00000000
00000000
00000000
00010300
00000000
,
00001000
00000000
00100000
00000000
01000000
00000000
10000000
00010000
10000000
00000000
00100000
00000000
00010000
00000000
00100000
00000000
,
01000000
00000000
00010000
00000000
00100000
00000000
00001000
00100000
00000000
00100000
00002000
00000000
00000000
00000000
00013000
00000000
,
00001000
00000000
00000100
00000000
00000010
00000000
00001000
00000001
00001000
00000000
00000010
00000000
00000100
00000001
00000100
00000000
,
00000010
00000000
00001000
00000000
00000010
00000000
00010000
00001000
00010000
00000000
00000100
00000000
00001000
00000000
00000100
00000000
,
00010000
00000000
00001000
00000000
00100000
00000000
00010000
01000000
00010000
00000000
10000000
00000000
10000000
00000000
10000000
00000000
,
00100000
00000000
10000000
00000000
01000000
00000000
00100000
00010000
00100000
00000000
00001000
00000000
00010000
00000000
00000100
00000000
,
00010000
00000000
00001000
00000000
00010000
00000000
00000100
00001000
00000100
00000000
00001000
00000000
00001000
00000001
00001000
00000001
,
00000000
00000000
00000011
00000000
00000000
00000100
00000000
00000000
00000100
00010000
00000000
00010000
00001000
00000000
00101000
00000000
,
00000000
00000000
01100000
00000000
00000000
10000000
00010000
00000000
00010000
01000000
00000000
01000000
00100000
00000000
10100000
00000000
,
10000000
00000000
01000000
00100000
00000000
00100000
00001000
00000000
00001000
00010000
00000000
00010000
00000100
00000000
00001000
00000000
,
00000010
00000100
00000000
00000001
00000000
00000010
00000000
00001000
00000000
00000010
00000000
00000100
00000000
00010000
00000000
00001000
,
00022000
00000000
00000000
00000000
,
00033000
00000000
00000000
00000000
;

//---------------dance-double - ----------------
#NOTES:
     dance-double:
     CHALLENGE:
     Challenge:
     14:
     0.607108,0.685827,0.185219,0.092610,0.576238,413.000000,395.000000,18.000000,9.000000,0.000000,0.000000,0.607108,0.685827,0.185219,0.092610,0.576238,413.000000,395.000000,18.000000,9.000000,0.000000,0.000000:
00000001
00000000
00001000
00000000
00000010
00000000
00001000
00000100
00000000
00000100
00010000
00000000
00000000
00000000
00001000
00000000
,
00100000
00000000
01000000
00000000
10000000
00000000
01000000
00100000
00000000
00100000
00010000
00000000
01000000
00000000
10000000
00000000
,
01000000
00000000
00010000
00000000
00100000
00000000
00001000
00010000
00001000
00000000
00100000
00000000
00100000
00000000
00000000
00000000
,
00001000
00000000
00010000
00000000
00000100
00000000
00000010
00000001
00000000
00000001
00001000
00000001
00001000
00000001
00001000
00000000
,
00000100
00000000
00000100
00000000
00000100
00000000
00000000
00001000
00000000
00000010
00000100
00000000
00000010
00000000
00010000
00000000
,
00001000
00000000
00000100
00000000
00001000
00000000
00010000
00001000
00010000
00000000
00001000
00000000
01000000
00000000
00000000
00000000
,
00100000
00000000
00100000
00000000
00100000
00000000
00000000
10000000
00000000
01000000
00100000
00000000
01000000
00000000
10000000
00000000
,
00010000
00000000
01000000
00000000
00010000
00000000
00100000
00001000
00000000
00001000
00010000
00001000
00010000
00001000
00010000
00000000
,
00000010
00000000
00000010
00000000
00000010
00000000
00000000
00001000
00000000
00000100
00000010
00000000
00000001
00000000
00000100
00000000
,
00000010
00000000
00001000
00000000
00010000
00000000
00100000
00010000
00100000
00000000
01000000
00000000
10000000
00000000
00000000
00000000
,
01000000
00000000
01000000
00000000
01000000
00000000
00000000
00100000
00000000
00010000
10000000
00000000
00100000
00000000
00010000
00000000
,
00100000
00000000
01000000
00000000
00100000
00000000
00010000
00100000
01000000
00000000
00100000
01000000
00001000
01000000
00000000
00001000
,
00100000
00000000
00001000
00000000
00010000
00000000
00000100
00010000
00000010
00000000
00000100
00000000
00001000
00000000
00000100
00000000
,
00000001
00000000
00000010
00000000
00000001
00000000
00001000
00000100
00000000
00000000
00010000
00000000
00010000
00000000
00001000
00010000
,
00002000
00000000
00100000
00000000
00103000
00000000
00000000
00000000
20020000
00000000
00000000
00000000
30030000
00000000
00010000
00001000
,
00010000
00000000
00000100
00000000
00000200
00000000
00000000
00000000
00010300
00001000
00010000
00001000
00000100
00000010
00000100
00000010
,
00001000
00000000
00000010
00000000
00000001
00000000
00000010
00000100
00000010
00000000
00001000
00000000
00000100
00000000
00010000
00000000
,
00000100
00000000
00001000
00000000
00010000
00000000
00100000
00010000
00100000
00000000
01000000
00000000
02000000
00000000
00000000
00000000
,
13000000
00000000
00010000
00100000
00010000
00000000
01000000
00010000
01000000
00000000
00001000
00100000
00001000
00000000
00010000
00000100
,
00010000
00000100
00000000
00000100
00001000
00000000
00001000
00000010
00000000
00000010
00000100
00000000
00000000
00000101
00000000
00000000
,
00001001
00000000
00000100
00000010
00000100
00000000
00010000
00000000
00000100
00000000
00001000
00000000
00010000
00000000
00100000
01000000
,
00100000
00000000
01000000
00000000
00100000
00000000
00010000
00000000
01000000
00100000
00000000
10000000
00010000
10000000
00000000
00010000
,
01000000
00000000
00001000
00100000
00001000
00000000
00010000
00000000
00000100
00000000
00000010
00000000
00000001
00000000
00001000
00000000
,
00000010
00000000
00000010
00000000
00000010
00000100
00000000
00000100
00000001
00000000
00001001
00000000
00000000
00010100
00000000
00000000
,
00110000
00000000
10000000
00010000
10000000
00000000
00100000
00000000
01000000
00000000
00001000
00000000
01000000
00000000
00010000
00100000
,
00001000
00000000
00010000
00000000
00000100
00000000
00000010
00000000
00000001
00001000
00000000
00000100
00000010
00000100
00000000
00001000
,
00000100
00000000
00010000
00000100
00010000
00000000
00001000
00000000
00100000
00000000
00100000
00000000
00100000
00000000
01000000
00000000
,
00100000
00000000
00100000
00000000
00100000
01000000
00000000
01000000
10000000
00010000
10000000
00000000
01000000
00100000
00000000
00100000
,
00010000
00000000
00010000
00000000
00010000
01000000
00000000
01001000
00000000
00000000
00010000
00000000
00001000
00010000
00000000
00010100
,
00000000
00000000
00000100
00000000
00000010
00000001
00000010
00000100
00000000
00000000
00001100
00000000
00000101
00000000
00000000
00000000
,
00001000
00000000
00000010
00000000
00001000
00000000
00000100
00001000
00000000
00001000
00000020
00000000
00000000
00000000
00000100
00000000
,
00000130
00000000
00000001
00000000
00000010
00000000
00000100
00001000
00000100
00000000
00010000
00000000
00001000
00000000
00100000
00000000
,
01000000
00000000
10000000
00000000
01000000
00000000
00100000
00010000
00000000
00010000
20000000
00000000
00000000
00000000
00100000
00000000
,
30100000
00000000
01000000
00000000
00001000
00000000
00100000
00001000
00100000
00001000
00100000
00000000
00010000
00000000
00001000
00000000
,
00000100
00000000
00000010
00000001
00000010
00000000
00000001
00001000
00000001
00000000
00001000
00000000
00000100
00000000
00010000
00000000
,
01000000
00000000
00100000
00000000
00010000
00000000
10000000
00100000
10000000
00100000
10000000
00000000
01000000
00000000
01000000
00000000
,
00100000
00000000
00001000
00000000
00010000
00000000
00000100
00010000
00000100
00000000
00001000
00000000
00000100
00000000
00000010
00000000
,
00000001
00000000
00000001
00000000
00001000
00000000
00000010
00001000
00000010
00001000
00000010
00000000
00010000
00000100
00010000
00000100
,
00000000
00000000
00000100
00010000
00000000
00010000
00001000
00000000
00001000
00100000
00000000
00100000
01000000
00000000
11000000
00000000
,
10000000
00100000
10000000
00100000
10000000
00000000
00010000
01000000
00010000
01000000
00010000
00000000
00101000
00000000
00101000
00000000
,
00010000
00000100
00010000
00000100
00001000
00000100
00001000
00000000
00000010
00000100
00000010
00000100
00000001
00001000
00000001
00000000
,
00001000
00000100
00000000
00010100
00000000
00011000
00000000
00101000
00000000
01100000
00000000
01000000
00100000
00001000
00010000
00001000
,
00022000
00000000
00000000
00000000
,
00033000
00000000
00000000
00000000
;
