#TITLE:S.P.I.P.;
#SUBTITLE:;
#ARTIST:Thomas' family with Yah Yah's;
#TITLETRANSLIT:;
#SUBTITLETRANSLIT:;
#ARTISTTRANSLIT:;
#GENRE:POP ROCK;
#CREDIT:YonabearCWY;
#BANNER:S.P.I.P.png;
#BACKGROUND:S.P.I.P-bg.png;
#LYRICSPATH:;
#CDTITLE:GUITAR FREAKS & drummania.png;
#MUSIC:S.P.I.P.ogg;
#OFFSET:-8.580000;
#SAMPLESTART:35.762039;
#SAMPLELENGTH:13.000000;
#SELECTABLE:YES;
#BPMS:0.000000=141.000000
;
#STOPS:
;
#BGCHANGES:0.000=S.P.I.P.mp4=1.000=0=0=0=StretchNoLoop==CrossFade_Faster==,
197.000=S.P.I.P-bg.png=1.000=0=0=1=====,
99999=-nosongbg-=1.000=0=0=0 // don't automatically add -songbackground-
;
#KEYSOUNDS:;
#ATTACKS:;

//---------------dance-single - ----------------
#NOTES:
     dance-single:
     BEGINNER:
     Beginner:
     1:
     0.000000,0.000000,0.000000,0.000000,0.000000,0.000000,0.000000,0.000000,0.000000,0.000000,0.000000,0.000000,0.000000,0.000000,0.000000,0.000000,0.000000,0.000000,0.000000,0.000000,0.000000,0.000000:
0000
1000
0000
1000
,
0000
0001
0000
0001
,
0000
1000
0000
1000
,
0000
0001
0000
0000
,
0000
0010
0000
0010
,
0000
0100
0000
0100
,
0000
0010
0000
0010
,
0000
0000
0000
0000
,
0001
0001
0000
0000
,
0001
0001
0000
0000
,
1000
0000
0000
0000
,
1000
0000
0000
0000
,
1000
1000
0000
0000
,
1000
1000
0000
0000
,
0001
0000
0000
0000
,
0001
0000
0000
0000
,
0100
0000
0100
0000
,
0100
0000
0000
0000
,
0010
0000
0010
0000
,
0010
0000
0000
0000
,
1000
0000
1000
0000
,
1000
0000
0000
0000
,
0001
0000
0001
0000
,
0001
0000
0000
0000
,
1000
0000
0000
0000
,
0100
0000
0000
0000
,
0010
0000
0000
0000
,
0001
0000
0000
0000
,
1000
0000
0000
0000
,
0100
0000
0000
0000
,
0010
0000
0000
0000
,
0001
0000
0000
0000
,
1000
0000
1000
0000
,
1000
0000
0000
0000
,
0001
0000
0001
0000
,
0001
0000
0000
0000
,
0010
0000
0010
0000
,
0010
0000
0000
0000
,
0100
0000
0100
0000
,
0100
0000
0000
0000
,
1000
1000
1000
0000
,
1000
0000
0000
0000
,
1000
1000
1000
0000
,
1000
0000
0000
0000
,
0001
0000
0000
0000
,
0001
0000
0001
0000
,
0001
0000
0000
0000
,
1000
0000
1000
0000
,
0002
0000
0000
0000
,
0000
0003
0000
0000
;

//---------------dance-single - ----------------
#NOTES:
     dance-single:
     BASIC:
     Easy:
     4:
     0.000000,0.000000,0.000000,0.000000,0.000000,0.000000,0.000000,0.000000,0.000000,0.000000,0.000000,0.000000,0.000000,0.000000,0.000000,0.000000,0.000000,0.000000,0.000000,0.000000,0.000000,0.000000:
0000
1000
0000
1000
,
0000
0001
0000
0001
,
1000
1000
1000
0000
,
1000
0000
0000
0000
,
0000
0010
0000
0010
,
0000
0100
0000
0100
,
0010
0010
0010
0000
,
0010
0000
0000
0000
,
0000
0000
0000
1001
0000
0000
0000
0000
,
0000
0000
0000
1001
0000
0000
0000
0000
,
0100
0100
0100
0000
,
0100
0000
0000
0000
,
0000
0000
0000
0110
0000
0000
0000
0000
,
0000
0000
0000
0110
0000
0000
0000
0000
,
0001
0001
0001
0000
,
0001
0000
0000
0000
,
1000
0000
1000
0000
,
1000
0000
0000
0000
,
0100
0000
0100
0000
,
0100
0000
0000
0000
,
0010
0000
0010
0000
,
0010
0000
0000
0000
,
0001
0000
0001
0000
,
0001
0000
0000
0000
,
1000
1000
1000
0000
,
0100
0100
0100
0000
,
0010
0010
0010
0000
,
0001
0001
0001
0000
,
0001
0001
0001
0000
,
0010
0010
0010
0000
,
0100
0100
0100
0000
,
1000
1000
1000
0000
,
1001
0000
0000
0000
,
0010
0000
0010
0000
,
0010
0000
0000
0000
,
0100
0000
0100
0000
,
0100
0010
0000
0010
,
0000
0100
0000
0100
,
0001
0000
1000
0000
,
1001
0000
0000
0000
,
0110
0000
0000
0000
,
1000
0000
0001
0000
,
1001
0000
0000
0000
,
0010
0000
0100
0000
,
0110
0000
0000
0000
,
1000
0000
1000
0000
,
1000
0000
0000
0000
,
0001
0000
0001
0000
,
2002
0000
0000
0000
,
0000
3003
0000
0000
;

//---------------dance-single - ----------------
#NOTES:
     dance-single:
     DIFFICULT:
     Medium:
     6:
     0.000000,0.000000,0.000000,0.000000,0.000000,0.000000,0.000000,0.000000,0.000000,0.000000,0.000000,0.000000,0.000000,0.000000,0.000000,0.000000,0.000000,0.000000,0.000000,0.000000,0.000000,0.000000:
0000
1000
0000
1000
0000
1000
0000
0000
,
0000
0001
0000
0001
0000
0001
0000
0000
,
1000
0000
1000
0000
,
0001
0000
0000
0000
,
0000
0010
0000
0010
0000
0010
0000
0000
,
0000
0100
0000
0100
0000
0100
0000
0000
,
0010
0000
0010
0000
,
0220
0000
0000
0330
,
1000
0001
0000
0020
0000
0000
0030
0000
,
0001
1000
0000
0200
0000
0000
0300
0000
,
1000
0010
0100
0001
,
2002
0000
0000
3003
,
0100
0010
0000
2000
0000
0000
3000
0000
,
0010
0100
0000
0002
0000
0000
0003
0000
,
0100
0001
0010
0100
,
2002
0000
0000
3003
,
0010
0010
0100
0100
,
0001
0010
0100
1000
,
0001
0001
1000
1000
,
0100
0010
0001
0100
,
0010
0010
1000
1000
,
0100
0010
0001
0100
,
0001
0001
1000
1000
,
0010
0100
0010
0100
0010
0000
1001
0000
,
0100
1000
0100
0000
0100
0000
0000
0000
,
0010
0001
0010
0000
0010
0000
0000
0000
,
0001
0000
0001
0000
,
1000
0000
0000
0000
1000
0001
1000
0000
,
0010
0100
0010
0000
0010
0000
0000
0000
,
0100
0010
0100
0000
0100
0000
0000
0000
,
0001
0000
0001
0000
,
1000
0000
0000
0000
1000
0001
1000
0000
,
0220
0000
0000
0330
,
0010
1000
0100
0010
,
0001
0000
0001
0000
,
1000
0000
1000
0000
,
0010
1010
0000
0101
,
0000
0011
0000
1100
,
0001
0000
1000
0000
0001
0100
0001
0100
,
0002
0000
0003
0000
,
0001
0100
0010
1000
,
0010
0000
0010
0000
,
0100
0000
0100
0000
,
0001
1000
0001
1000
0001
0000
1000
0000
,
0220
0000
0000
0330
,
2000
3001
0020
0130
,
2002
0000
0000
3003
,
0020
1030
0200
0301
,
2002
0000
0000
0000
,
0000
3003
0000
0000
;

//---------------dance-single - ----------------
#NOTES:
     dance-single:
     EXPERT:
     Hard:
     9:
     0.000000,0.000000,0.000000,0.000000,0.000000,0.000000,0.000000,0.000000,0.000000,0.000000,0.000000,0.000000,0.000000,0.000000,0.000000,0.000000,0.000000,0.000000,0.000000,0.000000,0.000000,0.000000:
0000
1000
0000
0001
0000
1000
0000
0010
,
0100
0010
0000
0100
0000
0001
0000
0010
,
0100
0000
1000
0000
0001
0000
0100
0010
,
0000
0100
0000
0010
0000
0110
0000
1000
,
0001
1000
0000
0010
0000
1000
0000
0100
,
1000
0100
0000
1000
0000
0001
0000
0010
,
0001
0000
1000
0000
0010
0000
0100
0001
,
0000
1000
1000
1000
1000
0000
0110
0000
,
0001
0010
0000
0012
0000
0000
1003
0000
,
0010
1000
0000
2200
0000
0000
3300
0000
,
0010
0000
0100
0000
0001
0000
1000
0001
,
1000
0100
0010
0001
,
1000
0010
0000
1020
0000
0000
0130
0000
,
0001
0100
0000
0201
0000
0000
0310
0000
,
1000
0000
0100
0000
0010
0000
0001
1000
,
0000
0100
0100
0100
0100
0000
1001
0000
,
0210
1000
0001
0310
,
0021
0100
1000
0031
,
1000
0100
0010
0001
0100
0010
1000
0100
,
0010
0001
0000
2002
0000
0000
3003
0000
,
0120
0001
0100
1030
,
1200
0001
0010
1300
,
0010
0000
0100
0000
0001
0010
0100
1000
,
0001
0010
0010
0010
0010
0000
1001
0000
,
0100
0000
1000
0000
0000
0010
0000
0000
0100
0000
0000
0001
0000
0000
0010
0000
,
0001
0000
0010
0000
0000
0100
0000
0000
0010
0000
0000
0001
0000
0000
1000
0000
,
0010
0000
0100
0000
1000
0000
0001
0100
,
0001
0000
1000
0000
0010
0000
1000
0100
,
1000
0000
0001
0000
0000
0010
0000
0000
0001
0000
0000
1000
0000
0000
0100
0000
,
0010
0000
0001
0000
0000
1000
0000
0000
0010
0000
0000
0100
0000
0000
1000
0000
,
0100
0000
0010
0000
1000
0000
0001
0100
,
0000
0001
0001
0001
0001
0000
0110
0000
,
2001
0010
0100
0010
,
3100
1000
0001
1000
0000
0010
1000
0001
,
0010
0000
0001
0100
0000
0010
1000
0000
,
0100
0010
0001
1000
0010
0100
0010
0000
,
0100
0001
0101
0000
0010
1000
1010
0000
,
1000
0001
1001
0000
0010
0100
0110
0000
,
1100
0000
0101
0000
0010
0100
1000
0001
,
0010
0100
0100
0010
0010
1000
0001
0100
,
0101
0000
1010
0000
1000
0100
0010
0001
,
0100
0110
1001
0010
,
1100
0000
0011
0000
0100
0000
0001
1000
,
0010
0010
0100
0100
0001
0001
1000
1000
,
0202
0000
0000
0303
,
2000
0000
3010
0100
0002
0000
1003
0010
,
0100
2200
0000
3300
,
0210
0000
0301
0100
0020
0000
1030
0001
,
2002
0000
0000
0000
,
0000
3003
0000
0000
;

//---------------dance-single - ----------------
#NOTES:
     dance-single:
     CHALLENGE:
     Challenge:
     13:
     0.602505,0.574082,0.233130,0.148355,0.238428,398.000000,376.000000,22.000000,14.000000,0.000000,0.000000,0.602505,0.574082,0.233130,0.148355,0.238428,398.000000,376.000000,22.000000,14.000000,0.000000,0.000000:
// measure 0
0000
1000
0010
1000
0100
1000
0000
0001
,  // measure 1
0100
0010
0001
0010
1000
0010
0000
0100
,  // measure 2
0001
0010
0011
0000
1000
0010
1010
0000
,  // measure 3
0010
0100
0001
0100
1000
0100
0010
0100
,  // measure 4
0000
0001
1000
0001
0100
0001
0000
1000
,  // measure 5
0100
0010
0100
1000
0001
0010
0000
0001
,  // measure 6
0100
0010
0110
0000
0001
0100
0010
1001
,  // measure 7
0000
0000
0100
0000
0100
0000
0100
0000
0100
0000
1000
0001
1000
0000
0000
0000
,  // measure 8
0010
0100
0001
0021
0000
0100
0100
0130
,  // measure 9
1000
0010
0100
1200
0000
0010
0010
0310
,  // measure 10
0100
0001
0010
0001
1000
0010
0100
0001
,  // measure 11
0000
0000
0010
0000
0001
0000
1000
0000
0010
0000
1000
0000
0100
1000
0100
1000
,  // measure 12
0100
0010
0001
2001
0000
0100
0100
3100
,  // measure 13
1000
0001
0100
0102
0000
0010
0010
0013
,  // measure 14
0001
1000
0010
0100
1000
0100
0001
0100
,  // measure 15
0000
0000
0010
0000
0010
0000
0010
0000
0010
0000
0100
0010
0100
0000
0000
0000
,  // measure 16
0011
0000
0000
0000
1000
0100
1000
0100
1000
0000
0000
0000
0101
0000
0000
0000
,  // measure 17
1010
0000
0000
0000
0001
0010
0001
0000
1000
0000
0010
0000
1000
0100
1000
0000
,  // measure 18
0010
0100
1000
0100
0001
0010
0100
0010
,  // measure 19
1000
0000
0010
0000
0011
0000
0000
0000
0100
0000
0010
0000
0001
1000
0001
1000
,  // measure 20
0001
0000
0000
0000
0100
0000
0001
0010
0001
0000
1000
0000
0010
0000
0100
0000
,  // measure 21
0001
0000
1000
0000
0100
0000
0010
0000
0100
1000
0100
0000
1000
0000
0001
0010
,  // measure 22
0001
0000
0110
0000
1000
0100
0010
0001
,  // measure 23
0100
0010
0010
0010
0010
0010
1001
0000
,  // measure 24
0100
0000
1000
0000
0010
1000
0000
1000
0100
0000
1000
0010
0000
0010
0200
0000
,  // measure 25
0001
0000
0301
0000
0010
0001
0000
0001
0100
0000
0001
0100
0000
0100
0020
0000
,  // measure 26
1000
1030
0001
0010
0100
1000
0001
0100
,  // measure 27
0010
0001
0010
1000
0100
0010
0001
0100
,  // measure 28
1000
0000
0100
0000
0001
0010
0001
0000
0100
0000
0010
0000
1000
0000
0100
0000
,  // measure 29
1000
0000
0010
0000
0100
1000
0100
0000
0010
0000
0100
0000
0001
0000
0010
0000
,  // measure 30
0001
1000
0010
0100
1000
0100
0001
0010
,  // measure 31
0000
0001
0001
0001
0001
0000
0110
0000
,  // measure 32
1001
0000
0000
0000
0010
1000
0010
1000
0010
0000
0000
0000
1000
0000
0100
1000
,  // measure 33
0100
1000
0100
0000
0010
0000
0001
0000
0100
0000
0010
1000
0010
0000
0100
0001
,  // measure 34
0100
0000
0001
0010
0100
0010
0100
1000
,  // measure 35
0001
0000
1000
0010
0100
0010
0100
0001
,  // measure 36
0010
0001
1001
0000
0010
1000
1100
0000
,  // measure 37
0100
0000
0010
0000
0011
0000
0100
1000
0100
0000
0010
0000
0001
0000
1000
0000
,  // measure 38
1001
0000
0110
0000
1000
0001
0010
0100
,  // measure 39
1000
0000
0010
0000
0010
0000
0010
0000
0010
0000
1000
0001
1000
0001
1000
0001
,  // measure 40
0010
0000
0001
0100
0010
0100
1000
0100
,  // measure 41
0001
0100
0010
1000
0000
0100
0010
0001
,  // measure 42
0010
1000
0010
0001
0010
0100
0001
0100
,  // measure 43
1000
1000
0001
0001
0010
0010
0100
0100
,  // measure 44
2100
0000
0000
0000
0010
0000
0000
0000
3001
0000
0000
0000
0100
0010
0100
0010
,  // measure 45
0200
0000
0000
0000
0301
0010
0001
0010
0200
0000
0000
0000
1300
0010
1000
0010
,  // measure 46
0200
0000
0000
0000
0010
0000
0000
0000
1000
0000
0000
0000
0301
1000
0001
1000
,  // measure 47
0020
0000
0000
0000
0130
0001
0100
0001
0020
0000
0000
0000
0130
1000
0100
2000
,  // measure 48
0002
0000
0000
0000
,  // measure 49
0000
3003
0000
0000
;

//---------------dance-double - ----------------
#NOTES:
     dance-double:
     BASIC:
     Easy:
     4:
     0.000000,0.000000,0.000000,0.000000,0.000000,0.000000,0.000000,0.000000,0.000000,0.000000,0.000000,0.000000,0.000000,0.000000,0.000000,0.000000,0.000000,0.000000,0.000000,0.000000,0.000000,0.000000:
00000000
00100000
00000000
00100000
,
00100000
01000000
00000000
01000000
,
00001000
00000000
00001000
00000000
,
00011000
00000000
00000000
00000000
,
00010000
00010000
00000000
00000000
,
00001000
00001000
00000000
00000000
,
00010000
00010000
00010000
00011000
,
00000000
00000000
00000000
00000000
,
00000010
00000010
00000010
00000000
,
00000010
00000010
00000010
00000000
,
00001000
00000000
00001000
00000000
,
00011000
00000000
00000000
00000000
,
01000000
01000000
01000000
00000000
,
01000000
01000000
01000000
00000000
,
00001000
00000000
00001000
00000000
,
00011000
00000000
00000000
00000000
,
00000001
00000000
00001000
00000000
,
00000010
00000000
00001000
00000000
,
00000100
00010000
00000100
00010000
,
00001000
00000000
00001000
00000000
,
00100000
00000000
00010000
00000000
,
10000000
00000000
00100000
00000000
,
01000000
00001000
01000000
00001000
,
00011000
00000000
00000000
00000000
,
00010000
00000000
00010000
00000000
,
00010000
00000000
00000000
00000000
,
00001000
00000000
00001000
00000000
,
00001000
00000000
00000000
00000000
,
00010000
00000000
00100000
00000000
,
00010000
00000000
00000000
00000000
,
00001000
00000000
00000100
00000000
,
00001000
00000000
00000000
00000000
,
20020000
00000000
00000000
30030000
,
01000000
01000000
01000000
00000000
,
00100000
00000000
00000000
00000000
,
01000000
01000000
01000000
00000000
,
00000000
00101000
00000000
00001100
,
00000000
00000011
00000000
00010100
,
00001000
00100000
00010000
01000000
,
00010000
00000000
00000000
00000000
,
10000000
00000000
10000000
00000000
,
10000000
00000000
00000000
00000000
,
00100000
00000000
00100000
00000000
,
00100000
00000000
00000000
00000000
,
00011000
00000000
00000000
00000000
,
00010000
00000000
00010000
00000000
,
00011000
00000000
00000000
00000000
,
00001000
00000000
00001000
00000000
,
00022000
00000000
00000000
00000000
,
00000000
00033000
00000000
00000000
;

//---------------dance-double - ----------------
#NOTES:
     dance-double:
     DIFFICULT:
     Medium:
     6:
     0.000000,0.000000,0.000000,0.000000,0.000000,0.000000,0.000000,0.000000,0.000000,0.000000,0.000000,0.000000,0.000000,0.000000,0.000000,0.000000,0.000000,0.000000,0.000000,0.000000,0.000000,0.000000:
00001000
00000000
00001000
00000000
,
00000100
00000000
00000100
00000000
,
00010000
00000000
00001000
00000000
00010000
00000000
00001000
00010000
,
00000000
00100000
00000000
00100000
00000000
00100000
00000000
00000000
,
01000000
00000000
01000000
00000000
,
00010000
00000000
00010000
00000000
,
10000000
00000000
00010000
00000000
10000000
00000000
00010000
01000000
,
00000000
00001000
00100000
00001000
00100000
00000000
00011000
00000000
,
00000110
00000000
00000020
00000002
00000000
00000000
00000033
00000000
,
00010100
00000000
00002000
00020000
00000000
00000000
00033000
00000000
,
00100000
00000000
00010000
00000000
01000000
00000000
10000000
01000000
,
10000000
01000000
00010000
00100000
,
00011000
00000000
02000000
00020000
00000000
00000000
03030000
00000000
,
00001100
00000000
00000020
00002000
00000000
00000000
00003030
00000000
,
00000001
00000000
00000010
00000000
00000100
00000000
00001000
00000001
,
00000000
00000100
00000010
00000100
00000010
00000000
00010100
00000000
,
00012000
00000000
00010000
00000000
,
00013000
00001000
00100000
00010000
,
01000000
00100000
01000000
00000000
00010000
10000000
00010000
00000000
,
10000000
01000000
00100000
00001000
,
00021000
00000000
00001000
00000000
,
00031000
00010000
00000010
00001000
,
00001100
00000000
00000011
00000000
00001000
00000010
00001000
00000010
,
00002002
00000000
00003003
00000010
,
00010000
00001000
00010000
00001000
,
00100000
01000000
00100000
01000000
,
10000000
00000000
00010000
00000000
00100000
00000000
00001000
00010000
,
00001000
00010000
00000100
00000010
,
00000001
00001000
00000010
00001000
,
00000001
00000100
00010000
00100000
,
01000000
00000000
10000000
00000000
00010000
00000000
01000000
00100000
,
00000000
01000000
00001000
01000000
00001000
00000000
00000000
00000000
,
00000000
00000000
00010000
00000000
00000100
00010000
00000100
00000000
,
00010000
00000000
00000010
00001000
00000010
00000000
00001000
00000000
,
00000100
00000010
00000001
00001000
,
00000100
00010000
00001000
01000000
,
00100000
01100000
00000000
00011000
,
00000000
00000110
00000000
00011000
,
01000000
00000000
01000000
00000000
00100000
10000000
00010000
10000000
,
20020000
00000000
30030000
00000000
,
00100000
00000000
00100000
00000000
01000000
00010000
00100000
00000000
,
00001000
00000000
00010000
00000000
00001000
00000000
00010000
00000100
,
00000010
00000100
00001000
00000010
,
00000100
00000100
00000010
00000010
,
00002002
00000000
00000000
00003003
,
00022000
00033000
00022000
00033000
,
02200000
00000000
03300000
00000000
,
00022000
00033000
00022000
00033000
,
00020200
00000000
00000000
00000000
,
00000000
00030300
00000000
00000000
;

//---------------dance-double - ----------------
#NOTES:
     dance-double:
     EXPERT:
     Hard:
     9:
     0.000000,0.000000,0.000000,0.000000,0.000000,0.000000,0.000000,0.000000,0.000000,0.000000,0.000000,0.000000,0.000000,0.000000,0.000000,0.000000,0.000000,0.000000,0.000000,0.000000,0.000000,0.000000:
00000000
00010000
00000000
00100000
00000000
00010000
10000000
00010000
,
00000000
01000000
00000000
00001000
00000000
00010000
00001000
00010000
,
00000000
00000100
00000000
00001000
00000000
00000010
00000000
00000001
,
00000000
00000010
00000000
00001000
00000000
00000100
00010000
00000100
,
00000000
00010000
00000000
00001000
00000000
00100000
00001000
00100000
,
00000000
00001000
00000000
00010000
00000000
00000010
00010000
00000010
,
00000000
00001000
00000000
00000100
00000000
00010000
00001000
00011000
,
00000000
00100000
00100000
00100000
00100000
00000000
10010000
00000000
,
01000000
00000000
10000000
00100000
00000000
01000000
00010000
00000000
,
00100000
00000000
00001000
00010000
00000000
00000100
00010000
00000000
,
00000010
00000000
00001000
00000000
00000100
00000000
00000010
00000001
,
00000010
00000001
00001000
00000010
,
00001000
00000010
00001000
00002200
00000000
00003300
00011000
00000000
,
00100000
00010000
10000000
20020000
00000000
30030000
01100000
00000000
,
00010000
00000000
00100000
00000000
00001000
00000000
00010000
00011000
,
00000000
00000010
00000010
00000010
00000010
00000000
00001001
00000000
,
00000100
00010000
00001000
00100000
,
01000000
10000000
00010000
00100000
,
01000000
00100000
00001000
00010000
00001000
00010000
00000100
00000010
,
00000001
00001000
00000010
00000100
00001000
00010000
00011000
00000000
,
00100000
00010000
10000000
00010000
,
01000000
00000000
00100000
00000000
01000000
00010000
01000000
00000000
,
00101000
00000000
00011000
00000000
00000100
00000010
00000001
00001000
,
00000100
00010000
00010000
00010000
00010000
00000000
00011000
00000000
,
00100000
00000000
00100000
00000000
00000000
00100000
00000000
00000000
01000000
00000000
00000000
01000000
00000000
00000000
00010000
00000000
,
00000000
00000000
00100000
00000000
00000000
00001000
00000000
00000000
00010000
00000000
00000000
00000100
00000000
00000000
00000010
00000000
,
00000001
00001000
00000001
00000000
00001000
00000001
00001000
00000000
,
00000010
00000000
00001000
00000000
00000100
00000000
00010000
00001000
,
00000000
00000000
01000000
00000000
00000000
01000000
00000000
00000000
00010000
00000000
00000000
00010000
00000000
00000000
00100000
00000000
,
00000000
00000000
01000000
00000000
00000000
10000000
00000000
00000000
01000000
00000000
00000000
00100000
00000000
00000000
00001000
00000000
,
00010000
00000000
00000100
00000000
00000010
00000000
00000001
00001000
,
00000000
00000010
00000010
00000010
00000010
00000000
00000000
00000000
,
00012000
00100000
00010000
00103000
,
00010000
00000100
00010000
00000000
00000100
00001000
00000100
00000000
,
00021000
00000010
00001000
00030010
,
00010000
00001000
00010000
00000000
00001000
01000000
00001000
00100000
,
00000000
22000000
33000000
00202000
,
00303000
00020200
00030300
00000110
,
00001001
00000000
00010100
00000000
00001000
00010000
00100000
01000000
,
00100000
10000000
10000000
10000000
10000000
00000000
01100000
00000000
,
00012000
00000000
00100000
00100000
00000000
00000000
00010000
00013000
,
00001000
00010000
00000100
00000010
,
00001002
00000000
00000100
00000100
00000000
00000000
00000100
00000103
,
00000001
00000010
00000100
00001000
00000100
00010000
00001000
00010000
,
02100000
00010000
00020000
03030000
,
20020000
30030000
00022000
00033000
,
00000120
00001000
00002000
00003030
,
00022000
00033000
02200000
03300000
,
00020200
00000000
00000000
00000000
,
00030300
00000000
00000000
00000000
;

//---------------dance-double - ----------------
#NOTES:
     dance-double:
     CHALLENGE:
     Challenge:
     13:
     0.000000,0.000000,0.000000,0.000000,0.000000,0.000000,0.000000,0.000000,0.000000,0.000000,0.000000,0.000000,0.000000,0.000000,0.000000,0.000000,0.000000,0.000000,0.000000,0.000000,0.000000,0.000000:
00000000
00100000
00010000
01000000
00010000
00100000
00000000
00001000
,
00010000
00000100
00001000
00000010
00001000
00000100
00000000
00010000
,
00001000
00100000
01100000
00000000
00100000
00001000
00011000
00000000
,
00000010
00001000
00000100
00000010
00000001
00001001
00000000
00000110
,
00000000
00001000
00000010
00010000
00000010
00001000
00000000
00000100
,
00010000
00001000
01000000
00010000
01000000
00001000
00000000
00100000
,
00001000
00010000
00011000
00000000
00000100
00010000
00001000
00011000
,
00000000
00000000
00100000
00000000
00100000
00000000
00100000
00000000
00100000
00000000
00100000
01000000
00100000
00000000
00000000
00000000
,
00010000
00100000
01000000
20010000
00000000
00000000
01000000
01000000
,
31000000
00100000
00001000
00012000
00000000
00000000
00010000
00010000
,
00013000
00000100
00001000
00000000
00000010
00001000
00000001
00001002
,
00000000
00000000
00000010
00000000
00000000
00000000
00000100
00000000
00000000
00000000
00000013
00000000
00000001
00001000
00000001
00001000
,
00000010
00000000
00000100
00000000
00001000
00000000
00012000
00000000
00000000
00000000
00000000
00000000
00103000
00001000
00100000
00001000
,
00010000
00000000
00001000
00000000
01000000
00000000
01020000
00000000
00000000
00000000
00000000
00000000
10030000
00100000
10000000
00000000
,
00010000
00100000
01000000
00100000
00001000
00010000
00000100
00000110
,
00000000
00000000
00000100
00000000
00000100
00000000
00000100
00000000
00000100
00000000
00000100
00000010
00000100
00000000
00001000
00000001
,
00001000
00000000
00000000
00000000
00000010
00001000
00000010
00001000
00000010
00000000
00000000
00000000
00010000
00001000
00010000
00001000
,
00010000
00000000
00000000
00000000
00100000
01000000
00100000
01000000
00100000
00000000
00000000
00000000
10000000
00010000
10000000
00010000
,
10000000
01000000
00100000
00001000
00010000
00000010
00000100
00001000
,
00000100
00000000
00000001
00000010
00000100
00001000
00011000
00000000
,
10000000
00100000
10000000
00100000
10000000
00000000
00000000
00000000
00001000
00010000
00001000
00010000
00001000
00000000
00000000
00000000
,
00000010
00001000
00000010
00001000
00000010
00000000
00000100
00000000
00000001
00000000
00001000
00000000
00000100
00000000
00000010
00000000
,
00000011
00000000
00010100
00000000
00100000
01000000
10000000
01000000
,
00100000
00000000
00001000
00000000
00001000
00000000
00001000
00000000
00001000
00000000
00001000
00010000
00001000
00000000
00010000
00000100
,
00010000
00000010
00001000
00000100
00001000
00000100
00000010
00000001
,
00001000
00000010
00001000
00000100
00010000
00001000
00010000
00100000
,
01000000
00010000
01000000
10000000
01000000
00100000
01000000
00010000
,
00100000
00000000
00010000
00000000
10000000
00000000
00010000
00000000
10000000
00000000
01000000
00000000
00100000
00001000
00100000
00001000
,
00010000
00000000
00000100
00000000
00010000
00000100
00000000
00000100
00001000
00000000
00000010
00001000
00000000
00001000
00000100
00000000
,
00010000
00000000
00001000
00000000
00100000
00010000
00000000
00010000
01000000
00000000
00001000
00100000
00000000
00100000
00010000
00000000
,
00100000
00001000
00010000
00100000
01000000
00001000
00010000
00011000
,
00000000
00000000
00010000
00000000
00010000
00000000
00010000
00000000
00010000
00000000
00010000
00001000
00010000
00000000
00000000
00000000
,
00000120
00000000
00001000
00000000
00010000
00000000
00001030
00000010
,
00000100
00001000
00010000
00001000
00010000
00100000
01000000
00010000
,
10000000
00000000
01000000
00000000
10000000
00010000
10000000
00000000
00100000
00000000
01000000
00000000
00010000
01000000
00010000
00000000
,
00100000
00001000
00010000
00000100
00000010
00000001
00001000
00000010
,
00000100
00000010
00010010
00000000
00010000
00001000
00011000
00000000
,
00001000
01000000
01001000
00000000
00100000
00010000
10000000
00010000
,
10010000
00000000
01100000
00000000
00010000
00100000
00001000
00000100
,
00000010
00000000
00000100
00000000
00000100
00000000
00000100
00000000
00000100
00000000
00000100
00000001
00001000
00000001
00001000
00000001
,
00001000
00000000
00000100
00010000
00001000
00000000
00100000
00001000
,
00010000
00001000
00000000
00010000
00100000
01000000
10000000
01000000
,
00010000
01000000
00100000
10000000
00100000
00010000
00001000
00010000
,
00000100
00000100
00010000
00010000
00001000
00001000
00000010
00000010
,
00001002
00000000
00000000
00000000
00000100
00000000
00000000
00000000
00000103
00000000
00000000
00000000
00000010
00001000
00000010
00001000
,
00000010
00000000
00000000
00000000
00010000
00001000
00010000
00001000
00010000
00000000
00000000
00000000
01000000
00100000
01000000
00100000
,
01000000
00000000
00000000
00000000
00001000
00100000
00001000
00100000
00001000
00000000
00010000
00000000
00000100
00000000
00000010
00000000
,
00001001
00000000
00000000
00000000
00000100
00010000
00000100
00010000
00000100
00000000
00000000
00000000
00010000
00001000
00010000
00002000
,
00020000
00000000
00000000
00000000
,
00033000
00000000
00000000
00000000
;
