#TITLE:Poor Leno;
#SUBTITLE:;
#ARTIST:RöYKSOPP;
#TITLETRANSLIT:;
#SUBTITLETRANSLIT:;
#ARTISTTRANSLIT:RoYKSOPP;
#GENRE:PROGRESSIVE HOUSE;
#CREDIT:YonabearCWY;
#BANNER:Poor Leno.png;
#BACKGROUND:Poor Leno-bg.png;
#LYRICSPATH:;
#CDTITLE:SSX3.png;
#MUSIC:Poor Leno.ogg;
#OFFSET:-11.700000;
#SAMPLESTART:50.492744;
#SAMPLELENGTH:15.271500;
#SELECTABLE:YES;
#DISPLAYBPM:124.000000;
#BPMS:0.000000=123.760002
,128.000000=123.449997
,144.000000=123.760002
,196.000000=123.900002
,200.000000=123.760002
,206.000000=124.999992
,208.000000=123.760002
,237.000000=125.500000
,240.000000=123.760002
;
#STOPS:
;
#BGCHANGES:0.000=Poor Leno.mp4=1.000=1=0=0=StretchNoLoop==CrossFade==,
273.000=Poor Leno-bg.png=1.000=0=0=1=====,
99999=-nosongbg-=1.000=0=0=0 // don't automatically add -songbackground-
;
#KEYSOUNDS:;
#ATTACKS:;

//---------------dance-single - ----------------
#NOTES:
     dance-single:
     BEGINNER:
     Beginner:
     2:
     0.094127,0.162148,0.061771,0.061771,0.000000,96.000000,87.000000,9.000000,9.000000,0.000000,0.000000,0.094127,0.162148,0.061771,0.061771,0.000000,96.000000,87.000000,9.000000,9.000000,0.000000,0.000000:
1000
0000
0000
0000
,
1000
0000
0000
0000
,
0001
0000
0000
0000
,
0001
0000
0000
0000
,
0100
0000
0000
0000
,
0100
0000
0000
0000
,
0020
0000
0000
0000
,
0030
0000
0000
0000
,
0100
0000
0000
0000
,
0100
0000
0000
0000
,
0001
0000
0000
0000
,
0001
0000
0000
0000
,
0010
0000
0000
0000
,
0010
0000
0000
0000
,
2000
0000
0000
0000
,
3000
0000
0110
0000
,
0000
0001
0000
0000
,
0001
0000
0000
0000
,
0000
1000
0000
0000
,
1000
0000
0000
0000
,
0010
0000
0010
0000
,
0010
0000
0000
0000
,
0100
0000
0100
0000
,
0100
0000
0000
0000
,
0001
0000
0001
0000
,
0001
0000
0000
0000
,
2000
0000
0000
0000
,
3000
0000
0000
0000
,
0010
0000
0010
0000
,
0010
0000
0000
0000
,
0010
0000
0010
0000
,
0010
0000
0000
0000
,
0100
0000
0100
0000
,
0100
0000
0000
0000
,
0100
0000
0100
0000
,
0100
0000
0000
0000
,
1001
0000
0000
0000
,
0010
0010
0010
0000
,
0010
0000
0000
0000
,
0000
0000
0100
0100
,
0100
0000
0100
0000
,
0010
0000
0010
0000
,
1001
0000
0000
0000
,
0010
0010
0010
0000
,
0110
0000
0000
0000
,
0100
0100
0100
0000
,
0100
0000
0000
0000
,
1000
0000
1000
0000
,
0110
0000
0000
0000
,
0001
0001
0001
0000
,
1001
0000
0000
0000
,
0000
0000
0000
0000
,
0010
0000
0010
0000
,
0010
0000
0000
0000
,
0100
0000
0100
0000
,
0100
0000
0000
0000
,
0001
0000
0001
0000
,
0001
0000
0000
0000
,
1000
0000
1000
0000
,
1000
0000
0000
0000
,
2002
0000
0000
0000
,
3003
0000
0000
0000
,
0220
0000
0000
0000
,
0330
0000
0000
0000
,
2002
0000
0000
0000
,
3003
0000
0000
0000
,
0001
0000
0001
0000
,
1000
0000
1000
0000
;

//---------------dance-single - ----------------
#NOTES:
     dance-single:
     BASIC:
     Easy:
     5:
     0.186293,0.231640,0.123542,0.205903,0.000000,190.000000,172.000000,18.000000,30.000000,0.000000,0.000000,0.186293,0.231640,0.123542,0.205903,0.000000,190.000000,172.000000,18.000000,30.000000,0.000000,0.000000:
1000
0000
1000
0000
,
1000
1000
1000
0000
,
2002
0000
0000
3003
,
0000
0010
0000
0010
,
0220
0000
0000
0330
,
0000
1000
1000
1000
,
2002
0000
0000
3003
,
0010
0000
0100
0000
,
0010
0000
0010
0010
,
0010
0000
0100
0100
,
0100
0000
0001
0001
,
0001
0000
1000
1000
,
1000
0000
0010
0010
,
0010
0000
0100
0100
,
0220
0000
0000
0330
,
0000
0000
2002
3003
,
0000
0010
0010
0010
,
0010
0000
0010
0000
,
0000
0100
0100
0100
,
0100
0000
0100
0000
,
1001
0000
0010
0010
,
0010
0000
0100
0001
,
0010
0100
1000
0001
,
0100
0000
0010
0000
,
1001
0000
0100
0100
,
0100
0000
0010
1000
,
0220
0000
0000
0330
,
0001
1000
0100
0010
,
0001
0000
0001
0000
,
0001
0000
1000
0000
,
1000
0000
1000
0000
,
0010
0000
0010
0000
,
0220
0000
0000
0330
,
1000
0100
0010
0001
,
0220
0000
0000
0330
,
0000
0000
0000
0000
,
1000
0000
1000
1000
,
1000
0000
0001
0001
,
0001
0000
0100
0100
,
0100
0000
0010
0010
,
0010
1000
0100
1000
,
0001
0100
0001
0010
,
0220
0000
0000
0330
,
0001
0001
1000
1000
,
0010
0000
0010
0010
,
0010
0000
0100
0100
,
0100
0000
0001
0001
,
0001
0000
1000
1000
,
1000
0001
0010
0100
,
1000
0010
0100
0001
,
2002
0000
0000
3003
,
0100
0100
0010
0010
,
1002
0010
0010
0010
,
0013
0000
0010
0000
,
2001
0100
0100
0100
,
3100
0000
0100
0000
,
1001
0010
0001
0100
,
0001
0010
0100
0000
,
0110
1000
0010
0100
,
0001
1000
0010
0000
,
2002
0000
0000
0000
,
0000
0000
0000
3003
,
0220
0000
0000
0000
,
0000
0000
0000
0330
,
2000
0010
3100
0000
,
0002
1000
0103
0000
,
0200
0010
1300
0000
,
0020
0100
0031
0000
;

//---------------dance-single - ----------------
#NOTES:
     dance-single:
     DIFFICULT:
     Medium:
     7:
     0.251005,0.303084,0.226493,0.363761,0.003432,256.000000,223.000000,33.000000,53.000000,0.000000,0.000000,0.251005,0.303084,0.226493,0.363761,0.003432,256.000000,223.000000,33.000000,53.000000,0.000000,0.000000:
2000
0000
0001
3001
,
0120
0000
1000
1030
,
0202
0000
0000
0303
,
0010
0010
0001
0001
,
2020
0000
0000
3030
,
0100
0100
0010
0010
,
1002
0000
0000
0200
0000
0000
0303
0000
,
0010
1000
0100
0001
,
0100
1000
0100
0000
1000
0000
0010
0000
,
0000
0000
0100
0001
0100
0000
0010
0000
,
2200
0000
0000
3300
,
0010
0100
0010
0000
0100
0000
0001
0000
,
0022
0000
0000
0033
,
0001
1000
0001
0000
0100
0000
0010
0000
,
2010
0000
0000
0002
0000
0000
0000
0000
,
3003
0000
0000
0000
0220
0000
0000
0330
,
0010
0000
0010
0000
0010
0100
1000
0000
,
0020
0030
0020
0030
,
0100
0000
0100
0000
0100
0010
0001
0000
,
0110
1000
0110
0001
,
2001
0000
0010
0100
,
3010
1000
0000
0100
1000
0000
0010
0000
,
0102
1000
0010
0103
,
0001
0010
0100
1000
,
1020
0001
0100
1030
,
0010
0100
0000
0001
0100
0000
0010
0000
,
1200
0000
0000
0020
0000
0000
0330
0000
,
0010
0001
1000
0100
,
2001
0000
0000
0010
0010
0000
0000
0010
,
0010
0000
0000
0100
0100
0000
0000
0100
,
0100
0000
0000
0001
0001
0000
0000
0001
,
0001
0000
0000
0010
0010
0000
0000
0010
,
0020
0000
0000
3030
,
0202
0000
0000
0303
,
2002
0000
0000
0000
,
0000
0000
3000
0003
,
0210
1000
0001
1000
,
0302
0003
0002
0003
,
0120
0001
1000
0001
,
2030
3000
2000
3000
,
0010
0000
0100
0000
0001
0100
0001
0000
,
1000
0000
0010
0000
1000
0100
1000
0000
,
1002
0000
0000
0020
0000
0000
0033
0000
,
0001
0000
0100
0000
0010
1000
1010
0000
,
0201
1000
0010
1300
,
0100
0001
0100
0000
0001
0000
0010
0000
,
1020
0001
0100
0031
,
0010
0001
0010
0000
0100
0000
0010
0000
,
1200
0001
1000
0301
,
0100
1000
0001
1000
0010
0000
0100
0000
,
2001
0000
0000
0200
0000
0000
3300
0000
,
0010
0010
0100
0100
,
2001
0000
0010
3010
,
1000
0000
0001
0000
0010
0100
0010
0000
,
1002
0000
0100
0103
,
0001
1000
0001
0000
1000
0010
1000
0000
,
0120
0000
1000
1030
,
0010
0000
0100
0000
0001
1000
0001
0000
,
0210
0000
0001
0301
,
0010
0100
1000
0110
,
1002
0000
0000
1000
0000
0000
0100
0000
,
0000
0010
0000
0010
0010
0000
0103
0000
,
0022
0000
0000
0000
0000
0000
0000
0033
,
0000
0010
0000
0100
1000
0000
0010
0000
,
2001
0000
0000
0000
,
0020
0000
3000
0000
,
0200
0000
0030
0000
,
0002
0000
0000
0000
0000
0000
0000
0000
0000
0000
0000
0000
0000
0000
0000
0303
;

//---------------dance-single - ----------------
#NOTES:
     dance-single:
     EXPERT:
     Hard:
     10:
     0.399059,0.442969,0.192176,0.260810,0.171585,407.000000,379.000000,28.000000,38.000000,0.000000,0.000000,0.399059,0.442969,0.192176,0.260810,0.171585,407.000000,379.000000,28.000000,38.000000,0.000000,0.000000:
// measure 0
2000
0010
0100
3001
,  // measure 1
0010
0000
0010
0000
0000
1000
0000
0000
0001
0000
0000
0000
0100
0000
0000
0000
,  // measure 2
0120
0000
1000
0000
0001
0000
1000
1030
,  // measure 3
0000
0000
0100
0000
0000
0010
0000
0000
0001
0000
0000
0000
0010
0000
0000
0000
,  // measure 4
1002
0100
0010
1003
,  // measure 5
0100
0000
0100
0000
0000
0001
0000
0000
0010
0000
0000
0000
0100
0000
0000
0000
,  // measure 6
2001
0000
0000
0200
0000
0000
0000
0000
,  // measure 7
0000
0000
3300
0000
,  // measure 8
0002
0000
0010
0000
1000
0000
0010
0013
,  // measure 9
0001
0000
1000
0000
0000
0010
0000
0000
0100
0000
0001
0000
0101
0000
0000
0000
,  // measure 10
0020
0000
0001
0000
0100
0000
1000
1030
,  // measure 11
0010
0000
0100
0000
0000
0001
0000
0000
1000
0000
0100
0000
0010
0000
0000
0000
,  // measure 12
1200
0000
0001
0000
1000
0000
0010
0310
,  // measure 13
0100
0000
1000
0000
0000
0001
0000
0000
0100
0000
0010
0000
0110
0000
0000
0000
,  // measure 14
1002
0000
0010
0020
0000
0000
0000
0000
,  // measure 15
0000
0000
0033
0000
0220
0000
0000
0330
,  // measure 16
1000
0000
0000
0000
0000
0000
0010
0000
0000
0100
0000
0100
0000
0000
0010
0000
0000
0000
0100
0000
0000
0001
0000
0000
,  // measure 17
0100
0000
0001
0000
0010
0000
0100
1000
,  // measure 18
1001
0000
0000
0000
0000
0000
1000
0000
0000
0001
0000
0001
0000
0000
1000
0000
0000
0000
0001
0000
0000
0010
0000
0000
,  // measure 19
0100
1000
0100
0000
0010
0001
1000
1001
,  // measure 20
0020
1000
0001
1000
,  // measure 21
0100
0130
0000
0010
1000
0001
0100
1000
,  // measure 22
0100
0001
0100
0000
0001
0010
0001
1000
,  // measure 23
0000
0100
0010
0001
1000
0100
1100
0000
,  // measure 24
0001
0100
0010
0000
1000
0100
1000
0010
,  // measure 25
0000
0100
0001
0010
0100
1000
0001
0000
,  // measure 26
0102
0000
1000
2000
0003
0000
3020
0000
,  // measure 27
0130
1000
0100
0010
0000
1000
1001
0000
,  // measure 28
0100
0002
0000
0013
0100
0020
0000
0130
,  // measure 29
1000
0002
0000
0103
0010
2000
0000
3010
,  // measure 30
0100
0002
0000
0013
0001
1000
0010
0200
,  // measure 31
0000
0301
0100
0001
0010
1000
0010
0001
,  // measure 32
0002
0000
0000
0100
0000
0000
0010
0000
0000
1000
0000
0000
0013
0000
0001
0000
,  // measure 33
0200
0000
0000
0001
0000
0000
1000
0000
0000
0010
0000
0000
0301
0000
0100
0000
,  // measure 34
0020
0000
0000
0001
0000
0000
0100
0000
0000
1000
0000
0000
0130
0000
0010
0000
,  // measure 35
2000
0100
0010
3001
,  // measure 36
0120
0000
1000
1000
1000
0000
0001
0001
,  // measure 37
0000
0000
0130
0000
0000
0010
0000
0000
1000
0000
0100
0000
0010
0000
0000
0000
,  // measure 38
0201
1000
0010
0301
,  // measure 39
1020
0001
0100
1030
,  // measure 40
0010
0000
0000
0100
0001
0000
0100
0000
0001
0000
0000
1000
0010
0000
1000
0000
,  // measure 41
0010
0000
0000
0010
0100
0000
0001
0000
0010
0000
0100
0000
1000
0000
0000
0000
,  // measure 42
0102
0000
1000
2000
0000
0000
3003
0000
,  // measure 43
0010
0000
0100
0000
0001
1000
0100
0010
,  // measure 44
1100
0000
0000
0100
0001
0000
0010
0000
0001
0000
0000
1000
0010
0000
1000
0000
,  // measure 45
0100
0000
1000
0000
0000
0001
0000
0000
0010
0000
0100
0000
1000
0000
0000
0000
,  // measure 46
0101
0000
0000
1000
0100
0000
1000
0000
0010
0000
0000
0100
0001
0000
0010
0000
,  // measure 47
0001
0000
0100
0000
0000
0010
0000
0000
1000
0000
0001
0000
0010
0000
0000
0000
,  // measure 48
1100
0000
0000
0010
0001
0000
0100
0000
0010
0000
0000
1000
0100
0000
0010
0000
,  // measure 49
0001
0000
0100
0000
0000
0001
0000
0000
0010
0000
0100
0000
0001
0000
0000
0000
,  // measure 50
2100
0000
0001
0002
0000
0000
3003
0000
,  // measure 51
1000
0000
0010
0000
0100
0001
0010
0100
,  // measure 52
0011
0000
0000
0000
0000
0000
1000
0000
0000
0010
0000
0010
0000
0000
1000
0000
0000
0000
0001
0000
0000
0100
0000
0000
,  // measure 53
0010
1000
0100
0001
0100
1000
0001
0010
,  // measure 54
1100
0000
0000
0000
0000
0000
0001
0000
0000
0100
0000
0100
0000
0000
0001
0000
0000
0000
0100
0000
0000
0010
0000
0000
,  // measure 55
1000
0000
0001
0000
0010
0000
0000
0100
1000
0000
0010
0000
1000
0000
0001
0000
,  // measure 56
0101
0000
0000
0000
0000
0000
0010
0000
0000
0100
0000
0100
0000
0000
0001
0000
0000
0000
1000
0000
0000
0100
0000
0000
,  // measure 57
0010
0000
0001
0000
0100
0000
0000
0001
1000
0000
0010
0000
1000
0000
0100
0000
,  // measure 58
0110
0000
0000
0000
0000
0000
0100
0000
0000
1000
0000
1000
0000
0000
0010
0000
0000
0000
0100
0000
0000
0010
0000
0000
,  // measure 59
0001
0000
0010
0000
0100
0000
0010
1000
0010
0000
0100
0000
0001
0000
1000
0000
,  // measure 60
1002
0000
0000
0010
0000
0000
0100
0000
,  // measure 61
0000
0000
0010
0000
0000
0100
0000
0000
0010
0000
0000
0000
1003
0000
0000
0000
,  // measure 62
2100
0000
0000
0001
0000
0000
0010
0000
,  // measure 63
0000
0000
0100
0000
0000
0010
0000
0000
0001
0000
0000
0000
3200
0000
0000
0000
,  // measure 64
0320
0001
1000
0001
,  // measure 65
0230
0010
0001
1300
,  // measure 66
1100
0000
1000
0000
0000
0100
0000
0000
1000
0000
0000
0010
0000
0100
0001
0100
,  // measure 67
0000
0000
0010
0000
0000
0100
0000
0000
0001
0000
0000
1000
0000
0010
0100
0010
;

//---------------dance-double - ----------------
#NOTES:
     dance-double:
     BASIC:
     Easy:
     5:
     0.176488,0.233356,0.096088,0.164722,0.000000,180.000000,166.000000,14.000000,24.000000,0.000000,0.000000,0.176488,0.233356,0.096088,0.164722,0.000000,180.000000,166.000000,14.000000,24.000000,0.000000,0.000000:
10000000
00000000
10000000
00000000
,
10000000
00000000
00000000
00000000
,
00010000
00000000
00010000
00000000
,
00010000
00000000
00000000
00000000
,
00001000
00000000
00001000
00000000
,
00001000
00000010
00000100
00000001
,
00002002
00000000
00000000
00003003
,
00000000
00000100
00000000
00000100
,
00010000
00000000
00010000
00000000
,
00001000
00000000
00001000
00000000
,
00100000
00000000
00100000
00000000
,
01000000
00000000
01000000
00000000
,
10000000
00000000
10000000
00000000
,
00010000
00100000
00001000
00010000
,
00022000
00000000
00000000
00033000
,
00000000
00000000
00000220
00000330
,
00001000
00001000
00001000
00001000
,
00001000
00000000
00000100
00010000
,
00100000
00100000
00100000
00100000
,
00100000
00000000
01000000
00010000
,
20010000
00000000
31000000
01000000
,
01000000
00000000
00100000
00001000
,
00021000
00000000
00001000
00001000
,
00031000
00010000
00000010
00001000
,
00000100
00000010
00000001
00001000
,
00000010
00000000
00000100
00001000
,
00010000
00100000
01000000
00010000
,
10000000
00100000
01100000
00000000
,
00002000
00010000
00013000
00000000
,
00020000
00000100
00030100
00000000
,
00000020
00000001
00000031
00000000
,
00002000
00000100
00003100
00000000
,
00022000
00000000
00000000
00033000
,
02200000
00000000
00000000
03300000
,
20020000
00000000
00000000
00000000
,
00000000
00000000
00000000
30030000
,
01000000
00000000
01000000
00000000
,
00100000
00000000
00100000
00000000
,
00001000
00000000
00001000
00000000
,
00010000
00000000
00010000
00000000
,
00000100
00000100
00001000
00001000
,
00000010
00000100
00001000
00000100
,
00000001
00000100
00000010
00001000
,
00000100
00010000
00000010
00010000
,
00011000
00000000
00100000
00010000
,
01000000
00000000
01000000
00000000
,
00100000
10000000
00010000
00000000
,
00100000
00000000
00100000
00000000
,
00001000
00010000
00000100
00000000
,
00000010
00000000
00000010
00000000
,
00000100
00001000
00000001
00000000
,
00001000
00001000
00001000
00001000
,
00001010
00000000
00001000
00010000
,
00001000
00000000
01000000
00010000
,
01000000
00000000
00100000
10000000
,
00100000
00000000
00100000
00000000
,
01000000
00001000
01000000
00000000
,
00001000
00010000
00001000
00000000
,
00010000
00000010
00010000
00000000
,
00000100
00010000
00000100
00000000
,
00000220
00000000
00000000
00000000
,
00000330
00000000
00000000
00000000
,
00022000
00000000
00000000
00000000
,
00033000
00000000
00000000
00000000
,
20020000
00000000
00000000
00000000
,
30030000
00000000
00000000
00000000
,
00001000
00000000
00001000
00010000
,
00000100
00000000
00000100
00000010
,
00000001
00000000
00000000
00000000
;

//---------------dance-double - ----------------
#NOTES:
     dance-double:
     DIFFICULT:
     Medium:
     9:
     0.334347,0.349391,0.157859,0.150995,0.034317,341.000000,318.000000,23.000000,22.000000,0.000000,0.000000,0.334347,0.349391,0.157859,0.150995,0.034317,341.000000,318.000000,23.000000,22.000000,0.000000,0.000000:
00010000
00001000
00010000
00000000
00001000
00000000
00100000
00000000
,
00001000
00010000
00001000
00000000
00010000
00000000
00000100
00000000
,
00010000
00000000
00000100
00000000
00000010
00000001
00000010
00000000
,
00000001
00000100
00001000
00010000
,
00100000
00000000
01000000
00000000
00010000
01000000
00010000
00000000
,
00100000
00010000
00001000
00000100
,
00000012
00000000
00000000
00002000
00000000
00000000
00003003
00000000
,
00000100
00000000
00010000
00000000
00001000
00010000
00001000
00000000
,
00120000
10000000
01000000
10030000
,
00000000
00000000
01000000
00000000
00000000
00100000
00000000
00000000
00001000
00000000
00000000
00000000
00010000
00000000
00000000
00000000
,
00002010
00000100
00000001
00003100
,
00000000
00000000
00001000
00000000
00000000
00000010
00000000
00000000
00010000
00000000
00000000
00000000
00001000
00000000
00000000
00000000
,
01020000
10000000
00100000
01030000
,
00000000
00000000
00100000
00000000
00000000
00010000
00000000
00000000
00001000
00000000
00010000
00000000
00001000
00000000
00000000
00000000
,
00010200
00000000
00000000
00002000
00000000
00000000
00003300
00000000
,
00000000
00000000
00000000
00000000
00022000
00000000
00000000
00033000
,
00000000
00100000
00000000
00100000
00000000
01000000
00000000
01000000
,
10000000
00010000
00000000
00100000
00001000
00100000
00000000
00001000
,
00000000
00001000
00000000
00010000
00000000
00010000
00000000
00000100
,
00010000
00000010
00000000
00001000
00000100
00000010
00001001
00000000
,
00000120
00000000
00010000
00000000
00000100
00000000
00010030
00010000
,
00000000
00000000
00000100
00000000
00000000
00001000
00000000
00000000
00010000
00000000
00000000
00000000
00100000
00000000
00000000
00000000
,
02010000
00000000
00100000
00000000
00001000
00000000
00100000
03100000
,
00000000
00000000
10000000
00000000
00000000
00010000
00000000
00000000
00100000
00000000
01000000
00000000
00100000
00000000
00001000
00000000
,
00010000
00000000
00000100
00001000
00000100
00000000
00010000
00000010
,
00010000
00000000
00000100
00000000
00000000
00001000
00000000
00000000
00000001
00000000
00000010
00000000
00000100
00000000
00000000
00000000
,
00012000
00000000
00000000
02000000
00000000
00000000
03003000
00000000
,
00010000
00000000
00010000
00000000
10000000
00000000
10000000
00100000
,
01000000
00000000
01000000
00000000
00100000
00000000
00010000
00001000
,
00100000
00000000
00100000
00000000
00010000
00000000
00001000
00000100
,
00000010
00000000
00000001
00001000
00000010
00000000
00001000
00000100
,
00010000
00000000
00001000
00100000
00010000
00000000
01000000
00100000
,
10020000
00000000
00000000
01000000
00000000
00000000
00130000
00000000
,
01000000
00000000
00000000
01000000
00000000
00000000
00010000
00000000
00000000
00010000
00000000
00000000
00100000
00000000
00001000
00000000
,
00021000
00000000
00000000
00000100
00000000
00000000
00030010
00000000
,
00000101
00001010
00011000
01010000
,
10000000
00100000
10000000
00000000
01000000
00100000
01000000
00000000
,
00010000
00001000
00010000
00000000
00000010
00001000
00000010
00000000
,
00001000
00000000
00000001
00000000
00000010
00000100
00000010
00000100
,
00000000
00001000
00010000
00000000
00100000
01000000
00100000
00000000
,
10010000
00100000
00001000
00100000
,
00001000
00010000
00000100
00000010
00000100
00000000
00001010
00000000
,
00000100
00000001
00000010
00000100
,
00010000
00001000
00000100
00001000
00010000
00000000
00101000
00000000
,
00010000
00000000
10000000
00100000
00000000
10000000
00010000
00000000
,
00100000
00000000
00001000
00000000
00010000
00000100
00010000
00000000
,
00000100
00000000
00000010
00000100
00000000
00001000
00000100
00000000
,
00001000
00000000
00000001
00000010
00000001
00000000
00000100
00000000
,
00000010
00010000
00000010
00000000
00001000
00000000
00000100
00000000
,
00010000
00001000
00010000
00000000
00001000
00000000
00100000
01000000
,
00100000
00000000
00001000
00010000
00001000
00000000
00100000
00000000
,
00010000
00000000
01000000
00001000
01000000
00010000
00100000
00000000
,
00102000
00010000
01000000
00013000
,
00001000
00010000
00000000
00000100
00010000
00000000
00000100
00000000
,
00020010
00000100
00001000
00030100
,
00001000
00000010
00000000
00000100
00000001
00000000
00000010
00000100
,
00001000
00000000
00010000
00000000
00001000
00100000
00010000
00000000
,
01000000
00000000
00100000
00000000
10000000
01000000
00100000
00000000
,
00011000
00000000
00000100
00000000
00010000
00001000
00000100
00000000
,
00000010
00000000
00000100
00000001
00000000
00001000
00000010
00000000
,
00012000
00000000
00000000
00100000
00000000
00000000
01000000
00000000
,
00000000
00000000
00100000
00000000
00000000
00010000
00000000
00000000
00100000
00000000
00000000
00000000
00013000
00000000
00000000
00000000
,
00000200
00000010
00000301
00001000
,
00000200
00000000
00010000
00000000
00000000
00001000
00000000
00000000
00010000
00000000
00000000
00000000
00001000
00000000
00000000
00000000
,
00020300
00001000
00001000
00031000
,
00010000
00001000
00100000
01000000
,
20000000
00010000
00010000
30010000
,
10000000
00000000
00100000
00000000
01000000
00001000
00010000
00000100
;

//---------------dance-double - ----------------
#NOTES:
     dance-double:
     EXPERT:
     Hard:
     12:
     0.515737,0.512912,0.130405,0.130405,0.353466,526.000000,507.000000,19.000000,19.000000,0.000000,0.000000,0.515737,0.512912,0.130405,0.130405,0.353466,526.000000,507.000000,19.000000,19.000000,0.000000,0.000000:
00102000
00010000
00100000
01003000
,
00010000
00001000
00010000
00000100
00000010
00000001
00001000
00000000
,
00020100
00000010
00000100
00031000
,
00100000
00001000
00000000
00010000
00100000
01000000
00010000
00000000
,
20100000
01000000
00010000
30001000
,
00000000
00010000
00001000
00000100
00000010
00001000
00000001
00000000
,
00000102
00000000
00001000
00002000
00000000
00000000
00000000
00000000
,
00003003
00000000
00000100
00010000
,
00001000
00000000
00100000
00000000
00001000
00100000
00000000
00001000
00100000
00000000
00010000
01000000
00000000
00010000
01000000
00000000
,
00000000
00000000
00100000
00000000
00000000
10000000
00000000
00000000
01010000
00000000
00000000
00000000
00100000
00000000
00001000
00000000
,
00010000
00000000
00000100
00000000
00010000
00000010
00000000
00010000
00000010
00000000
00001000
00000010
00000000
00001000
00000010
00000000
,
00000000
00000000
00000100
00000000
00000000
00000001
00000000
00000000
00000110
00000000
00000000
00000000
00001000
00000000
00000100
00000000
,
00010000
00000000
00001000
00000000
00100000
00010000
00000000
10000000
00010000
00000000
01000000
00100000
00000000
01000000
00010000
00000000
,
00100000
00001000
00000100
00001000
00010000
00000100
00000010
00000100
,
00001000
00000000
00000000
00000000
00000001
00000000
00000010
00000000
00000100
00000000
00001000
00000100
00000000
00010000
00000100
00000000
,
00010000
00000000
00001000
00000000
00100000
00010000
00000000
10000000
00020000
00000000
00100000
00000000
00130000
00000000
00000000
00000000
,
01100000
00000000
00000000
10000000
00000000
00000000
00010000
00000000
00000000
00100000
00000000
00100000
00000000
00000000
00010000
00000000
00000000
01000000
00010000
00000000
00000000
00100000
00000000
00000000
,
00001000
00100000
00010000
01000000
00010000
00100000
00001000
00010000
,
00000100
00000000
00000000
00000010
00000000
00000000
00000001
00000000
00000000
00001000
00000000
00001000
00000000
00000000
00000100
00000000
00000000
00000010
00000100
00000000
00000000
00001000
00000000
00000000
,
00000100
00010000
00001000
00010000
00000010
00010000
00000100
00010000
,
00011000
00000000
00000000
00000000
01100000
00000000
00000000
00000000
10000000
00010000
00000000
00100000
01000000
00000000
01000000
00000000
,
00101000
00000000
00011000
00000000
00000100
00000010
00000001
00001000
,
00000010
00000000
00000100
00000000
00000001
00000010
00000000
00000001
00001000
00000000
00000010
00000000
00001000
00000100
00000000
00010000
,
00000100
00010000
00001000
00100000
01000000
10000000
00010000
00000000
,
01000000
00000000
00100000
00000000
10000000
01000000
00000000
00100000
00010000
00000000
01000000
00000000
00010000
00100000
00000000
00001000
,
00100000
00000000
00001000
00000000
00010000
00000100
00000000
00010000
00000010
00000000
00000100
00000000
00000001
00000000
00000000
00000000
,
00001020
00000000
00010000
00020000
00000000
00000000
00030030
00000000
,
00010000
00000000
00001000
00100000
00000000
00000000
00010000
00000000
10000000
01000000
00000000
00100000
00010000
00000000
00100000
00000000
,
00001000
00010000
00001000
00010000
00000100
00000010
00000100
00000001
,
00000100
00000000
00001000
00000000
00000100
00000000
00010000
00000000
00001000
00000000
00100000
00000000
01000000
00000000
00100000
00001000
,
00100000
00010000
00100000
01000000
10000000
00010000
10000000
01000000
,
00100000
00000000
01000000
00000000
10000000
00000000
01000000
00000000
00010000
00000000
00001000
00000000
00010000
00000000
00000010
00001000
,
00000010
00000000
00001000
00000001
00000000
00000010
00000100
00000000
00001000
00000100
00000000
00000010
00000001
00000000
00000100
00000000
,
00000010
00000000
00001000
00000100
00000000
00010000
00000100
00000000
00001000
00010000
00000000
00100000
01000000
00000000
00100000
00000000
,
01000000
00000000
10000000
00010000
00000000
00100000
01000000
00000000
00100000
00001000
00000000
00010000
00001000
00000000
00010000
00000000
,
00000200
00002300
00003020
00000032
,
00000013
00001000
00010000
00001000
00000010
00001000
00000100
00010000
,
00001000
00000000
00001000
00000000
00000000
00100000
00000000
00000000
00010000
00000000
01000000
00000000
10000000
00000000
00000000
00000000
,
01000000
00010000
00001000
00010000
01000000
00100000
00010000
00001000
,
00010000
00000000
00000100
00000000
00000000
00001000
00000000
00000000
00000010
00000000
00001000
00000000
00001001
00000000
00000000
00000000
,
00000010
00000000
00000000
00001000
00000000
00000000
00000100
00000000
00000000
00001000
00000000
00000100
00010000
00000000
00000000
00001000
00000000
00000000
00010000
00000000
00000000
00100000
00000000
01000000
,
00100000
00000000
00000000
01000000
00000000
00000000
10000000
00000000
00000000
00010000
00000000
10000000
00100000
00000000
00000000
01000000
00000000
00000000
00010000
00000000
00000000
00000000
00000000
00000000
,
00100000
00000000
00000000
00001000
00000000
00000000
00010000
00000000
00000000
00000100
00000000
00010000
00001000
00000000
00000000
00010000
00000000
00000000
00000100
00000000
00000000
00001000
00000000
00000010
,
00000100
00000000
00000000
00000001
00000000
00000000
00000010
00000000
00000000
00000001
00000000
00001000
00000010
00000000
00000000
00000100
00000000
00000000
00000100
00000000
00000000
00000010
00000000
00000000
,
00001000
00000100
00010000
00000100
00001000
00010000
00100000
00010000
,
00100000
00001000
00100000
00010000
01000000
00010000
00100000
00001000
,
00100000
00000000
00000000
00000000
00000000
00000000
00010000
00000000
10000000
00000000
00000000
10000000
01000000
00000000
00000000
00100000
00000000
00000000
00010000
00000000
00000000
00100000
00000000
00000000
,
00000000
00000000
00000000
00001000
00000000
00000000
00010000
00000000
00001000
00000000
00000000
00010000
00000100
00000000
00000000
00001000
00000000
00000000
00000010
00000000
00000000
00000001
00000000
00000000
,
00000010
00000000
00000000
00000000
00000000
00000000
00000100
00000000
00000010
00000000
00000000
00001000
00000010
00000000
00000000
00010000
00000000
00000100
00000000
00000000
00010000
00001000
00000000
00000000
,
00010000
00100000
01000000
00010000
10000000
01000000
00100000
00000000
,
00021000
00000000
00001000
00002000
00000000
00000000
00000000
00000000
,
00033000
00000000
00000100
00000010
00000001
00001000
00000010
00000100
,
00011000
00000000
00000000
00000000
00000000
00000000
00100000
00000000
00000000
01000000
00000000
01000000
00000000
00000000
00100000
00000000
00000000
01000000
10000000
00000000
00000000
00100000
00000000
00000000
,
01000000
00000000
00010000
00000000
00100000
00000000
00001000
00100000
00001000
00000000
00010000
00000000
00000100
00000000
00000010
00000100
,
00000010
00000000
00000000
00000000
00000000
00000000
00000000
00000000
00000000
00000000
00000000
00000000
00000001
00000000
00000000
00000000
00000000
00000000
00000100
00000000
00000000
00000000
00000100
00000000
00000000
00000000
00000000
00000000
00001000
00000000
00000000
00000000
00000000
00000000
00000100
00000000
00000010
00000000
00000000
00000000
00000000
00000000
00001000
00000000
00000000
00000001
00000000
00000000
,
00001000
00000000
00000010
00000000
00000100
00000000
00001000
00010000
00001000
00000000
00010000
00000000
00100000
01000000
00100000
00000000
,
10010000
00000000
00000000
00000000
00000000
00000000
01000000
00000000
00000000
00010000
00000000
00010000
00000000
00000000
10000000
00000000
00000000
00100000
01000000
00000000
00000000
00001000
00000000
00000000
,
00100000
00001000
00100000
00000000
00001000
00000000
00010000
00000100
00010000
00000000
00000100
00000000
00001000
00000000
00000001
00000010
,
00000001
00000000
00000000
00000000
00000000
00000000
00000100
00000000
00000000
00001000
00000000
00001000
00000000
00000000
00000100
00000010
00000000
00000000
00000100
00000000
00000000
00000001
00000000
00000000
,
00000010
00000100
00000010
00000000
00000100
00000000
00001000
00000000
00010000
00100000
00010000
00100000
00010000
00000000
10000000
00000000
,
20010000
00000000
00000000
00100000
00000000
00000000
01000000
00000000
,
30002000
00000000
00010000
00000000
00000000
00100000
00000000
00000000
01000000
00000000
00000000
00000000
00100000
00000000
00000000
00000000
,
00013000
00000000
00001000
00000000
00010000
00000100
00010000
00000000
,
00000020
00000000
00000100
00000000
00000000
00001000
00000000
00000000
00000100
00000000
00000000
00000000
00000031
00000000
00000000
00000000
,
00001200
00010000
00001000
00010300
,
00210000
00001000
00010000
00301000
,
00100000
00000000
00010000
00000000
10000000
00100000
00000000
01000000
00010000
00000000
00100000
01000000
00000000
00100000
00010000
00100000
,
00010000
00000000
00001000
00000000
00000100
00000010
00000000
00000001
00000100
00000000
00000010
00001000
00000000
00000100
00000010
00000100
;
