#TITLE:PRECIOUS THING;
#SUBTITLE:;
#ARTIST:OLLI;
#TITLETRANSLIT:;
#SUBTITLETRANSLIT:;
#ARTISTTRANSLIT:;
#GENRE:G-FUNK;
#CREDIT:YonabearCWY;
#BANNER:PRECIOUS THING.png;
#BACKGROUND:PRECIOUS THING-bg.png;
#LYRICSPATH:;
#CDTITLE:cdtitle.png;
#MUSIC:Precious Thing.ogg;
#OFFSET:-4.430000;
#SAMPLESTART:4.270002;
#SAMPLELENGTH:17.500000;
#SELECTABLE:YES;
#DISPLAYBPM:110.000000;
#BPMS:0.000000=110.000000
;
#STOPS:
;
#BGCHANGES:0.000=bluey1.mp4=1.000=1=0=1===CrossFade==,
8.000=amoeba1.mp4=1.000=0=0=1=====,
12.000=ASS 1.png=1.000=0=0=1=====,
13.000=ASS 2.png=1.000=0=0=1=====,
14.000=ASS 3.png=1.000=0=0=1=====,
15.000=ASS 4.png=1.000=0=0=1=====,
16.000=cyber1.mp4=1.000=0=0=1=====,
24.000=cyber2.mp4=1.000=0=0=1=====,
28.000=ASS 5.png=1.000=0=0=1=====,
29.000=ASS 6.png=1.000=0=0=1=====,
30.000=ASS 7.png=1.000=0=0=1=====,
31.000=ASS 8.png=1.000=0=0=1=====,
32.000=ring4.mp4=1.000=0=0=1=====,
44.000=ASS 1.png=1.000=0=0=1=====,
45.000=ASS 2.png=1.000=0=0=1=====,
46.000=ASS 3.png=1.000=0=0=1=====,
47.000=ASS 4.png=1.000=0=0=1=====,
48.000=ring5.mp4=1.000=0=0=1=====,
60.000=ASS 5.png=1.000=0=0=1=====,
61.000=ASS 6.png=1.000=0=0=1=====,
62.000=ASS 7.png=1.000=0=0=1=====,
63.000=ASS 8.png=1.000=0=0=1=====,
64.000=girl1.mp4=1.000=0=0=1=====,
72.000=afro1.mp4=1.000=0=0=1=====,
76.000=ASS 1.png=1.000=0=0=1=====,
77.000=ASS 2.png=1.000=0=0=1=====,
78.000=ASS 3.png=1.000=0=0=1=====,
79.000=ASS 4.png=1.000=0=0=1=====,
80.000=smoke1.mp4=1.000=0=0=1=====,
88.000=car4.mp4=1.000=0=0=1=====,
92.000=ASS 5.png=1.000=0=0=1=====,
93.000=ASS 6.png=1.000=0=0=1=====,
94.000=ASS 7.png=1.000=0=0=1=====,
95.000=ASS 8.png=1.000=0=0=1=====,
96.000=kaliedoscope8.mp4=1.000=0=0=1=====,
108.000=ASS 9.png=1.000=0=0=1=====,
109.000=ASS 10.png=1.000=0=0=1=====,
110.000=ASS 11.png=1.000=0=0=1=====,
111.000=ASS 12.png=1.000=0=0=1=====,
112.000=kaliedoscope7.mp4=1.000=0=0=1=====,
124.000=ASS 13.png=1.000=0=0=1=====,
125.000=ASS 14.png=1.000=0=0=1=====,
126.000=ASS 15.png=1.000=0=0=1=====,
127.000=ASS 16.png=1.000=0=0=1=====,
128.000=singer1.mp4=1.000=0=0=1=====,
136.000=girl1.mp4=1.000=0=1=1=StretchRewind====,
140.000=ASS 9.png=1.000=0=0=1=====,
141.000=ASS 10.png=1.000=0=0=1=====,
142.000=ASS 11.png=1.000=0=0=1=====,
143.000=ASS 12.png=1.000=0=0=1=====,
144.000=silhouette1.mp4=1.000=0=0=1=====,
152.000=afro1.mp4=1.000=0=1=1=StretchRewind====,
160.000=kaliedoscope8.mp4=1.000=0=1=1=StretchRewind====,
168.000=cyber1.mp4=1.000=0=1=1=StretchRewind====,
172.000=ASS 13.png=1.000=0=0=1=====,
173.000=ASS 14.png=1.000=0=0=1=====,
174.000=ASS 15.png=1.000=0=0=1=====,
175.000=ASS 16.png=1.000=0=0=1=====,
176.000=kaliedoscope7.mp4=1.000=0=1=1=StretchRewind====,
184.000=cyber2.mp4=1.000=0=1=1=StretchRewind====,
192.000=bluey1.mp4=1.000=0=1=1=StretchRewind====,
204.000=PRECIOUS THING-bg.png=1.000=0=0=1=====,
99999=-nosongbg-=1.000=0=0=0 // don't automatically add -songbackground-
;
#KEYSOUNDS:;
#ATTACKS:;

//---------------dance-single - ----------------
#NOTES:
     dance-single:
     BEGINNER:
     Beginner:
     1:
     0.000000,0.000000,0.000000,0.000000,0.000000,0.000000,0.000000,0.000000,0.000000,0.000000,0.000000,0.000000,0.000000,0.000000,0.000000,0.000000,0.000000,0.000000,0.000000,0.000000,0.000000,0.000000:
1000
0000
0000
0000
,
1000
0000
0000
0000
,
0001
0000
0000
0000
,
0001
0000
0000
0000
,
1000
0000
0000
0000
,
1000
0000
0000
0000
,
0001
0000
0000
0000
,
0001
0000
0000
0000
,
0100
0000
0000
0000
,
0100
0000
0000
0000
,
0010
0000
0000
0000
,
0010
0000
0000
0000
,
0100
0000
0000
0000
,
0100
0000
0000
0000
,
0010
0000
0000
0000
,
0010
0000
0000
0000
,
1001
0000
0000
0000
,
0100
0100
0100
0000
,
1001
0000
0000
0000
,
0010
0000
0010
0000
,
1001
0000
0000
0000
,
0100
0100
0100
0000
,
1001
0000
0000
0000
,
0010
0000
0010
0000
,
1000
1000
1000
0000
,
1000
0000
0000
0000
,
0001
0001
0001
0000
,
0001
0000
0000
0000
,
0010
0000
0010
0000
,
0010
0000
0000
0000
,
0100
0000
0100
0000
,
0100
0000
0000
0000
,
1000
1000
1000
0000
,
1000
0000
0000
0000
,
0100
0000
0100
0000
,
0100
0000
0000
0000
,
0010
0010
0010
0000
,
0010
0000
0000
0000
,
0001
0000
0001
0000
,
0001
0000
0000
0000
,
0010
0000
0001
0000
,
1000
0000
0000
0000
,
0100
0000
1000
0000
,
0001
0000
0000
0000
,
1000
0000
0010
0000
,
0100
0000
0001
0000
,
0010
0000
0100
0000
,
1000
0000
0001
0000
,
1001
0000
0000
0000
,
0010
0000
0000
0000
,
0010
0000
0000
0000
,
0020
0000
0000
0030
;

//---------------dance-single - ----------------
#NOTES:
     dance-single:
     BASIC:
     Easy:
     4:
     0.000000,0.000000,0.000000,0.000000,0.000000,0.000000,0.000000,0.000000,0.000000,0.000000,0.000000,0.000000,0.000000,0.000000,0.000000,0.000000,0.000000,0.000000,0.000000,0.000000,0.000000,0.000000:
1000
0000
1000
0000
,
1000
0000
1000
0000
,
0010
0010
0000
0010
,
0100
0100
0100
0100
,
0001
0000
0001
0000
,
0001
0000
0001
0000
,
0010
0010
0000
0010
,
0100
0100
0100
0100
,
1001
0000
0100
0010
,
1001
0000
0010
0100
,
1001
0000
1000
0010
,
0100
0100
0100
0100
,
0100
0010
0011
0000
,
0010
0100
1100
0000
,
0100
0010
1001
0000
,
0100
0100
0100
0100
,
0220
0000
0000
0330
,
0001
1000
2002
3003
,
0010
0010
0010
0000
,
0100
0100
0100
0100
,
0100
0000
0100
0000
,
0001
0000
1000
0000
,
0001
0000
1000
0000
,
0100
0100
0100
0100
,
0110
0110
1001
0000
,
0010
0010
0010
0000
,
1001
1001
0110
0000
,
0100
0100
0100
0100
,
0100
0000
0001
0000
,
0010
0000
1000
0000
,
0010
0000
0001
0000
,
0100
0100
0100
0100
,
2002
3003
0010
0100
,
0020
0030
0020
0030
,
0100
0001
0010
0100
,
1000
0100
0001
0010
,
1000
0001
1000
0001
,
0100
0010
0100
0010
,
1000
0010
1000
0001
,
0100
0001
0010
1000
,
0001
1000
0002
0003
,
2000
3000
2000
3000
,
0010
0100
0010
0001
,
0010
0100
0001
1000
,
0100
0010
0100
0010
,
0001
1000
0001
1000
,
0010
0100
0001
0010
,
0001
0100
1000
0010
,
0220
0000
0000
0330
,
2020
0000
0000
3030
,
0202
0000
0000
0303
,
2002
0000
0000
3003
;

//---------------dance-single - ----------------
#NOTES:
     dance-single:
     DIFFICULT:
     Medium:
     7:
     0.000000,0.000000,0.000000,0.000000,0.000000,0.000000,0.000000,0.000000,0.000000,0.000000,0.000000,0.000000,0.000000,0.000000,0.000000,0.000000,0.000000,0.000000,0.000000,0.000000,0.000000,0.000000:
1000
0010
0000
0100
0001
0000
0110
0000
,
0001
0010
0001
0000
1000
0010
1000
0000
,
0002
0100
1000
0013
,
0110
0011
0110
1100
,
0100
0001
0000
1000
0010
0000
1001
0000
,
0100
1000
0100
0000
0010
0100
0010
0000
,
2000
0001
0100
3010
,
0101
1001
1010
1001
,
0010
0001
0010
0000
0100
0000
0001
0000
,
0010
0100
0010
0000
0100
0000
1000
0000
,
0010
0100
0001
0000
1000
0000
0010
0000
,
1100
0101
1100
0110
,
0001
1000
0001
0000
0010
0000
0100
0000
,
0001
0010
0001
0000
0100
0000
1010
0000
,
0100
0001
0100
0000
0010
0000
0001
0000
,
0011
1010
0011
0110
,
0002
1000
0000
1000
1000
0000
1000
0000
,
2003
0010
0100
0001
,
3010
0100
0001
0010
,
0011
1010
1100
0101
,
0010
0000
0001
0000
1000
0100
0010
0000
,
0001
0000
0100
0000
0001
0100
1000
0100
,
0010
0100
0001
1000
,
1100
0110
0011
1010
,
0010
0010
0010
0000
0100
0000
0010
0000
,
0100
0100
0100
0000
1001
1000
0010
0000
,
0100
0000
0010
0000
1001
0001
0010
0000
,
0101
1100
0110
0101
,
1000
0001
1000
0001
0010
0000
0100
0000
,
1000
0000
0010
0000
0100
0010
0100
0000
,
0001
0010
0001
0010
1000
0000
0010
0000
,
1100
0101
0011
1010
,
0200
0010
0000
0010
0000
0010
0310
0000
,
0100
0001
0010
0100
,
2000
0001
0000
0001
0000
0001
3001
0000
,
0010
0001
0010
0000
0010
1000
0010
0000
,
0100
0001
0100
1000
,
0010
0100
0010
0001
,
0010
0100
0010
1000
,
0100
1000
0100
0000
0100
0001
0100
0000
,
0002
1000
0000
1000
0000
1000
1003
0000
,
0010
0100
0010
1000
,
0020
0100
0000
0100
0000
0100
0130
0000
,
0010
0001
0010
0000
0010
0100
0010
0000
,
0100
0010
0001
0010
,
1000
0010
0100
0001
,
1000
0100
0010
0100
,
1000
0100
1000
0000
0100
0001
0100
0000
,
0012
0000
0000
1003
0010
0000
0100
0000
,
2100
0000
0000
3001
0010
0000
0100
0000
,
1002
0000
0000
0103
0010
0000
1000
0000
,
2002
0000
0000
3003
;

//---------------dance-single - ----------------
#NOTES:
     dance-single:
     EXPERT:
     Hard:
     12:
     0.523824,0.497081,0.267281,0.242224,0.250576,439.000000,407.000000,32.000000,29.000000,0.000000,0.000000,0.523824,0.497081,0.267281,0.242224,0.250576,439.000000,407.000000,32.000000,29.000000,0.000000,0.000000:
// measure 0
1000
0000
0001
0000
0010
0000
0001
0000
0100
0000
0000
0001
2000
0000
0000
0000
,  // measure 1
3100
0010
0000
0001
0010
0100
1000
0001
,  // measure 2
0100
0001
0000
1000
0001
0000
0000
0000
0100
0010
0000
1000
0020
0000
0000
0000
,  // measure 3
0130
0101
0001
0011
1000
1010
1000
1001
,  // measure 4
0010
0000
0100
0000
0010
0000
0001
0000
0010
0000
0000
0100
0002
0000
0000
0000
,  // measure 5
0013
0100
0000
1000
0001
1000
0010
0100
,  // measure 6
0001
0010
0000
0100
1000
0000
0000
0000
0100
0010
0000
0001
2000
0000
0000
0000
,  // measure 7
3100
1100
0010
0011
1000
1010
0001
0101
,  // measure 8
0010
0000
1000
0000
0100
0000
1000
0000
0100
0010
0000
0010
0002
0000
0000
0000
,  // measure 9
1003
0000
0001
0000
0010
0000
0001
0000
0010
0000
0100
1000
0200
0000
0000
0000
,  // measure 10
1300
0000
0010
0000
0100
0000
0001
0000
0100
0010
0000
0010
2000
0000
0000
0000
,  // measure 11
3001
1000
0100
0001
0100
1000
0001
0100
,  // measure 12
1000
0000
0100
0000
0001
0000
0010
0000
0001
0010
0000
0010
0100
2000
0000
0000
,  // measure 13
3001
0000
1000
0000
0010
0000
1000
0100
1000
0000
0010
0000
0100
0000
0001
0000
,  // measure 14
0010
0000
0001
0000
0100
0000
0010
0000
1000
0100
0000
0100
0010
0002
0000
0000
,  // measure 15
1003
0001
0010
1000
0010
0001
1000
0010
,  // measure 16
0001
0000
0000
0000
0110
0000
0000
0000
0001
1000
0000
0001
1000
0000
0100
0000
,  // measure 17
0100
0000
0000
0000
0011
0000
0000
0000
0100
0010
0000
0100
0010
0100
0010
0000
,  // measure 18
1100
0000
0001
0100
0010
1000
0100
0010
,  // measure 19
0001
1001
0100
0110
0001
0011
1000
1010
,  // measure 20
1001
0000
0000
0000
0010
0000
0100
0000
1000
0000
0000
0001
0020
0000
0000
0000
,  // measure 21
0031
0000
1000
0000
0100
0000
0010
0000
0100
0000
1000
0010
0100
0000
1000
0000
,  // measure 22
0100
0001
0010
0100
1000
0001
0010
0000
,  // measure 23
0100
0101
1000
1010
0001
0011
0100
0110
,  // measure 24
0001
0000
0001
0000
1000
0000
1000
0000
0010
0000
0000
0100
0001
0000
0010
0000
,  // measure 25
0100
0000
0100
0000
1000
0000
1000
0000
0010
1000
0010
1000
0020
0000
0000
0000
,  // measure 26
0130
0000
0100
0000
0001
0000
0001
0000
0100
0010
0100
0010
0200
0000
0000
0000
,  // measure 27
0301
1010
1000
0101
0001
0110
0100
1001
,  // measure 28
1000
0000
0100
0010
0100
0000
0010
0000
0002
0000
0000
0000
1003
0000
0010
0000
,  // measure 29
0100
0000
0001
0000
0010
0000
0100
0000
1000
0001
1000
0001
2000
0000
0000
0000
,  // measure 30
3010
0000
0100
0000
0001
0000
0010
0000
0001
1000
0000
0100
0010
0000
0000
0000
,  // measure 31
0101
1001
1010
0110
,  // measure 32
1000
0000
0001
0000
1000
0000
0001
0000
0010
0000
0100
1000
0100
2000
0000
0000
,  // measure 33
3010
0000
0100
0000
0001
0000
0010
0000
0001
0000
0010
0100
0020
0000
0100
0000
,  // measure 34
0130
0000
1000
0000
0001
0000
0100
0000
0001
0000
0000
1000
0010
0000
0100
0000
,  // measure 35
0001
0000
0000
0010
0000
0000
1000
0000
0000
0010
0000
0000
0001
0000
0010
0000
0100
0000
0020
0000
0000
0000
0000
0000
,  // measure 36
0031
1000
0100
0010
0100
1000
0010
0100
,  // measure 37
1000
0000
0100
0000
0010
0000
1000
0000
0010
0000
0001
0010
0001
0000
0010
0000
,  // measure 38
1000
0000
0010
0000
0001
0000
0010
0000
1000
0000
0001
0010
0001
0000
1000
0000
,  // measure 39
0200
0000
1300
0010
1000
0000
0001
0000
0200
0000
0301
0010
0001
0000
1000
0000
,  // measure 40
2001
0000
0000
0000
3010
0000
1000
0000
0100
0000
0010
0001
0010
0002
0000
0000
,  // measure 41
1003
0000
0010
0000
0100
0000
0001
0000
0010
0000
0001
1000
0002
0000
1000
0000
,  // measure 42
1003
0000
0010
0000
0100
0000
0001
0000
0010
0001
0000
1000
0001
0000
0010
0000
,  // measure 43
0100
0000
0000
1000
0000
0000
0001
0000
0000
1000
0000
0000
0100
0000
1000
0000
0010
0000
0200
0000
0000
0000
0000
0000
,  // measure 44
0301
0100
1000
0100
0001
1000
0100
0001
,  // measure 45
0100
0000
1000
0000
0010
0000
0100
0000
0010
0000
0001
0010
0001
0000
0010
0000
,  // measure 46
0100
0000
1000
0000
0100
0000
0010
0000
0100
0000
0001
1000
0001
0000
1000
0000
,  // measure 47
0020
0000
0130
0001
0100
0000
0001
0000
0020
0000
0031
1000
0001
0000
1000
0000
,  // measure 48
1002
0100
0000
0100
0100
0000
0013
0000
,  // measure 49
2001
0010
0000
0100
0100
0000
3100
0000
,  // measure 50
1000
0010
0100
0000
0001
0100
0010
0000
,  // measure 51
2002
0000
0000
3003
;
