#VERSION:0.83;
#TITLE:PEACE DREAM;
#SUBTITLE:;
#ARTIST:PINK PONG;
#TITLETRANSLIT:;
#SUBTITLETRANSLIT:;
#ARTISTTRANSLIT:;
#GENRE:TRANCE;
#ORIGIN:;
#TAGS:;
#CREDIT:;
#BANNER:PEACE DREAM.png;
#BACKGROUND:PEACE DREAM-bg.png;
#PREVIEWVID:;
#JACKET:PEACE DREAM-jacket.png;
#CDIMAGE:;
#DISCIMAGE:;
#LYRICSPATH:;
#CDTITLE:Beatmania.png;
#MUSIC:PEACE DREAM.ogg;
#OFFSET:-6.890000;
#SAMPLESTART:26.345358;
#SAMPLELENGTH:15.000000;
#SELECTABLE:YES;
#BPMS:0.000000=147.979996
;
#STOPS:;
#DELAYS:;
#WARPS:;
#TIMESIGNATURES:0.000000=4=4
;
#TICKCOUNTS:0.000000=4
;
#COMBOS:0.000000=1
;
#SPEEDS:0.000000=1.000000=0.000000=0
;
#SCROLLS:0.000000=1.000000
;
#FAKES:;
#LABELS:0.000000=Song Start
;
#BGCHANGES:0.000=film5.mp4=1.000=1=0=1===CrossFade==,
11.500=balloon1.mp4=1.000=0=0=1=====,
16.000=circlesh.mp4=1.000=0=0=1=====,
24.000=kaliedoscope6.mp4=1.000=0=0=1=====,
32.000=circlesh.mp4=1.000=0=1=1=StretchRewind====,
40.000=kaliedoscope9.mp4=1.000=0=0=1=====,
48.000=rotation3.mp4=1.000=0=0=1=====,
56.000=rotation4.mp4=1.000=0=0=1=====,
64.000=beads3.mp4=1.000=0=0=1=====,
72.000=balloon1.mp4=1.000=0=1=1=StretchRewind====,
76.500=circle2.mp4=1.000=0=0=1=====,
77.500=balloon1.mp4=1.000=0=0=1=====,
78.500=circle2.mp4=1.000=0=0=1=====,
80.000=rotation3.mp4=1.000=0=1=1=StretchRewind====,
88.000=rotation4.mp4=1.000=0=1=1=StretchRewind====,
96.000=beads3.mp4=1.000=0=1=1=StretchRewind====,
104.000=balloon1.mp4=1.000=0=1=1=StretchRewind====,
108.500=light1.mp4=1.000=0=0=1=====,
109.500=balloon1.mp4=1.000=0=0=1=====,
110.500=light1.mp4=1.000=0=0=1=====,
112.000=rainbow1.mp4=1.000=0=0=1=====,
128.000=rainbow2.mp4=1.000=0=0=1=====,
136.000=colors1.mp4=1.000=0=0=1=====,
138.000=circle2.mp4=1.000=0=1=1=StretchRewind====,
140.000=light5.mp4=1.400=0=0=1=====,
144.000=light6.mp4=1.000=0=0=1=====,
152.000=text18.mp4=1.000=0=0=1=====,
160.000=light6.mp4=1.000=0=1=1=StretchRewind====,
168.000=circle2.mp4=1.000=0=1=1=StretchRewind====,
176.000=balloon1.mp4=1.000=0=1=1=StretchRewind====,
184.000=beads3.mp4=1.000=0=1=1=StretchRewind====,
192.000=circlesh.mp4=1.000=0=1=1=StretchRewind====,
200.000=light1.mp4=1.000=0=1=1=StretchRewind====,
208.000=rotation3.mp4=1.000=0=1=1=StretchRewind====,
216.000=rainbow1.mp4=1.000=0=1=1=StretchRewind====,
224.000=rotation4.mp4=1.000=0=1=1=StretchRewind====,
232.000=rainbow2.mp4=1.000=0=1=1=StretchRewind====,
240.000=PEACE DREAM-bg.png=1.000=0=0=1=====,
99999=-nosongbg-=1.000=0=0=0 // don't automatically add -songbackground-
;
#KEYSOUNDS:;
#ATTACKS:
;

//---------------dance-single - ----------------
#NOTEDATA:;
#CHARTNAME:BEGINNER;
#CHARTHASH:3821215851;
#STEPSTYPE:dance-single;
#BANNER:;
#DESCRIPTION:;
#CHARTSTYLE:;
#DIFFICULTY:Beginner;
#METER:3;
#METERF:3.000000;
#LASTSECONDHINT:104.200455;
#RADARVALUES:0.157057,0.253707,0.037586,0.056379,0.000000,117.000000,113.000000,4.000000,6.000000,0.000000,0.000000,0.000000,0.000000,0.000000,0.157057,0.253707,0.037586,0.056379,0.000000,117.000000,113.000000,4.000000,6.000000,0.000000,0.000000,0.000000,0.000000,0.000000;
#CREDIT:YonabearCWY;
#NOTES:
1000
0000
1000
0000
,
1000
0000
0000
0000
,
0001
0000
0001
0000
,
0001
0000
0000
0000
,
1000
1000
1000
0000
,
1000
0000
0000
0000
,
1000
1000
1000
0000
,
1000
0000
0000
0000
,
0001
0001
0001
0000
,
0001
0000
0000
0000
,
0001
0001
0001
0000
,
0001
0000
0000
0000
,
0100
0100
0100
0000
,
0100
0000
0000
0100
,
0100
0100
0100
0000
,
0100
0000
0000
0000
,
0010
0010
0010
0000
,
0010
0000
0000
0010
,
0010
0010
0010
0000
,
0010
0000
0000
0000
,
1000
1000
1000
0000
,
1000
0000
0000
1000
,
1000
1000
1000
0000
,
1000
0000
0000
0001
,
0001
0001
0001
0000
,
0001
0000
0000
0010
,
0100
1000
0000
0001
,
0100
0010
0100
0010
,
2002
0000
0000
0000
,
3003
0000
0000
0000
,
0220
0000
0000
0000
,
0330
0000
0000
0000
,
2002
0000
0000
0000
,
3003
0000
0000
0000
,
0010
0000
0010
0000
,
0010
0000
0000
0000
,
0100
0000
0100
0000
,
0100
0000
0000
0000
,
0001
0000
0001
0000
,
0001
0000
0000
0000
,
1000
0000
1000
0000
,
1000
0000
0000
0000
,
0010
0000
0010
0000
,
0010
0000
0000
0000
,
0100
0000
0100
0000
,
0100
0000
0000
0000
,
0001
0000
0001
0000
,
0001
0000
0000
0000
,
1000
0000
1000
0000
,
1000
0000
0000
0000
,
0001
0000
0001
0000
,
0001
0000
0000
0000
,
1000
0010
1000
0000
,
0010
0000
0100
0000
,
0001
0100
0001
0000
,
0100
0000
0010
0000
,
1000
0001
1000
0000
,
0001
0000
1000
0000
,
0001
1000
0001
0000
,
1000
0000
0001
0000
,
1001
0000
0000
0000
;

//---------------dance-single - ----------------
#NOTEDATA:;
#CHARTNAME:BASIC;
#CHARTHASH:1831170432;
#STEPSTYPE:dance-single;
#BANNER:;
#DESCRIPTION:;
#CHARTSTYLE:;
#DIFFICULTY:Easy;
#METER:6;
#METERF:0.000000;
#LASTSECONDHINT:104.200455;
#RADARVALUES:0.261761,0.310086,0.234914,0.093966,0.000000,195.000000,170.000000,25.000000,10.000000,0.000000,0.000000,0.000000,0.000000,0.000000,0.261761,0.310086,0.234914,0.093966,0.000000,195.000000,170.000000,25.000000,10.000000,0.000000,0.000000,0.000000,0.000000,0.000000;
#CREDIT:YonabearCWY;
#NOTES:
1000
1000
1000
0000
,
1000
1000
1000
0000
,
0001
0001
0001
0000
,
0001
0001
0001
0000
,
1001
0000
0000
0100
0000
0000
0010
0000
,
0000
0100
0000
0000
0010
0000
0100
0000
,
1001
0000
0000
0010
0000
0000
1000
0000
,
0000
0010
0000
0000
0001
0000
0010
0000
,
1001
0000
0000
1000
0010
0000
1000
0000
,
0010
0000
0010
0000
,
1001
0000
0000
0001
0100
0000
0001
0000
,
0100
0000
0100
0000
,
1001
1000
1000
0000
,
1000
0000
1000
0000
,
1001
0001
0001
0000
,
0001
0000
0001
0000
,
0110
0100
0100
0000
,
0100
0000
0100
0000
,
0110
0010
0010
0000
,
0010
0000
0010
0000
,
1001
0000
0000
1000
0010
0000
1000
0000
,
0001
0100
0001
0010
,
1001
0000
0000
0001
0010
0000
0001
0000
,
0100
0010
1000
0100
,
0110
0000
0000
1000
0001
0000
0010
0000
,
0001
0100
0010
1000
,
0110
0000
0000
0001
0010
0000
0001
0000
,
1000
0001
1000
0010
,
0220
0000
0000
0000
,
0000
0000
0000
0330
,
2002
0000
0000
0000
,
0000
0000
0000
3003
,
0220
0000
0000
0000
,
0000
0000
0000
0330
,
1010
0000
0101
0000
,
1001
0000
0000
0000
0010
0010
0000
1000
,
0002
1000
0010
1000
,
0013
0000
0010
0000
,
0020
0001
1000
0001
,
1030
0000
0010
0000
,
0002
1000
0100
1000
,
0103
0000
0100
0000
,
0200
0001
1000
0001
,
1300
0000
0100
0000
,
0010
1000
0010
0000
,
1000
0010
1000
0000
,
0001
0000
0000
0100
0000
0000
0010
0000
,
0000
1000
0000
0000
0100
0000
0010
0000
,
0001
0100
0001
0000
,
0100
0001
0100
0000
,
0001
0000
0000
1000
0000
0000
0010
0000
,
0000
0100
0000
0000
0001
0000
1000
0000
,
0110
0000
0100
0010
,
0110
0000
0010
0100
,
0110
0000
0000
1000
0000
0000
0001
0000
,
0000
1000
0000
0000
0001
0000
1000
0000
,
1001
0000
1000
0001
,
1001
0000
0001
1000
,
1001
0000
0000
0100
0000
0000
0010
0000
,
0000
1000
0000
0000
0001
0000
0100
0000
,
1001
0000
0000
0000
;

//---------------dance-single - ----------------
#NOTEDATA:;
#CHARTNAME:DIFFICULT;
#CHARTHASH:608623454;
#STEPSTYPE:dance-single;
#BANNER:;
#DESCRIPTION:;
#CHARTSTYLE:;
#DIFFICULTY:Medium;
#METER:8;
#METERF:8.000000;
#LASTSECONDHINT:104.200455;
#RADARVALUES:0.371835,0.451035,0.206724,0.159741,0.028190,277.000000,255.000000,22.000000,17.000000,0.000000,0.000000,0.000000,0.000000,0.000000,0.371835,0.451035,0.206724,0.159741,0.028190,277.000000,255.000000,22.000000,17.000000,0.000000,0.000000,0.000000,0.000000,0.000000;
#CREDIT:YonabearCWY;
#NOTES:
1000
1000
0001
0001
,
0100
0000
0010
0000
1000
0100
0010
0001
,
0100
0000
0000
0001
0000
0000
0010
0000
,
0000
0001
1000
0000
0110
0000
1000
0000
,
0001
0000
0010
0100
1000
0000
0100
0000
,
0010
0000
0001
1000
0100
0000
0010
0000
,
0001
0000
0010
0100
1000
0000
0010
0000
,
0000
1000
0001
0000
0110
0000
0001
0000
,
1000
0000
0010
0100
0001
0000
0100
0000
,
0010
1000
0100
0000
0010
0000
0100
0000
,
1000
0000
0001
0010
0100
0000
0010
0000
,
0000
0001
0010
0000
0100
0010
1001
0000
,
0010
0000
0100
0001
0100
0000
0010
0000
,
0100
1000
0100
0000
0010
0000
0100
0001
,
0100
0000
0001
0010
0001
0000
0100
0000
,
0010
0001
0010
0000
0100
1000
0100
0010
,
1000
0000
0001
0100
0001
0000
1000
0000
,
0100
0001
0100
0000
1000
0000
0010
0100
,
0010
0000
1000
0001
1000
0000
0010
0010
,
0000
1001
0000
0110
0000
1001
0000
0100
,
0210
0000
0000
0301
0100
0000
0010
0000
,
1000
0100
1000
0000
0010
0000
1000
0000
,
1002
0000
0000
1003
0100
0000
0010
0001
,
0000
0100
0010
1000
0001
0000
0100
0000
,
0120
0000
0000
1030
0010
0000
0100
0000
,
0001
0010
0001
0000
1000
0000
0010
0000
,
2001
0000
0000
3001
0100
0000
0010
1000
,
0000
0110
0000
1001
0000
0110
0000
1000
,
2002
0000
0000
0000
,
0000
0000
0000
3003
,
0220
0000
0000
0000
,
0000
0000
0000
0000
0000
0330
0000
1000
,
1002
0000
0000
1000
0000
0000
0010
0000
,
0000
1000
0000
0000
0013
0000
0100
0000
,
0001
0010
0001
0010
0000
0000
0100
1000
0100
1000
0000
0000
,
0010
0000
0100
0000
0010
0000
0100
0000
0000
0000
0000
0000
0010
0000
0000
0010
0000
0000
0000
0000
0000
1000
0000
0000
,
0002
0100
0010
0100
,
0010
0100
0010
0100
,
0000
0010
0000
0000
1000
0000
0000
0010
,
0000
0000
0100
0000
0000
0010
0000
0000
,
2003
0001
0100
0001
,
0100
0001
0100
0001
,
0100
0000
0000
0010
0000
0000
0001
0000
,
0000
0010
0000
0000
3100
0000
1000
0000
,
0020
1000
0001
1000
,
0001
1000
0001
1000
,
0000
0001
0000
0000
1000
0000
0000
0001
,
0000
0000
0100
0000
0000
1000
0000
0000
,
0230
0001
1000
0001
,
1000
0001
1000
0001
,
1000
0000
0000
0010
0000
0000
0001
0000
,
0000
0010
0000
0000
1300
0000
0110
0000
,
1002
0000
0000
0010
0000
0010
0013
0000
,
2001
0000
0000
0100
0000
0100
3100
1000
,
0000
0010
0000
0100
0000
0001
1000
0010
,
0000
0100
0000
0001
0000
0010
0001
1000
,
1020
0000
0000
0001
0000
0100
0130
0000
,
0201
0000
0000
0010
0000
1000
1300
0000
,
0100
0010
0100
0000
0001
1000
0001
0000
,
0100
0000
0010
0000
1000
0100
0010
0001
,
1001
0000
0000
0000
;

//---------------dance-single - ----------------
#NOTEDATA:;
#CHARTNAME:EXPERT;
#CHARTHASH:275243246;
#STEPSTYPE:dance-single;
#BANNER:;
#DESCRIPTION:;
#CHARTSTYLE:;
#DIFFICULTY:Hard;
#METER:13;
#METERF:13.000000;
#LASTSECONDHINT:104.200455;
#RADARVALUES:0.636281,0.648362,0.150345,0.159741,0.545000,474.000000,458.000000,16.000000,17.000000,0.000000,0.000000,0.000000,0.000000,0.000000,0.636281,0.648362,0.150345,0.159741,0.545000,474.000000,458.000000,16.000000,17.000000,0.000000,0.000000,0.000000,0.000000,0.000000;
#CREDIT:YonabearCWY;
#NOTES:
// measure 0
0010
0010
1000
0001
,  // measure 1
1000
0000
1000
0000
0010
0100
0001
1000
,  // measure 2
0001
0000
0010
0000
0010
0000
0001
0100
,  // measure 3
1000
0000
0100
0000
0001
0000
1000
0000
0001
0000
0010
0000
0000
0000
0100
1000
,  // measure 4
0100
0000
1000
0010
0000
0010
0100
0000
,  // measure 5
0100
0000
0001
0000
0000
0000
0001
0000
1000
0000
0010
0000
0000
0100
0001
0000
,  // measure 6
0010
0000
0001
0100
0000
0100
0010
1000
,  // measure 7
0000
0000
0100
0000
0010
0000
0001
0000
1000
0000
0010
0000
0100
0001
0100
0000
,  // measure 8
0001
0000
0010
0100
0000
0100
1000
0000
,  // measure 9
1000
0000
0001
0000
0000
0000
0001
0000
0100
0000
0010
0000
0000
1000
0100
0000
,  // measure 10
0010
0000
0001
1000
0010
0000
0100
0001
,  // measure 11
0010
0000
0001
0000
0000
0000
0100
0000
0001
1000
0001
1000
0001
0000
0100
0000
,  // measure 12
0010
0100
0000
0000
1000
0000
0010
0000
1000
0100
0000
0000
1000
0000
0001
0000
,  // measure 13
0010
0001
0000
0000
0100
0000
0010
0000
1000
0000
0100
0000
0010
0001
0010
0000
,  // measure 14
0100
0000
1000
0010
0000
0000
0100
0000
0001
0000
0010
0100
0000
0000
1000
0000
,  // measure 15
0001
0000
0100
0000
0000
0001
0010
0000
0001
0000
1000
0000
0010
0000
1000
0000
,  // measure 16
0100
1000
0000
0000
0010
0000
0100
0000
0001
0100
0000
0000
0001
0000
1000
0000
,  // measure 17
0010
0000
0100
0010
0000
0000
1000
0001
1000
0000
0001
0000
0010
0100
0010
0000
,  // measure 18
0100
0000
1000
0000
0010
0000
0100
0001
0000
0000
0010
0000
0100
0000
1000
0001
,  // measure 19
0000
0000
0011
0000
0000
0000
1001
0000
0000
0000
1010
0000
0000
0000
0100
0010
,  // measure 20
0100
0001
1000
0001
0100
0001
0010
0010
,  // measure 21
0000
0000
0100
0000
1000
0000
0100
0000
0001
0000
0001
0000
0100
1000
0100
0000
,  // measure 22
1000
0010
0100
0001
0010
0001
1000
0010
,  // measure 23
0000
0000
0100
0000
0001
0000
0010
0000
1001
0000
0000
0000
0010
0100
0010
0100
,  // measure 24
0010
0100
1000
0001
0100
0001
1000
0010
,  // measure 25
0000
0000
1000
0000
0100
0000
0010
0000
0001
0000
1000
0000
0100
0001
0100
0000
,  // measure 26
0010
0000
0100
0000
1000
0000
0001
0000
1000
0000
0100
0000
0010
0000
0100
1000
,  // measure 27
0000
1010
0000
0101
0000
1001
0000
0010
,  // measure 28
0200
0000
0000
0010
0000
0000
1000
0000
0000
0010
0000
0000
1000
0000
0000
0010
,  // measure 29
0000
0000
0001
0000
0000
0010
0000
0000
0301
0000
0000
0100
0000
0000
0010
0000
,  // measure 30
2000
0000
0000
0100
0000
0000
0001
0000
0000
0100
0000
0000
0001
0000
0000
0010
,  // measure 31
0000
0000
0001
0000
0000
0010
0000
0000
3001
0000
0000
1000
0000
0000
0001
0000
,  // measure 32
0020
0000
0000
0001
0000
0000
0100
0000
0000
1030
0000
0001
0100
0000
0100
0010
,  // measure 33
0000
0010
1000
0000
0001
0100
0000
0100
0010
0000
0010
1000
0000
1000
0100
0000
,  // measure 34
0010
0001
1000
0002
0000
0000
0103
1000
0100
0020
0000
0000
,  // measure 35
1030
0000
0000
0000
0001
0000
0000
0000
0100
0000
0000
0000
0002
0000
0000
0000
0000
0000
0000
0000
0000
0000
0000
0000
0013
0000
0000
0000
0000
0000
0110
0000
0000
0000
0000
0000
0000
0000
0000
0000
0000
0000
1000
0000
0000
0001
0000
0000
,  // measure 36
1000
0000
0000
0010
0100
0000
0100
0001
0000
0001
1000
0000
1000
0010
0000
0010
,  // measure 37
0100
0000
0100
0001
0000
0001
0010
0000
0010
0100
0000
0100
1000
0000
0100
0010
,  // measure 38
0002
0000
0000
0000
2003
0000
0000
0010
0000
0000
3100
1000
0000
1000
0001
0000
,  // measure 39
0020
0000
0000
0001
0000
0000
0230
0000
0000
0000
0301
0000
1000
0001
0000
0001
,  // measure 40
1000
0000
0000
0001
0010
0000
0010
0001
0000
1000
0010
0000
0010
1000
0000
0001
,  // measure 41
1000
0001
0000
0001
1000
0000
0100
0010
0000
0010
0100
0000
1000
0010
0000
0010
,  // measure 42
0100
0000
0001
1000
0000
1000
0010
0000
0200
0000
0000
0001
0000
0000
1300
0100
,  // measure 43
0000
0100
0010
0000
0200
0000
0000
0301
0010
0000
0010
0100
0000
0100
1000
0000
,  // measure 44
1001
0000
0000
0100
0010
0000
0010
1000
0000
0000
0100
0000
0010
0000
0001
1000
,  // measure 45
0000
1000
0200
0000
0000
1000
0000
0000
0310
0100
0000
0100
0001
0000
0100
1000
,  // measure 46
0100
0000
1000
0000
0001
0000
0100
0000
0001
0000
0010
0001
0000
0001
1000
0000
,  // measure 47
0010
0000
0100
0000
0010
0000
0001
0000
0010
0000
0100
0000
0000
0010
1000
0000
,  // measure 48
0110
0000
0000
0001
1000
0000
1000
0010
0000
0000
0100
0000
0010
0000
0000
0100
,  // measure 49
0001
0100
0000
0100
0020
0000
0000
1000
0000
0000
0001
0000
0000
1030
0000
0010
,  // measure 50
0100
0000
0001
1000
0000
1000
0001
0000
1000
0000
0010
0000
0100
0000
0001
0010
,  // measure 51
0000
0010
0001
0000
1000
0000
0100
0000
1000
0000
0010
1000
0000
1000
0010
0000
,  // measure 52
0102
0000
2003
0010
0000
3020
0100
0001
,  // measure 53
0030
0000
0010
0000
0100
0000
1000
0000
0100
0000
0010
0000
0001
0000
0010
1000
,  // measure 54
0010
0001
0010
1000
0000
0100
0001
0100
,  // measure 55
0000
0000
0010
0000
1000
0000
0010
0000
0000
0000
0001
0000
1000
0000
0100
0001
,  // measure 56
0100
0000
1000
0000
0001
0000
0100
0000
1000
0000
0100
0000
0001
0000
0000
1000
,  // measure 57
0010
0000
0100
0000
0001
0000
0010
0000
1000
0000
0010
0000
0001
0000
1000
0010
,  // measure 58
1000
0000
0001
1000
0000
0100
0010
0001
,  // measure 59
0000
0110
0000
1001
0000
0101
0000
1010
,  // measure 60
1001
0000
0000
0000
;
