#VERSION:0.83;
#TITLE:ON & ON 2009;
#SUBTITLE:(Re-Con Remix);
#ARTIST:BRISK & FRACUS;
#TITLETRANSLIT:;
#SUBTITLETRANSLIT:;
#ARTISTTRANSLIT:;
#GENRE:HAPPY HARDCORE;
#ORIGIN:;
#TAGS:;
#CREDIT:YonabearCWY;
#BANNER:ON & ON 2009 (Re-Con Remix).png;
#BACKGROUND:ON & ON 2009 (Re-Con Remix)-bg.png;
#PREVIEWVID:;
#JACKET:ON & ON 2009 (Re-Con Remix)-jacket.png;
#CDIMAGE:;
#DISCIMAGE:;
#LYRICSPATH:;
#CDTITLE:next generation.png;
#MUSIC:ON & ON 2009 (Re-Con Remix).ogg;
#OFFSET:-5.622000;
#SAMPLESTART:94.405998;
#SAMPLELENGTH:15.000000;
#SELECTABLE:YES;
#BPMS:0.000000=170.910004
,48.000000=85.455002
,88.000000=170.910004
,116.000000=85.455002
,118.000000=170.910004
;
#STOPS:;
#DELAYS:;
#WARPS:;
#TIMESIGNATURES:0.000000=4=4
;
#TICKCOUNTS:0.000000=4
;
#COMBOS:0.000000=1
;
#SPEEDS:0.000000=1.000000=0.000000=0
;
#SCROLLS:0.000000=1.000000
;
#FAKES:;
#LABELS:0.000000=Song Start
;
#BGCHANGES:0.000=bluey1.mp4=1.400=1=0=1===CrossFade==,
12.500=bluey2.mp4=1.800=0=0=1=====,
16.000=arrows2.mp4=1.400=0=0=1=====,
32.000=text17.mp4=1.800=0=0=1=====,
44.000=arrows1.mp4=1.800=0=0=1=====,
48.000=crystal1.mp4=1.000=1=0=1===CrossFade==,
56.000=cube4.mp4=1.000=1=0=1===CrossFade==,
64.000=circle2.mp4=1.000=1=0=1===CrossFade==,
72.000=cyber1.mp4=1.000=1=0=1===CrossFade==,
76.000=wheel5.mp4=1.000=1=0=1===CrossFade==,
80.000=cyber2.mp4=1.000=1=0=1===CrossFade==,
88.000=cube4.mp4=1.400=1=0=1=Checkerboard2File2x2=circle10.mp4=CrossFade==,
104.000=circle9.mp4=1.400=1=0=1=Checkerboard2File2x2=cube4.mp4=CrossFade==,
116.000=arrows1.mp4=0.700=0=1=1=StretchRewind====,
118.000=text17.mp4=1.400=1=0=1=Checkerboard2File2x2=arrows2.mp4=CrossFade==,
134.000=bluey1.mp4=1.400=1=0=1=Checkerboard2x2=wheel7.mp4=CrossFade==,
146.000=bluey2.mp4=1.800=0=1=1=StretchRewind====,
150.000=text15.mp4=1.400=0=0=1=====,
158.000=text7.mp4=1.400=0=0=1=====,
166.000=text10.mp4=1.400=0=0=1=====,
178.000=bluey2.mp4=1.800=0=1=1=StretchRewind====,
180.000=arrows1.mp4=1.800=0=1=1=StretchRewind====,
182.000=text17.mp4=1.800=0=1=1=StretchRewind====,
190.000=light2.mp4=1.800=0=0=1=====,
198.000=arrows2.mp4=1.400=0=1=1=StretchRewind====,
206.000=light3.mp4=1.800=0=0=1=====,
210.000=arrows1.mp4=1.800=0=1=1=StretchRewind====,
214.000=light2.mp4=1.800=1=0=1=Checkerboard2File2x2=light3.mp4=CrossFade==,
226.000=bluey1.mp4=1.800=0=1=1=StretchRewind====,
230.000=cyber1.mp4=1.400=1=0=1=Checkerboard2File2x2=cyber2.mp4=CrossFade==,
242.000=bluey1.mp4=1.800=0=0=1=====,
246.000=circle2.mp4=1.800=0=1=1=StretchRewind====,
258.000=cube4.mp4=1.800=0=1=1=StretchRewind====,
262.000=circle9.mp4=1.800=0=1=1=StretchRewind====,
270.000=circle10.mp4=1.800=0=1=1=StretchRewind====,
278.000=light8.mp4=1.400=0=0=1=====,
286.000=bluey2.mp4=1.400=0=1=1=StretchRewind====,
291.500=bluey1.mp4=1.800=0=1=1=StretchRewind====,
302.000=light8.mp4=1.400=0=1=1=StretchRewind====,
310.000=ON & ON 2009 (Re-Con Remix)-bg.png=1.000=0=0=1=====,
99999=-nosongbg-=1.000=0=0=0 // don't automatically add -songbackground-
;
#KEYSOUNDS:;
#ATTACKS:
;

//---------------dance-single - ----------------
#NOTEDATA:;
#CHARTNAME:BEGINNER;
#CHARTHASH:655330862;
#STEPSTYPE:dance-single;
#BANNER:;
#DESCRIPTION:;
#CHARTSTYLE:;
#DIFFICULTY:Beginner;
#METER:5;
#METERF:5.000000;
#LASTSECONDHINT:129.195816;
#RADARVALUES:0.000000,0.000000,0.000000,0.000000,0.000000,0.000000,0.000000,0.000000,0.000000,0.000000,0.000000,0.000000,0.000000,0.000000,0.000000,0.000000,0.000000,0.000000,0.000000,0.000000,0.000000,0.000000,0.000000,0.000000,0.000000,0.000000,0.000000,0.000000;
#CREDIT:YonabearCWY;
#NOTES:
1000
1000
1000
0000
,
0001
0001
0001
0000
,
1000
1000
1000
0000
,
0220
0000
0330
0000
,
0010
0000
0001
0000
,
0010
0000
0100
0000
,
1000
0000
0100
0000
,
0001
0001
1000
1000
,
0000
0010
0000
0100
,
0000
0010
0000
1000
,
0000
0001
0000
1000
,
0220
0000
0330
0000
,
1001
0000
0000
0000
,
1000
0000
0001
0000
,
1000
1000
1000
0000
,
0001
0001
0001
0000
,
0100
0010
0100
0010
,
0220
0000
0000
0330
,
0001
0001
0001
0001
,
1000
1000
1000
1000
,
0100
0100
0100
0100
,
0010
0010
0010
0010
,
1001
1000
1000
0000
,
1000
1000
1000
0000
,
1000
1000
1000
0000
,
0001
0001
1001
0000
,
0010
0010
0010
0000
,
0010
0010
0010
0000
,
0010
0010
0010
0000
,
0220
0000
0300
0030
1000
0000
0010
0000
,
1000
0000
0010
1000
,
0010
0000
1000
0010
,
1000
0000
0001
0100
,
1000
0100
0001
0100
,
0001
0000
0100
0001
,
0100
0000
0001
0100
,
0001
0000
2002
0000
,
0000
3003
1000
0000
,
1000
0000
0001
0000
,
0001
0000
0100
0100
,
0100
0000
0100
0100
,
0100
0000
0010
0000
,
0010
0000
0100
0000
,
0100
0000
0001
0001
,
0001
0000
1001
0000
,
0000
0000
0000
1000
,
0000
1000
0000
1000
,
0000
0000
0000
0001
,
0000
0001
0000
0001
,
0001
0001
0000
0100
,
0000
0100
0000
0010
,
0000
0010
0000
0100
,
0000
0100
2002
0000
,
3003
0000
0010
0000
,
0010
0000
0010
0000
,
0000
0000
0100
0000
,
0100
0000
0100
0000
,
0000
0000
0001
0000
,
0001
0000
0001
0000
,
0000
1000
0000
1000
,
0000
1000
0000
0000
,
0000
0000
0002
0000
,
0003
0000
0002
0000
,
0003
0000
0002
0000
,
0003
0000
1000
1000
,
1000
0000
2000
0000
,
3000
0000
2000
0000
,
3000
0000
2000
0000
,
3000
0000
2002
0000
,
3003
0000
0010
0000
,
0010
0000
0010
0000
,
0000
0000
0100
0000
,
0100
0000
0100
0000
,
0000
0000
0001
0000
,
0001
0000
0001
0000
,
0000
0000
1000
0000
,
1000
0000
1000
0000
,
0000
0000
1001
0000
;

//---------------dance-single - ----------------
#NOTEDATA:;
#CHARTNAME:BASIC;
#CHARTHASH:2147483647;
#STEPSTYPE:dance-single;
#BANNER:;
#DESCRIPTION:;
#CHARTSTYLE:;
#DIFFICULTY:Easy;
#METER:9;
#METERF:9.000000;
#LASTSECONDHINT:129.195816;
#RADARVALUES:0.000000,0.000000,0.000000,0.000000,0.000000,0.000000,0.000000,0.000000,0.000000,0.000000,0.000000,0.000000,0.000000,0.000000,0.000000,0.000000,0.000000,0.000000,0.000000,0.000000,0.000000,0.000000,0.000000,0.000000,0.000000,0.000000,0.000000,0.000000;
#CREDIT:YonabearCWY;
#NOTES:
0000
1000
0000
1000
0000
1000
0000
1000
,
0000
0001
0000
0001
0000
0001
0000
0001
,
1000
0010
0100
0001
,
2002
0000
0000
3003
,
0100
0100
0010
0010
,
1000
1000
0001
0100
,
0001
0000
0001
0000
0010
0000
0010
0100
,
0000
1000
0000
0001
0000
1000
0000
0010
,
0100
0100
0001
0001
,
0010
1000
0010
0001
,
0100
0100
0010
0010
,
2002
0000
0000
3003
,
0220
0330
0202
0303
,
0022
0033
2200
3300
,
1000
0002
1000
0000
0010
0100
2003
0000
,
3200
0010
0001
0000
0010
1000
0320
0000
,
0031
0100
0001
1000
0010
1000
0100
0010
,
2002
0000
0000
3003
,
0201
0001
0001
0000
0010
0010
0310
0000
,
1020
1000
1000
0000
0001
0001
0031
0000
,
0100
0001
0100
1000
0100
0010
1000
0010
,
0220
0000
0000
0330
0000
0001
0010
0100
,
2000
0000
0010
0000
0010
0000
0000
0001
,
0000
0001
0000
0001
0001
0000
0010
0000
,
3200
0001
1000
0001
,
1300
0010
2002
3003
,
0002
0000
0010
0000
0010
0000
0000
1000
,
0000
1000
0000
1000
1000
0000
0100
0000
,
0013
0000
0001
0000
1000
0000
0010
0200
,
0020
0000
0030
0300
1001
0000
1001
0000
,
1001
0000
0000
0100
0000
0100
0000
0100
,
0010
0000
0110
0110
,
0110
0000
0000
0001
0000
0001
0000
0001
,
1000
0001
1001
1001
,
1001
0000
1100
1100
,
1100
0000
0011
0011
,
0011
0000
0001
2000
0002
0000
0000
0000
,
0000
0000
3003
0000
0000
1000
0000
0010
,
0000
1000
0000
0000
0001
0000
0100
0000
,
0001
0000
0000
0010
0000
0001
0000
0100
,
0000
0001
0000
0000
1000
0000
0010
0000
,
1000
0000
1001
0000
0000
0100
0000
0010
,
0000
0100
0000
0000
0001
0000
1000
0000
,
0001
0000
0000
1000
0000
0010
0000
0001
,
0000
0010
0000
0000
2001
0000
0010
0000
,
0020
3030
0001
0000
,
0001
0000
0100
0100
,
0010
0010
1000
0000
,
1000
0000
0001
0001
,
1000
1000
0010
0000
,
0010
0000
0100
0000
,
0100
0000
0010
0010
,
0100
0100
2002
0000
,
0003
3000
0110
0110
,
0210
0000
0010
0010
,
0310
0000
1001
1001
,
1002
0000
0000
1000
1000
0000
1000
0000
,
1003
0000
1010
1010
,
2010
0000
0010
0010
,
3010
0000
0101
0101
,
0102
0000
0000
0000
0000
0100
0100
0000
,
0100
0103
0010
1000
,
0010
0000
0100
0001
,
0100
0000
0001
1000
,
0001
0000
0110
0110
,
2002
3003
1000
0100
,
1000
0010
0100
0010
,
0001
0010
0100
0010
,
1000
0001
2002
0000
,
0000
0000
3003
0000
0010
0000
0000
0010
,
0100
0000
0010
0000
1000
0000
0000
1000
,
0000
0000
0001
0000
0100
0000
0000
0001
,
0010
0000
0001
0000
1000
0000
0001
0100
,
0001
0000
0010
0000
0001
0000
0000
1000
,
0010
0000
0100
0000
0001
0000
0000
0010
,
0000
0001
0100
0010
,
1000
0100
0010
0100
,
1000
0001
1001
0000
;

//---------------dance-single - ----------------
#NOTEDATA:;
#CHARTNAME:DIFFICULT;
#CHARTHASH:1890889890;
#STEPSTYPE:dance-single;
#BANNER:;
#DESCRIPTION:;
#CHARTSTYLE:;
#DIFFICULTY:Medium;
#METER:11;
#METERF:11.000000;
#LASTSECONDHINT:129.195816;
#RADARVALUES:0.000000,0.000000,0.000000,0.000000,0.000000,0.000000,0.000000,0.000000,0.000000,0.000000,0.000000,0.000000,0.000000,0.000000,0.000000,0.000000,0.000000,0.000000,0.000000,0.000000,0.000000,0.000000,0.000000,0.000000,0.000000,0.000000,0.000000,0.000000;
#CREDIT:YonabearCWY;
#NOTES:
0000
1000
0000
1000
0000
0001
0000
0001
,
0000
0010
0000
0100
0000
1000
0000
0010
,
0100
0001
0100
0001
1000
0010
1000
0010
,
0200
0001
1000
0301
,
0100
0010
0100
0000
0010
0001
0010
0000
,
0100
1000
0100
0000
0001
0010
0100
1000
,
0000
0100
0010
0100
0000
1000
0001
1000
,
0000
0010
0100
0010
0001
0010
0100
0000
,
0001
0010
0001
0000
0010
0100
0010
0000
,
0100
1000
0100
0000
1000
0100
0010
0001
,
0000
1000
0010
1000
0000
0100
0010
0100
,
0000
0010
0001
0010
0100
1000
0001
0000
,
0120
1000
2030
0001
,
3002
0010
0100
0010
0203
0001
1000
0001
,
1300
0000
0100
0000
1000
0000
0010
0100
0001
0000
0010
0000
0020
0000
0000
0000
,
0031
0000
0100
0000
0010
0000
0001
0010
0100
0010
0000
1000
0000
0001
0000
1000
,
0100
0000
1000
0000
0001
0000
0010
0000
0100
0000
0010
0100
0000
0010
0000
0001
,
2000
0010
0100
0010
3200
1000
0001
1000
,
0301
0000
0100
1000
0100
0000
1000
0000
0010
0000
0100
0000
0101
0000
0000
0000
,
0010
0000
1000
0001
1000
0000
0100
0000
0010
0000
0100
0000
1100
0000
0000
0000
,
0010
0000
0100
0000
0001
0000
0100
0000
0010
0000
1000
0100
0000
0010
0000
0001
,
0200
0000
0010
0000
0001
0000
1000
0000
0310
0100
0010
0000
1010
0000
1001
0000
,
0201
0000
0010
0000
0010
0000
0000
0001
,
0000
0001
0000
0001
0301
0000
1001
0000
,
1020
0000
0100
0000
0100
0000
0000
0001
,
0000
0001
0000
0130
0010
1000
1010
0000
,
1001
0000
1001
0000
0110
0000
0000
0110
,
0000
0110
0000
1000
0001
0000
1001
0000
,
0011
0000
0011
0000
1001
0000
0000
1100
,
1002
0000
0000
0100
0103
0000
0010
0000
1000
0000
0100
0000
1000
0000
0000
0000
,
0010
1000
0010
0000
1000
0100
1000
0000
,
0001
1000
0001
0000
0100
0001
0100
0000
,
0001
0010
0001
0000
1000
0001
1000
0000
,
0010
0010
0010
0000
1000
0100
0010
0100
,
0010
0001
1000
0010
0100
0010
1000
0001
,
0010
0100
0010
0100
1000
0001
0100
0001
,
0010
0001
1000
0010
0220
0000
0000
0000
,
0000
0000
0330
0000
0000
1000
0000
1000
,
0000
1000
0100
0001
1100
0000
0101
0000
,
0001
0010
0000
1100
0000
0010
0000
0010
,
0000
0010
0001
1000
0010
0000
0110
0000
,
1000
0001
1000
0001
0000
0010
0000
0001
,
0000
0100
1000
0100
0011
0000
0110
0000
,
1000
0100
0010
0001
0000
0110
0000
1000
,
0000
0100
0010
0001
2001
0000
0010
0000
,
0100
0000
3001
0100
0010
1000
0010
1000
,
0100
0010
0001
0100
0001
0000
0010
0000
,
0001
0100
0001
1000
0000
0100
0010
0001
,
0010
0100
1000
0001
1000
0010
0100
0000
,
0001
0100
0010
1000
0000
0100
0010
0001
,
0100
0001
0010
0100
1000
0001
0010
0000
,
0001
1000
0010
0000
0100
0001
0100
1000
,
0100
0010
1000
0001
0020
0000
0001
0000
,
0100
1030
1001
1001
,
0100
0010
0100
0000
0011
0000
0011
0000
,
1000
0001
1000
0000
1100
0000
1100
0000
,
0001
1000
0001
2000
0000
0010
3010
0000
,
0100
1001
0110
0110
,
0100
0001
0100
0000
1010
0000
1010
0000
,
0010
0001
0010
0000
0101
0000
0101
0000
,
0100
0001
1000
0020
0000
0100
0000
0001
,
0031
0000
0110
0000
1000
0200
0001
0000
,
0301
0100
1000
0000
0001
0020
1000
0000
,
1030
0010
0001
0000
0100
0020
1000
0000
,
1030
0010
0100
0001
0010
0000
0010
0000
,
0100
0000
0110
0000
0100
0020
0001
0000
,
0031
0010
0100
0000
1000
0002
0100
0000
,
0103
0001
1000
0000
0010
1000
0100
0010
,
0001
0100
0010
1000
2002
0000
0000
0000
,
0000
0000
3003
0000
2100
0000
0000
0010
,
3010
0100
0001
0000
0021
0000
0030
2002
,
0000
0000
3003
0000
0210
0000
0001
0301
,
1000
0010
1000
0000
1100
0000
0011
0000
,
0100
0010
0010
0010
0200
0000
0000
1000
,
1300
0001
0010
0000
0102
0000
0003
2002
,
0000
0000
3003
0000
2010
0000
3100
0001
,
0001
0100
0010
0000
0101
0000
0010
0000
,
0001
1000
0001
0000
1001
0000
0000
0000
;

//---------------dance-single - ----------------
#NOTEDATA:;
#CHARTNAME:EXPERT;
#CHARTHASH:1033095514;
#STEPSTYPE:dance-single;
#BANNER:;
#DESCRIPTION:;
#CHARTSTYLE:;
#DIFFICULTY:Hard;
#METER:15;
#METERF:15.000000;
#LASTSECONDHINT:130.600052;
#RADARVALUES:0.698314,0.736796,0.578174,0.232771,0.322876,651.000000,574.000000,77.000000,31.000000,0.000000,0.000000,0.000000,0.000000,0.000000,0.698314,0.736796,0.578174,0.232771,0.322876,651.000000,574.000000,77.000000,31.000000,0.000000,0.000000,0.000000,0.000000,0.000000;
#CREDIT:YonabearCWY;
#NOTES:
// measure 0
0020
0100
0000
0100
0000
0100
0000
0130
,  // measure 1
0000
1100
0000
0001
0000
0101
0000
1000
,  // measure 2
0200
0010
0000
0010
0000
0010
0000
0010
0000
0010
0000
0010
0000
0010
0000
0310
,  // measure 3
0000
0000
0001
0000
0010
0000
0100
0010
0100
0000
1000
0000
0001
0000
0100
0000
,  // measure 4
0010
0010
0000
1100
0000
0001
0000
0101
,  // measure 5
0000
0010
0000
1010
0000
1000
0001
0011
,  // measure 6
0000
1000
0000
0110
0000
0001
0000
0110
,  // measure 7
0000
0000
1000
0000
0010
0000
1000
0100
1000
0000
0001
0000
0010
0000
0001
0000
,  // measure 8
0100
0100
0000
0011
0000
1000
0000
0101
,  // measure 9
0000
1010
0000
0001
0000
1100
1000
0010
,  // measure 10
0000
1001
0000
0100
0000
1001
0000
0010
,  // measure 11
0001
1000
0001
1000
0010
1000
0010
0100
0010
0100
0010
0001
0010
0100
0010
0000
,  // measure 12
2100
0010
3020
0001
,  // measure 13
0230
0000
1000
0000
1300
0100
0001
0100
,  // measure 14
1000
0000
0100
0001
0100
0000
0001
0000
0010
0000
0100
1000
0100
0000
1000
0000
,  // measure 15
0001
0000
0010
0001
0010
0000
0100
0000
0010
0000
0001
1000
0001
0000
0010
0000
,  // measure 16
0100
0000
1000
0100
0010
0000
0001
0000
0010
0000
0100
1000
0000
0001
0000
1000
,  // measure 17
0002
0000
0010
0000
0100
0000
0010
0000
0100
0000
0013
0000
0001
1000
0001
0000
,  // measure 18
1000
0000
0010
0000
0100
0000
0001
0010
0001
0000
1000
0000
0100
1000
0100
0000
,  // measure 19
0010
0000
0001
1000
0001
0000
0010
0000
0100
0000
0010
0001
0010
0001
0010
0000
,  // measure 20
0100
0000
1000
0000
0001
1000
0001
0000
0010
0000
0100
0010
0000
0100
0000
1000
,  // measure 21
0020
1000
0100
1000
0130
0110
1001
0101
,  // measure 22
2001
0000
0010
0000
3020
0000
0000
0100
,  // measure 23
0000
0130
0000
0100
0001
1000
1001
0000
,  // measure 24
0102
0000
0010
0000
0010
0013
0001
1000
,  // measure 25
1010
0000
0101
0000
1001
1000
1010
0000
,  // measure 26
0210
0000
0001
0000
1000
0000
0010
0320
,  // measure 27
0000
0001
0000
1000
1030
0010
0100
0000
,  // measure 28
0021
0000
0100
0000
1030
0010
0001
0010
,  // measure 29
0210
0000
0000
0001
0301
0000
1010
0000
0101
0000
0002
0000
0010
0000
0000
0000
,  // measure 30
0103
0001
2000
0010
0000
0010
0000
3010
,  // measure 31
1000
0100
0010
0000
0101
2000
0010
0000
,  // measure 32
3100
0001
0100
1000
0100
0010
0001
0100
,  // measure 33
0110
0000
1001
0000
0010
0001
0100
0001
,  // measure 34
1000
0010
1000
0100
0001
0100
1000
0001
,  // measure 35
0100
0000
1000
0000
0100
0000
0001
0000
1000
0001
1000
0001
0010
0001
0010
0100
,  // measure 36
0010
0100
1000
0100
1000
0000
0010
0000
0100
0000
0010
0000
0010
0000
1000
0000
,  // measure 37
0100
0000
0010
0001
0010
0000
0100
0000
1000
0000
0001
0010
0001
0000
0010
0000
,  // measure 38
0000
0100
1000
0001
0101
0000
1010
0000
,  // measure 39
1000
0000
0010
1000
0010
0000
0101
0000
0000
0000
0011
0000
0000
0000
1001
0000
,  // measure 40
0000
0000
0110
0000
0001
1000
0001
0000
0010
0000
0100
0000
0011
0000
0000
0000
,  // measure 41
1100
0001
0100
1001
0000
1010
0000
0101
,  // measure 42
0000
0000
0010
0001
1000
0000
0100
0000
1010
0000
0000
0000
0011
0000
0000
0000
,  // measure 43
0100
0000
0010
1000
0001
0000
1100
0000
0000
0000
0101
0000
0000
0000
0011
0000
,  // measure 44
0000
0000
1000
0000
0001
0000
0010
0001
0010
0000
0001
0000
0100
0000
0010
1000
,  // measure 45
0010
0000
1000
0000
0100
0010
0002
0000
0000
0000
1003
0000
0010
0000
0001
0000
,  // measure 46
0010
1000
0001
0100
0001
0010
1010
0000
,  // measure 47
0100
0010
0001
1001
0000
1100
0000
1001
,  // measure 48
0000
0101
0010
0001
1000
0001
0100
1000
,  // measure 49
0100
0001
1000
0010
0000
0100
0001
0010
,  // measure 50
0100
0010
0001
1000
0100
0010
0110
0000
,  // measure 51
1000
1001
0000
0011
0000
0110
0000
0101
,  // measure 52
0000
0110
0000
1100
2002
0000
0000
0000
,  // measure 53
0000
0000
0000
0000
3003
0000
0000
0000
0100
0000
0001
0010
0001
0000
1000
0000
,  // measure 54
0001
0000
1000
0010
1000
0000
0001
0000
0100
0000
0010
1000
0010
0000
0100
0000
,  // measure 55
0001
0010
0001
0000
0100
0000
0010
0000
1000
0000
0100
0010
0100
0000
0010
0000
,  // measure 56
0001
0000
0010
0100
0010
0000
0100
0000
1100
0000
0000
0000
0101
0000
0000
0000
,  // measure 57
0110
0000
0010
0000
1001
0000
0000
0000
1000
0000
0001
0010
0100
0000
0010
0000
,  // measure 58
0001
0000
1000
0010
0100
0000
0001
0000
0100
0000
0010
1000
0001
0000
0100
0000
,  // measure 59
0010
0000
0001
0010
0100
0000
0010
0000
0100
0000
1000
0000
0001
0000
0100
0000
,  // measure 60
0001
1000
0010
0000
1000
0000
0100
0000
1100
0000
0000
0000
0101
0000
0100
0000
,  // measure 61
0001
0010
0001
1000
0010
1000
0100
0010
,  // measure 62
0001
0100
0001
0100
0001
0000
0010
0000
0001
0000
0100
0000
0010
0000
1000
0000
,  // measure 63
0100
0000
1000
0001
1000
0000
0001
0100
0001
0000
0010
0000
0001
0000
1000
0000
,  // measure 64
0010
1000
0010
1000
0010
0000
0100
0000
0001
0000
0010
0000
0011
0000
0000
0000
,  // measure 65
1001
1000
0110
0000
0001
0010
0001
1000
,  // measure 66
0100
0001
0100
0010
0001
0010
0100
1000
,  // measure 67
0010
0000
0001
0000
0010
0000
0100
0000
0010
1000
0010
1000
0100
0010
0100
0010
,  // measure 68
0001
1000
0001
1000
0001
0100
0001
0200
0020
0000
0000
0000
0000
0000
0000
0000
,  // measure 69
0000
0000
0000
0000
0330
0000
0000
0000
2001
0000
0000
0000
0010
0000
0000
3001
,  // measure 70
0100
0010
1000
0100
1200
0000
0001
0001
,  // measure 71
0000
0000
0010
0000
0310
0000
0000
0000
1002
0000
0000
0000
0103
0010
0000
0010
,  // measure 72
0001
0000
1000
0000
0020
0000
0000
0000
0130
0001
0100
0000
0001
0000
0010
0100
,  // measure 73
0010
0000
0100
0000
0010
0001
0010
0100
2000
0000
0000
0000
3001
0000
0100
0000
,  // measure 74
1000
0100
0010
0001
0120
0000
1030
0001
,  // measure 75
0001
1000
0001
0000
0021
0000
1030
0010
,  // measure 76
0001
0000
0010
0000
0100
0000
0001
0000
0100
1000
0100
0000
1000
0000
0001
0010
,  // measure 77
0001
0000
1000
0000
0100
0010
0100
0000
2002
0000
0000
0000
0000
0000
0000
0000
,  // measure 78
0000
0000
3003
0000
;
