#TITLE:Motion;
#SUBTITLE:;
#ARTIST:SPARKER;
#TITLETRANSLIT:;
#SUBTITLETRANSLIT:;
#ARTISTTRANSLIT:;
#GENRE:ELECTRONICA;
#CREDIT:YonabearCWY;
#BANNER:Motion.png;
#BACKGROUND:Motion-bg.png;
#LYRICSPATH:;
#CDTITLE:Keyboardmania.png;
#MUSIC:Motion.ogg;
#OFFSET:-3.120000;
#SAMPLESTART:3.108000;
#SAMPLELENGTH:15.000000;
#SELECTABLE:YES;
#BPMS:0.000000=160.000000
;
#STOPS:
;
#BGCHANGES:0.000=grid3.mp4=1.400=0=0=1===CrossFade_Faster==,
16.000=grid5.mp4=1.400=0=0=1=====,
24.000=ring4.mp4=1.000=0=0=1=====,
40.000=ring3.mp4=1.000=0=0=1=====,
56.000=bubble4.mp4=0.900=0=0=1=====,
72.000=grid3.mp4=1.400=0=1=1=StretchRewind====,
84.000=grid5.mp4=1.400=0=1=1=StretchRewind====,
88.000=rain1.mp4=1.400=0=0=1=====,
104.000=planet2.mp4=1.400=0=0=1=====,
120.000=grid3.mp4=1.400=0=1=1=StretchRewind====,
132.000=grid5.mp4=1.400=0=1=1=StretchRewind====,
136.000=ring4.mp4=1.000=0=1=1=StretchRewind====,
152.000=ring3.mp4=1.000=0=1=1=StretchRewind====,
168.000=grid3.mp4=1.400=0=1=1=StretchRewind====,
180.000=grid5.mp4=1.400=0=1=1=StretchRewind====,
184.000=bubble4.mp4=0.900=0=1=1=StretchRewind====,
200.000=bluey2.mp4=0.500=0=0=1=====,
215.500=Motion-bg.png=1.000=0=0=1=====,
99999=-nosongbg-=1.000=0=0=0 // don't automatically add -songbackground-
;
#KEYSOUNDS:;
#ATTACKS:;

//---------------dance-single - ----------------
#NOTES:
     dance-single:
     BASIC:
     Easy:
     5:
     0.261797,0.304723,0.237557,0.135747,0.000000,162.000000,141.000000,21.000000,12.000000,0.000000,0.000000,0.261797,0.304723,0.237557,0.135747,0.000000,162.000000,141.000000,21.000000,12.000000,0.000000,0.000000:
1000
1000
1000
0000
,
1000
1000
1000
0000
,
0001
0001
0001
0000
,
0001
0001
0001
0000
,
0100
0100
0100
0000
,
0010
0010
0010
0000
,
2002
0000
0000
0000
,
0000
3003
0000
0010
,
1000
0100
0010
0001
,
0100
0010
1000
0000
,
0220
0000
0330
0001
,
0010
0100
1000
0001
,
0100
0010
1000
0000
,
1000
0001
0010
0000
,
2020
0000
0000
3030
,
0202
0000
0303
0010
,
0100
1000
0001
0100
,
0010
0001
0010
0100
,
1001
0000
0010
0000
,
0010
0100
0001
0000
,
0110
0000
1000
0000
,
1000
0010
0100
0000
,
0010
0010
0010
0000
,
0010
0010
0010
0000
,
0100
0100
0100
0000
,
0100
0100
0100
0000
,
0000
1001
0000
1001
,
0000
0010
0000
0010
,
0000
0110
0000
0110
,
0000
1000
0000
1000
,
0001
0001
0001
0000
,
1000
1000
1000
0000
,
0010
0010
0010
0000
,
0100
0100
0100
0000
,
0010
1000
0100
0010
,
0001
0000
0001
0000
,
0001
0100
0010
1000
,
0001
1000
0000
1000
,
0100
0010
0001
0100
,
0010
1000
0001
0010
,
0100
1000
0001
0000
,
0100
0001
0010
0100
,
1000
0101
0000
1010
,
0000
0101
0000
0010
,
0100
0110
0000
1001
,
0000
0110
0000
0010
,
0001
0011
0000
1100
,
0000
0011
0000
1000
,
0010
0100
0001
0010
,
2200
0000
0000
3300
,
2002
0000
0000
0000
,
0000
0000
0000
0000
,
0000
0000
0000
0000
,
0000
0000
0000
0000
0000
0000
0000
3003
;

//---------------dance-single - ----------------
#NOTES:
     dance-single:
     DIFFICULT:
     Medium:
     10:
     0.483193,0.518029,0.282805,0.124434,0.067873,299.000000,274.000000,25.000000,11.000000,0.000000,0.000000,0.483193,0.518029,0.282805,0.124434,0.067873,299.000000,274.000000,25.000000,11.000000,0.000000,0.000000:
0010
0100
1000
0001
,
0100
0000
0010
0000
1000
0000
0100
0010
,
0001
1000
0010
0001
,
0010
0000
1000
0000
0100
0010
0100
1000
,
0001
0100
1000
0100
,
0010
0000
0100
0000
0001
0000
0010
0100
,
0202
0000
0000
0000
,
0000
0000
0303
1000
,
0010
1000
0100
0000
1000
0001
0100
0000
,
0001
0010
0100
0000
1010
0000
1100
0000
,
2002
0000
0000
0000
3003
0000
1000
0010
,
0100
0000
0001
0000
0010
0100
1000
0100
,
0010
0011
1001
0101
,
0010
0100
0001
0000
1001
0000
0010
1000
,
0100
0000
0000
1000
0000
0000
0010
0000
0100
0000
0001
0000
0010
0000
0001
0000
,
1000
0000
0000
0001
0000
0000
0010
0000
0000
0000
0100
0000
0010
0000
0100
0000
,
1000
0000
0010
0000
0000
0100
0000
0000
0001
0000
0010
0000
0100
0000
1000
0000
,
0001
0000
0000
0010
0000
0000
0100
0000
0010
0000
0001
0000
1000
0000
0010
0000
,
0100
0001
0000
1010
0000
0100
0000
0101
,
0000
0010
0000
0110
0000
1000
0000
0001
,
0010
1000
0010
0001
1000
0010
0001
0010
,
1000
0001
0100
0010
1000
0100
0010
0001
,
1000
0000
0000
0000
0010
0000
0000
0100
1000
0000
0000
0000
0100
0000
0010
0000
,
0100
0000
0000
0000
0001
0000
0000
0010
0100
0000
1000
0000
0001
0000
1000
0000
,
0010
0000
0000
0000
0100
0000
0000
0001
0010
0000
0000
0000
0001
0000
1000
0000
,
0001
0000
0000
0000
1000
0000
0000
0100
0001
0000
0100
0000
1000
0000
0100
0000
,
0010
0001
0101
0000
0010
1000
1100
0000
,
0001
0100
1000
0100
,
0010
1000
1001
0000
0100
0001
0011
0000
,
0100
0010
0001
0010
,
1000
0010
0001
0010
0100
0010
0100
0000
,
0001
1000
0100
1000
0001
0010
0001
0000
,
1000
0100
0010
0001
1000
0010
0100
0000
,
0010
0000
0100
0000
1000
0000
0100
0000
0001
0000
0000
1000
0000
0000
0010
0000
,
0110
0100
1100
1000
,
1001
0000
0010
0001
0100
0000
0001
1000
,
0110
0001
1001
0100
,
1100
0000
1000
0010
0100
0000
0001
0010
,
0100
0000
1000
0100
0010
0001
0100
0001
,
0000
0010
0000
0001
0000
1000
0000
0010
,
0000
1100
0000
0010
0000
0110
0000
0100
,
0000
1001
0000
0010
0100
1000
0001
1000
,
0020
0000
1000
1000
0000
0130
0010
0000
,
0200
0000
0301
1000
0010
1000
0100
0000
,
2000
0000
0010
0010
0000
3001
1000
0000
,
0100
0010
0001
0010
1000
0010
0100
1000
,
0002
0010
1000
0010
,
0103
0001
0010
0100
1000
0001
0100
0000
,
0020
0001
0100
1000
,
0130
0000
0000
0010
0000
0000
1000
0000
0000
0001
0000
0010
0100
0000
1000
0000
,
2002
0000
0000
0000
,
0000
0000
0000
0000
,
0000
0000
0000
0000
,
0000
0000
0000
0000
0000
0000
0000
3003
;

//---------------dance-single - ----------------
#NOTES:
     dance-single:
     EXPERT:
     Hard:
     13:
     0.594699,0.609446,0.079186,0.214932,0.345023,368.000000,361.000000,7.000000,19.000000,0.000000,0.000000,0.594699,0.609446,0.079186,0.214932,0.345023,368.000000,361.000000,7.000000,19.000000,0.000000,0.000000:
// measure 0
0010
0100
1000
0001
0100
0010
0001
1000
,  // measure 1
0100
0010
1000
0001
0010
0100
1000
0001
,  // measure 2
0100
0010
0001
1000
0100
0010
1000
0001
,  // measure 3
0100
0010
1000
0100
0010
0001
0100
0010
,  // measure 4
1000
0001
0010
1000
0001
0100
0010
0001
,  // measure 5
1000
0100
0001
0100
0000
1000
0000
0001
,  // measure 6
0200
0010
1000
0001
,  // measure 7
1000
0010
0001
1000
,  // measure 8
0302
0010
1000
0010
,  // measure 9
0100
0000
0010
0000
1000
0000
0013
0001
,  // measure 10
0200
0000
0010
0000
0000
0010
0000
0010
0000
0000
0000
0000
0010
0000
0000
0000
,  // measure 11
0302
0000
1000
0000
0000
1000
0000
1000
0000
0000
1000
0000
1000
0000
0000
0000
,  // measure 12
2003
0000
0010
0000
0000
0010
0000
0010
0000
0000
0000
0000
0010
0000
0000
0000
,  // measure 13
3020
0100
0001
0130
,  // measure 14
2002
0000
0000
3003
,  // measure 15
0001
1000
0000
0100
1000
0000
0010
1000
0000
0100
1000
0000
0100
0000
0010
0000
,  // measure 16
0002
0000
1000
0000
0013
0100
2000
0000
,  // measure 17
3020
0000
0100
0000
0031
0010
0100
0010
,  // measure 18
1000
0010
1000
0100
0000
0010
0001
0100
,  // measure 19
0001
1000
0100
0010
0000
0001
0010
0100
,  // measure 20
0010
0000
0001
0000
1000
0000
0010
0100
0000
0000
0001
0000
1000
0000
0100
0000
,  // measure 21
0010
0000
0001
0000
0100
0000
0010
1000
0000
0000
0001
0000
0100
0000
0010
0000
,  // measure 22
1000
0000
0100
0000
0000
1000
0000
0001
0100
0000
0001
0000
0010
0000
0001
0000
,  // measure 23
1000
0000
0010
0000
0000
0100
0000
0001
1000
0000
0010
0000
0001
0000
0010
0000
,  // measure 24
1000
0000
0001
0000
0000
0010
0000
0001
0010
0000
0100
0000
1000
0000
0001
0000
,  // measure 25
0010
0000
0001
0000
0000
0100
0000
0010
1000
0000
0001
0000
0001
0000
1000
0000
,  // measure 26
0010
0000
1000
0000
0100
1000
0000
1000
0010
0000
0100
0000
0001
0000
0010
0000
,  // measure 27
0001
0000
1000
0000
0010
0100
0000
0100
0001
0000
0010
0000
0100
0000
0010
0000
,  // measure 28
0001
0000
1000
0000
0010
1000
0000
1000
0100
0000
0001
0000
0100
0000
1000
0000
,  // measure 29
0010
0000
0100
0000
0001
0010
0000
0010
1000
0000
0010
0000
0001
0000
0010
0000
,  // measure 30
0100
1000
1000
0010
0100
0001
0100
0001
,  // measure 31
0001
0010
0001
0100
0100
0001
1000
0010
,  // measure 32
0010
1000
0001
1000
0001
0100
0100
0001
,  // measure 33
0010
0000
0100
0000
0100
0000
1000
0001
1000
0000
0001
0000
0000
0000
0100
0000
,  // measure 34
0110
0000
0000
0000
1000
0001
0000
0001
0010
0000
0001
0000
0100
0000
0010
0000
,  // measure 35
0011
0000
0000
0000
1000
0100
0000
0100
0010
0000
0001
0000
1000
0000
0010
0000
,  // measure 36
1010
0000
0000
0000
0001
0100
0000
0100
0010
0000
1000
0000
0001
0100
0001
0000
,  // measure 37
1000
0000
0010
0000
0000
0100
0000
0001
1000
0000
0010
0000
0100
0001
0000
0010
,  // measure 38
0000
0001
0000
0000
0000
1000
0000
0010
0100
0000
0001
0000
0010
0001
0010
0000
,  // measure 39
0001
0000
0100
0000
0000
0010
0000
1000
0100
0000
1000
0000
0001
0000
1000
0010
,  // measure 40
1000
0000
0001
0000
0000
0010
0000
0100
1000
0000
0010
0000
0100
0000
0010
0000
,  // measure 41
0001
0000
0010
0000
0000
0100
0000
0001
1000
0000
0001
0010
0001
0000
1000
0000
,  // measure 42
0120
0000
1000
1000
0000
0100
0130
0000
,  // measure 43
0201
0000
0000
0000
0010
0000
0010
0000
0000
0000
1000
0000
1300
0000
0000
0001
,  // measure 44
0100
0000
0010
1000
0001
0000
1000
0010
,  // measure 45
0100
0000
0001
0000
0010
0000
0000
0000
0100
0000
1000
0000
0001
0100
0000
0100
,  // measure 46
0020
0000
0001
0001
0000
1000
1030
0000
,  // measure 47
0201
0000
1000
1000
0000
0010
0310
0000
,  // measure 48
0100
0001
1000
0010
0001
0010
1000
0001
,  // measure 49
1000
0010
0000
0100
0010
0000
1000
0001
0000
0100
0010
0000
1000
0100
0000
0010
,  // measure 50
0002
0000
0000
0000
,  // measure 51
0020
0000
0000
0003
,  // measure 52
2000
0000
0000
0030
,  // measure 53
0002
0000
0000
0000
0000
0000
0000
3003
;

//---------------dance-single - ----------------
#NOTES:
     dance-single:
     BEGINNER:
     Beginner:
     3:
     0.151907,0.213306,0.067873,0.101810,0.000000,94.000000,88.000000,6.000000,9.000000,0.000000,0.000000,0.151907,0.213306,0.067873,0.101810,0.000000,94.000000,88.000000,6.000000,9.000000,0.000000,0.000000:
0000
1000
0000
1000
,
0000
0001
0000
0001
,
0000
1000
0000
1000
,
0000
0001
0000
0001
,
0000
1000
0000
1000
,
0000
0001
0000
0001
,
1001
0000
0000
0000
,
0000
0000
0000
0000
,
0010
0000
0010
0000
,
0010
0000
0010
0000
,
0000
0000
0000
0000
,
0100
0000
0100
0000
,
0100
0000
0100
0000
,
0000
0000
0000
0000
,
1001
0000
0000
0000
,
0020
0000
0000
0030
,
1000
0000
1000
0000
,
1000
0000
1000
0000
,
0000
0000
0000
0000
,
0100
0000
0100
0000
,
0010
0000
0010
0000
,
0001
0000
0001
0000
,
1001
0000
0000
0000
,
0100
0100
0100
0000
,
0110
0000
0000
0000
,
0010
0010
0010
0000
,
0000
1000
0000
1000
,
0000
1000
0000
0000
,
0000
0001
0000
0001
,
0000
0001
0000
0000
,
0000
0100
0000
0100
,
0000
0100
0000
0000
,
0000
0010
0000
0010
,
0000
0010
0000
0000
,
2000
0000
3000
1000
,
0001
0000
0001
0000
,
0002
0000
0003
0001
,
1000
0000
1000
0000
,
2000
0000
3000
0000
,
1000
0001
1000
0000
,
0002
0000
0003
0000
,
0001
1000
0001
0000
,
0000
0100
0000
0100
,
0000
0100
0000
0100
,
0010
0100
0000
0100
,
0000
0100
0000
0100
,
0001
1000
0000
1000
,
0000
1000
0000
0001
,
1000
0010
0000
0010
,
0220
0000
0000
0330
,
2002
0000
0000
0000
,
0000
0000
0000
0000
,
0000
0000
0000
0000
,
0000
0000
0000
0000
0000
0000
0000
3003
;

//---------------dance-double - ----------------
#NOTES:
     dance-double:
     EXPERT:
     Hard:
     14:
     0.641564,0.761807,0.169683,0.339366,0.299774,397.000000,382.000000,15.000000,30.000000,0.000000,0.000000,0.641564,0.761807,0.169683,0.339366,0.299774,397.000000,382.000000,15.000000,30.000000,0.000000,0.000000:
10000000
00010000
00100000
01000000
00100000
00001000
00010000
00100000
,
01000000
00100000
00001000
00000100
00001000
00010000
00001000
00000100
,
00000010
00000001
00001000
00000100
00000010
00000100
00010000
00001000
,
00010000
00100000
01000000
10000000
01000000
00010000
00100000
01000000
,
00100000
00001000
00010000
00001000
01000000
00001000
00100000
00001000
,
00010000
00000100
00010000
00000010
00010000
00001000
00010000
00000100
,
00012000
00100000
01000000
00013000
,
00210000
01000000
10000000
00310000
,
00100000
00001000
00020000
00000000
00000100
00000000
00001000
00000000
,
00030100
00010000
00000020
00000000
00000200
00000000
00000330
00000000
,
00000002
00000000
00000100
00000000
00000000
00001000
00000000
00001000
00000000
00000000
00000100
00000000
00000103
00000000
00000000
00000000
,
00000010
00000100
00020000
00000000
00130000
01000000
20000000
00000000
,
30020000
00000000
00100000
00000000
00000000
10000000
00000000
10000000
00000000
00000000
00100000
00000000
00130000
00000000
00001000
00000000
,
00010000
00000100
00000010
00000000
00002002
00000000
00003003
00000000
,
00022000
00000000
00000000
00033000
,
00100000
01000000
00100000
01000000
00100000
01000000
10000000
01000000
10000000
01000000
10000000
00010000
02000000
00000000
00000000
00000000
,
03010000
00100000
00002000
00000000
00023000
00000000
00030200
00000000
,
00000310
00000100
00001000
00000100
00000010
00000001
00002000
00000000
,
00003010
00000000
00001000
00000000
00000100
00000000
00001000
00000001
00001000
00000000
00000010
00000000
00000100
00000000
00001000
00000100
,
00001000
00000000
00010000
00000000
00001000
00000000
01000000
00010000
01000000
00000000
00010000
00100000
00010000
00000000
00100000
00000000
,
00100000
00000000
01000000
00000000
00010000
00000000
01000000
00100000
01000000
00000000
10000000
00000000
00010000
00000000
00100000
01000000
,
00100000
00000000
00001000
00000000
00010000
00000000
00001000
00010000
00000100
00010000
00000100
00010000
00000100
00000000
00010000
00000000
,
00010010
00000000
00001100
00000000
00000010
00000001
00001000
00000100
,
00000110
00000000
00011000
00000000
00100000
00010000
01000000
10000000
,
01010000
00000000
11000000
00000000
01000000
00100000
00010000
00001000
,
00001100
00000000
00000000
00000000
00000100
00000001
00000100
00000001
00000000
00000000
00000000
00000000
00000010
00001000
00000010
00001000
,
00010000
00001000
00010000
00000100
00000010
00000100
00010000
00001000
,
00100000
01000000
00100000
00001000
00010000
00100000
01000000
00010000
,
01000000
00100000
10000000
01000000
00100000
00001000
00010000
00001000
,
00000100
00000000
00000010
00000000
00001000
00000000
00000001
00000000
00000010
00000000
00000100
00000000
00001000
00000000
00000000
00000100
,
00010000
00001000
00100000
01000000
00100000
00010000
10000000
01000000
,
00100000
00000000
01000000
00000000
00010000
00000000
00001000
00000000
00010000
00000000
00100000
00000000
00010000
00000000
00000000
00000100
,
00001000
00000010
00000100
00000001
00000010
00000100
00001000
00000100
,
00010000
00000000
00001000
00000000
00100000
01000000
00100000
02000000
00000000
00000000
00000000
13000000
00000000
00010000
01000000
00000000
,
01100000
00000000
00000000
00000000
00001000
00100000
00000000
00001000
00010000
00000000
00000000
00000000
00000100
00000000
00001000
00000000
,
00000010
00000000
00000001
00000000
00000010
00000100
00000000
00000010
00000000
00001000
00000100
00000000
00010000
00000000
00001000
00000000
,
00101000
00000000
00000000
00000000
01000000
00100000
00000000
10000000
00010000
00000000
00000000
00000000
10000000
00000000
01000000
00000000
,
00100000
00000000
00010000
00000000
00100000
00001000
00100000
00001000
00000000
00010000
00000100
00000000
00001000
00000000
00010000
00000000
,
00001000
00000010
00001000
00000100
00001000
00000001
00000010
00000100
,
00000010
00000001
00001000
00000100
00010000
00000100
00001000
00000010
,
00000100
00001000
00010000
00001000
00100000
00001000
00010000
00100000
,
01000000
10000000
00010000
01000000
00100000
10000000
01000000
10000000
,
10010000
00000000
00000000
00000000
01000000
00100000
00000000
00001000
00100000
00000000
00000000
00000000
00001000
00000000
00010000
00000000
,
00000100
00000000
00000000
00000000
00001000
00000010
00000000
00000001
00000010
00000000
00000000
00000000
00000100
00000000
00000010
00000000
,
00002000
00003200
00020300
00032000
,
00203000
00000000
02300000
00000000
13000000
00010000
00100000
01000000
,
00100000
00000000
00001000
00000000
00010000
00000000
00000100
00010000
00000100
00000000
00010000
00000000
00000010
00000000
00001000
00000100
,
00001000
00000000
00000001
00000000
00000010
00000000
00000100
00000010
00000100
00000000
00000010
00000000
00000001
00000000
00001000
00000000
,
00000100
00000000
00010000
00000000
00001000
00000000
00100000
00010000
00100000
00000000
00010000
00000000
10000000
00000000
00100000
00000000
,
01000000
00010000
01000000
00010000
01000000
00010000
00100000
00001000
00100000
00001000
00100000
00001000
00010000
00000000
00000100
00000000
,
00000220
00000000
00000000
00000030
,
00020000
00000000
00000000
00000300
,
00002000
00000000
00000000
00030000
,
00200000
00000000
00000000
00000000
00000000
00000000
00000000
00303000
;
