#VERSION:0.83;
#TITLE:MÁS;
#SUBTITLE:;
#ARTIST:KINKY;
#TITLETRANSLIT:MAS;
#SUBTITLETRANSLIT:;
#ARTISTTRANSLIT:;
#GENRE:NORTEC;
#ORIGIN:;
#TAGS:;
#CREDIT:YonabearCWY;
#BANNER:MAS.png;
#BACKGROUND:MAS-bg.png;
#PREVIEWVID:;
#JACKET:MAS-jacket.png;
#CDIMAGE:;
#DISCIMAGE:;
#LYRICSPATH:;
#CDTITLE:cdtitle.png;
#MUSIC:MAS.ogg;
#OFFSET:-9.050000;
#SAMPLESTART:31.579559;
#SAMPLELENGTH:20.000000;
#SELECTABLE:YES;
#DISPLAYBPM:53.000000:106.000000;
#BPMS:0.000000=106.470001
,116.000000=53.235001
,117.500000=52.049999
,118.000000=106.470001
;
#STOPS:;
#DELAYS:;
#WARPS:;
#TIMESIGNATURES:0.000000=4=4
;
#TICKCOUNTS:0.000000=4
;
#COMBOS:0.000000=1
;
#SPEEDS:0.000000=1.000000=0.000000=0
;
#SCROLLS:0.000000=1.000000
;
#FAKES:;
#LABELS:0.000000=Song Start
;
#BGCHANGES:0.000=amoeba5.mp4=2.000=1=0=1===CrossFade==,
4.000=text7.mp4=1.000=0=0=1=====,
8.000=amoeba5.mp4=2.000=0=0=1=====,
12.000=text12.mp4=1.000=0=0=1=====,
16.000=arrows1.mp4=1.000=0=0=1=====,
20.000=text29.mp4=1.000=0=0=1=====,
24.000=circle10.mp4=1.000=0=0=1=====,
28.000=circle9.mp4=1.000=0=0=1=====,
32.000=circle5.mp4=1.000=0=0=1=====,
40.000=circle7.mp4=1.000=0=0=1=====,
44.000=circle12.mp4=1.000=0=0=1=====,
48.000=circle7r.mp4=1.000=0=0=1=====,
52.000=circle12r.mp4=1.000=0=0=1=====,
56.000=arrows1.mp4=1.000=0=1=1=StretchRewind====,
64.000=text12.mp4=1.000=0=1=1=StretchRewind====,
72.000=balloon1.mp4=1.000=0=0=1=====,
80.000=blackhole1.mp4=1.000=0=0=1=====,
88.000=circle10.mp4=1.000=0=1=1=StretchRewind====,
92.000=circle9.mp4=1.000=0=1=1=StretchRewind====,
96.000=amoeba5.mp4=2.000=0=1=1=StretchRewind====,
104.000=text7.mp4=1.000=0=1=1=StretchRewind====,
112.000=bubble1.mp4=1.000=0=0=1=====,
116.000=bubble1.mp4=0.500=0=0=1=====,
118.000=circle7.mp4=1.000=0=1=1=StretchRewind====,
126.000=circle12.mp4=1.000=0=1=1=StretchRewind====,
134.000=circle7r.mp4=1.000=0=1=1=StretchRewind====,
142.000=circle12r.mp4=1.000=0=1=1=StretchRewind====,
150.000=circle5.mp4=1.000=0=1=1=StretchRewind====,
158.000=amoeba5.mp4=2.000=0=1=1=StretchRewind====,
162.000=text7.mp4=1.000=0=1=1=StretchRewind====,
166.000=amoeba5.mp4=2.000=0=0=1=====,
170.000=text12.mp4=1.000=0=1=1=StretchRewind====,
174.000=arrows1.mp4=1.000=0=1=1=StretchRewind====,
178.000=text29.mp4=1.000=0=1=1=StretchRewind====,
182.000=circle10.mp4=1.000=0=1=1=StretchRewind====,
186.000=circle9.mp4=1.000=0=1=1=StretchRewind====,
190.000=MAS-bg.png=1.000=0=0=1=====,
99999=-nosongbg-=1.000=0=0=0 // don't automatically add -songbackground-
;
#KEYSOUNDS:;
#ATTACKS:
;

//---------------dance-single - ----------------
#NOTEDATA:;
#CHARTNAME:BEGINNER;
#CHARTHASH:2147483647;
#STEPSTYPE:dance-single;
#BANNER:;
#DESCRIPTION:;
#CHARTSTYLE:;
#DIFFICULTY:Beginner;
#METER:3;
#METERF:3.000000;
#LASTSECONDHINT:119.516487;
#RADARVALUES:0.000000,0.000000,0.000000,0.000000,0.000000,0.000000,0.000000,0.000000,0.000000,0.000000,0.000000,0.000000,0.000000,0.000000,0.000000,0.000000,0.000000,0.000000,0.000000,0.000000,0.000000,0.000000,0.000000,0.000000,0.000000,0.000000,0.000000,0.000000;
#CREDIT:YonabearCWY;
#DISPLAYBPM:53.000000:106.000000;
#NOTES:
1001
0000
0000
0010
,
0010
0000
0010
0000
,
0110
0000
0000
0100
,
0100
0000
0100
0000
,
1001
0000
0000
1000
,
1000
0000
1000
0000
,
1001
0000
0000
0001
,
0001
0000
0001
0000
,
0220
0000
0000
0000
,
0330
0000
0000
0000
,
1000
0000
1000
0000
,
0001
0000
0001
0000
,
0100
0000
0100
0000
,
0220
0000
0330
0000
,
0010
0000
0010
0000
,
0100
0000
0100
0000
,
0001
0000
1000
0000
,
2002
0000
0000
3003
,
0220
0000
0000
0000
,
0330
0000
0000
0000
,
1000
0000
1000
0000
,
1000
0000
0000
0000
,
0100
0000
0100
0000
,
0100
0000
0000
0000
,
0010
0000
0010
0000
,
0010
0000
0000
0000
,
0001
0000
0001
0000
,
0001
0000
0000
0000
,
2002
0000
0000
0000
,
0000
0000
0000
3003
0100
0000
0000
0000
,
0000
0100
0100
0000
,
0000
0010
0010
0000
,
0000
1000
2002
0000
,
3003
0000
0001
0001
,
0001
0000
0010
0010
,
0010
0000
0100
0100
,
0100
0000
1000
1000
,
1000
1000
2002
0000
,
0000
0000
0000
0000
,
0000
3003
0010
0000
,
0010
0000
0010
0000
,
0000
0000
0100
0000
,
0100
0000
0100
0000
,
0000
0000
0001
0000
,
0001
0000
0001
0000
,
0000
0000
1000
0000
,
1000
0000
1000
0000
,
0000
0000
2002
0000
,
0000
0000
3003
0000
;

//---------------dance-single - ----------------
#NOTEDATA:;
#CHARTNAME:BASIC;
#CHARTHASH:2147483647;
#STEPSTYPE:dance-single;
#BANNER:;
#DESCRIPTION:;
#CHARTSTYLE:;
#DIFFICULTY:Easy;
#METER:6;
#METERF:6.000000;
#LASTSECONDHINT:119.516487;
#RADARVALUES:0.000000,0.000000,0.000000,0.000000,0.000000,0.000000,0.000000,0.000000,0.000000,0.000000,0.000000,0.000000,0.000000,0.000000,0.000000,0.000000,0.000000,0.000000,0.000000,0.000000,0.000000,0.000000,0.000000,0.000000,0.000000,0.000000,0.000000,0.000000;
#CREDIT:YonabearCWY;
#DISPLAYBPM:53.000000:106.000000;
#NOTES:
1000
1000
0001
0001
,
0220
0000
0330
0100
,
0010
0010
0100
0100
,
2002
0000
3003
0010
,
1000
1000
0100
0100
,
0220
0330
0010
0001
,
0220
0330
0100
1000
,
0001
0001
0100
0100
,
2002
0000
0000
3003
,
0010
0000
0010
0000
,
0010
0000
0100
0100
,
0100
0000
0010
0010
,
0010
0000
0100
0100
,
1001
0000
0000
0110
0000
0000
1000
0000
,
0001
0001
0001
0000
,
1000
1000
1000
0000
,
0001
0001
0001
0000
,
0110
0000
0000
1001
0000
0000
0110
0000
,
2002
0000
0000
3003
,
0100
0000
0100
0000
,
0100
0000
0000
0001
0000
0000
0010
0000
,
0100
0000
0000
1000
0000
0000
0001
0000
,
1000
0000
0000
0010
0000
0000
0001
0000
,
0010
0000
0000
1000
0000
0000
0010
0000
,
0100
0000
0000
0001
0000
0000
1000
0000
,
0100
0000
0000
0010
0000
0000
0001
0000
,
0010
0000
0000
0100
0000
0000
1000
0000
,
0001
0000
0000
1000
0000
0000
0010
0000
,
0220
0000
0000
0000
,
0000
0000
0000
0330
1000
0000
1000
0000
,
1000
0000
0100
0100
,
0100
0000
0010
0010
,
0010
0000
0000
0000
0011
0000
0000
1100
,
0000
0011
0001
0001
,
0001
0000
0010
0010
,
0010
0000
0100
0100
,
0100
0000
0000
0000
1010
0000
0000
0101
,
0000
1010
2002
0000
,
0000
0000
0000
0000
,
0000
0000
3003
0000
1001
0000
0000
1000
,
0000
0000
0010
0000
0100
0000
0000
0100
,
0000
0000
0010
0000
1000
0000
0000
1000
,
0000
0000
0001
0000
0100
0000
0000
0100
,
0000
0001
0010
0010
,
0001
1000
0010
0010
,
1000
0001
0001
1000
,
0100
1000
1000
0010
,
0100
0100
0220
0000
,
0000
0000
0330
0000
;

//---------------dance-single - ----------------
#NOTEDATA:;
#CHARTNAME:DIFFICULT;
#CHARTHASH:2147483647;
#STEPSTYPE:dance-single;
#BANNER:;
#DESCRIPTION:;
#CHARTSTYLE:;
#DIFFICULTY:Medium;
#METER:8;
#METERF:8.000000;
#LASTSECONDHINT:119.516487;
#RADARVALUES:0.000000,0.000000,0.000000,0.000000,0.000000,0.000000,0.000000,0.000000,0.000000,0.000000,0.000000,0.000000,0.000000,0.000000,0.000000,0.000000,0.000000,0.000000,0.000000,0.000000,0.000000,0.000000,0.000000,0.000000,0.000000,0.000000,0.000000,0.000000;
#CREDIT:YonabearCWY;
#DISPLAYBPM:53.000000:106.000000;
#NOTES:
1000
0000
0000
0000
1000
0000
0000
0000
0001
0000
0100
0000
0000
0010
0000
0000
,
0010
0000
0010
0000
1000
0010
0001
0000
,
0010
0000
0000
0000
0010
0000
0000
0000
0100
0000
0001
0000
0000
1000
0000
0000
,
0100
0000
0100
0000
1000
0100
0001
0000
,
0100
0000
1000
0000
0010
0100
0010
0000
,
0100
0000
0001
0000
0010
0100
0010
0000
,
0001
0000
1000
0000
0100
0010
0100
0000
,
1000
0000
0010
0000
0100
0010
0100
0000
,
2002
0000
0000
3003
,
0010
0010
0100
0100
,
0001
0000
0000
0010
0000
0000
0001
0000
0000
1000
0000
0000
0010
0000
1000
0000
,
0010
0000
0000
1000
0000
0000
0100
0000
0000
0010
0000
0000
0001
0000
1000
0000
,
0001
0000
0000
0100
0000
0000
0010
0000
0000
1000
0000
0000
0100
0000
0010
0000
,
0220
0000
0330
2002
0000
3003
0010
0100
,
0010
0000
0000
0010
0000
0000
1000
0000
0000
1000
0000
0000
0100
0000
0010
0000
,
0001
0000
0000
0001
0000
0000
0100
0000
0000
0100
0000
0000
0010
0000
1000
0000
,
0100
0000
0000
0100
0000
0000
1000
0000
0000
1000
0000
0000
0001
0000
0000
0000
,
0202
0000
0303
2020
0000
3030
0010
0100
,
2002
0000
0000
3003
,
1000
1000
0001
0001
,
2020
0000
0000
3030
,
0100
0000
0000
0100
0000
0000
0001
0010
,
0022
0000
0000
0033
,
1000
0001
0100
1000
,
0220
0000
0000
0330
,
1000
0010
1000
0000
0010
0100
0010
0000
,
0202
0000
0000
0303
,
1000
0001
1000
0000
0010
0100
0010
0000
,
2002
0000
0000
0000
,
0000
0000
0000
3003
1000
0010
0100
0000
,
0010
0000
0100
0000
0000
0100
0000
0000
0001
0000
0010
0000
0100
0000
0000
0000
,
0010
0000
0001
0000
0000
0001
0000
0000
1000
0000
0010
0000
0001
0000
0000
0000
,
0001
0000
0010
0000
0000
1010
0000
0000
1000
0000
0100
0000
0001
0000
0000
0000
,
0001
0100
1000
0001
0100
0010
0001
0000
,
0010
0000
0100
0000
0000
0010
0000
0000
1000
0000
0100
0000
0001
0000
0000
0000
,
0100
0000
1000
0000
0000
0010
0000
0000
1000
0000
0010
0000
0001
0000
0000
0000
,
0010
0000
1000
0000
0000
0001
0000
0000
0100
0000
0001
0000
0100
0000
0010
0000
,
1000
0010
0100
0001
2002
0000
0000
0000
,
0000
3003
0010
1000
,
0001
0000
0100
0000
0001
0100
1000
0100
,
0001
0000
1000
0000
0200
0010
0000
0310
,
0001
0000
1010
0000
0001
0010
1000
0010
,
0001
0000
0110
0000
2000
0100
0000
3100
,
0001
0100
0010
0001
1000
0000
1000
0000
,
0001
0100
0001
0000
0010
0000
0010
0000
,
0001
1000
0001
0000
0100
0000
0100
0000
,
0010
0001
0010
0000
0100
0000
0100
0000
,
0001
1000
0001
0000
0220
0000
0000
0000
,
0000
0000
0330
0000
;

//---------------dance-single - ----------------
#NOTEDATA:;
#CHARTNAME:EXPERT;
#CHARTHASH:2057115920;
#STEPSTYPE:dance-single;
#BANNER:;
#DESCRIPTION:;
#CHARTSTYLE:;
#DIFFICULTY:Hard;
#METER:12;
#METERF:12.000000;
#LASTSECONDHINT:119.516487;
#RADARVALUES:0.000000,0.000000,0.000000,0.000000,0.000000,0.000000,0.000000,0.000000,0.000000,0.000000,0.000000,0.000000,0.000000,0.000000,0.000000,0.000000,0.000000,0.000000,0.000000,0.000000,0.000000,0.000000,0.000000,0.000000,0.000000,0.000000,0.000000,0.000000;
#CREDIT:YonabearCWY;
#DISPLAYBPM:53.000000:106.000000;
#NOTES:
1000
0000
0001
0000
0010
0000
0100
0000
0010
0000
0001
0100
0000
0100
0010
0000
,
1000
0000
0001
0000
0100
0000
1000
0000
0100
0000
0010
0000
0100
0001
0000
0001
,
1000
0000
0010
0000
0100
0000
0010
0000
0001
0000
0010
0100
0000
0100
0001
0000
,
0010
0000
0001
0000
1000
0000
0010
0000
0100
0000
0001
0000
0100
0010
0000
0010
,
2000
0000
0010
0000
0000
0000
3010
0000
0100
0000
0001
0010
0000
0001
0000
1000
,
0002
0000
0010
0000
0000
0000
0100
0000
0000
0000
1003
0000
0100
0010
0100
0000
,
0020
0000
0001
0000
0000
0000
0130
0000
0010
0000
0001
1000
0000
0010
0000
1000
,
0200
0000
0001
0000
0000
0000
0010
0000
0000
0000
1300
0000
0100
1000
0000
2000
,
0002
0000
0000
3003
,
2000
0010
3200
0001
,
0310
0100
0000
0010
0100
0000
0010
0100
0000
0010
0100
0000
0000
1100
0000
0000
,
1000
0001
0000
1000
0001
0000
1000
0001
0000
1000
0001
0000
0000
0011
0000
0000
,
0001
0100
0000
0001
0100
0000
0001
0100
0000
0001
0100
0000
0000
1010
0000
1000
,
0100
0000
0010
0001
0010
0000
0100
0000
1000
0010
1000
0000
0001
0000
0010
0000
,
0100
1000
0000
0001
1000
0000
0100
1000
0000
0010
1000
0000
0000
0101
0000
0010
,
0001
0010
0000
0001
1000
0000
0001
0100
0000
0001
0010
0000
0000
0110
0000
1000
,
0001
1000
0000
0010
0100
0000
0001
1000
0000
0100
0010
0000
0000
0011
0000
0001
,
0100
0000
0010
1000
0010
0000
1000
0000
0100
0010
0100
0000
0011
0000
0001
2000
,
0002
0000
0000
3003
,
1000
0000
0010
0000
0100
0001
0100
0001
0000
0000
0010
0000
0100
0000
1000
0000
,
0001
0000
0000
0010
0001
0000
0001
1000
0000
0010
0000
1000
0100
1000
0000
0001
,
0100
0001
0100
0001
0000
0000
0010
0100
0010
0100
0000
0000
1000
0010
1000
0000
,
0100
0000
0000
0010
0001
0000
0001
1000
0000
0100
0000
0010
0001
0000
0100
0000
,
0001
0010
0001
0010
0000
0100
1000
0100
1000
0001
0000
0100
0010
0100
0010
0000
,
2002
0000
0000
3003
,
1000
0100
0010
0100
1000
0000
0001
0010
0100
0010
0001
0000
0010
0000
0100
0000
,
1000
0000
0001
0010
0000
0010
0001
1000
0000
0001
0000
0010
0100
0000
0010
0000
,
1000
0000
0100
0010
0000
0001
0010
0100
0000
1000
0000
0100
0010
0000
0001
0000
,
1001
0000
0010
0000
0100
1000
0100
1000
0000
0010
0000
0100
0001
0000
2000
0000
,
0020
0000
3000
0200
0000
0030
0002
0300
1003
0010
0000
0010
1000
0000
1000
0010
,
0000
0010
1000
0000
0000
0101
0000
0000
0001
0010
0000
0010
0001
0000
0001
0010
,
0000
0010
0001
0000
0000
0110
0000
0000
1000
0001
0000
0001
1000
0000
0010
0100
,
0000
0100
0010
0000
0000
1100
0000
0100
0010
0000
0001
1000
0001
0000
0100
0000
,
0010
0100
0010
0000
1000
0000
0100
0000
0010
0001
0000
0001
0100
0000
0100
0010
,
0000
0010
1000
0000
0100
0000
0010
0000
0001
1000
0000
1000
0100
0000
0100
0010
,
0000
0010
1000
0000
0010
0000
0001
0000
0010
0100
0000
0100
1000
0000
0100
0010
,
0000
0010
0001
0000
0010
0000
0100
0000
1000
0000
0001
0010
0001
0000
0100
0000
,
0010
1000
0010
0000
0110
0000
1000
0002
2000
0000
0000
0000
0000
0000
0000
0000
,
0000
0000
0000
3003
,
1000
0010
0000
0100
0000
0001
0010
0000
0110
0000
0100
1000
0000
1000
0010
0000
,
0010
0100
0000
0010
0000
0100
0001
0000
0010
0001
0010
0001
0100
0000
0001
1000
,
0001
1000
0010
0000
1000
0000
0100
0000
1100
0000
1000
0001
0000
0010
0001
0010
,
0000
0001
0000
0100
0010
0000
0100
0000
0001
0000
0010
0100
0000
1000
0100
0010
,
0100
0010
0000
0001
1000
0100
1000
0000
0101
0000
0010
0000
0001
0100
0001
0000
,
0010
0001
0010
0000
0001
1000
0001
1000
0000
0010
0100
0000
0010
1000
0010
0000
,
1000
0100
1000
0000
0001
1000
0001
1000
0010
0000
0100
0000
0001
0010
0001
0000
,
1000
0100
1000
0000
0001
0010
0001
0100
0000
0010
1000
0000
0100
0010
0100
0000
,
0010
0001
0010
0000
0100
1000
0100
0010
2002
0000
0000
0000
0000
0000
0000
0000
,
0000
0000
3003
0000
;

//---------------dance-single - ----------------
#NOTEDATA:;
#CHARTNAME:CHALLENGE;
#CHARTHASH:2147483647;
#STEPSTYPE:dance-single;
#BANNER:;
#DESCRIPTION:;
#CHARTSTYLE:;
#DIFFICULTY:Challenge;
#METER:15;
#METERF:15.000000;
#LASTSECONDHINT:119.516487;
#RADARVALUES:0.612034,0.603602,0.105597,0.120683,0.954148,568.000000,554.000000,14.000000,16.000000,0.000000,0.000000,0.000000,0.000000,0.000000,0.612034,0.603602,0.105597,0.120683,0.954148,568.000000,554.000000,14.000000,16.000000,0.000000,0.000000,0.000000,0.000000,0.000000;
#CREDIT:YonabearCWY;
#DISPLAYBPM:53.000000:106.000000;
#NOTES:
// measure 0
1000
0000
0001
0100
0001
0000
1000
0100
0000
0100
0020
0000
0030
0010
0000
0001
,  // measure 1
0100
0000
0010
1000
0010
0000
1000
0100
0000
0100
0001
0000
0100
1000
0000
1000
,  // measure 2
0010
0000
0100
0010
0100
0000
0001
0010
0000
0010
0200
0000
0300
0100
0000
1000
,  // measure 3
0010
0000
0100
0001
0100
0000
0010
1000
0010
0001
0010
0000
0100
0001
0100
0000
,  // measure 4
0010
0000
1000
0000
0100
0000
0010
0001
0000
0001
0100
0000
0010
1000
0000
1000
,  // measure 5
0001
0000
0010
0000
0001
0010
1000
0010
0001
1000
0010
0001
0010
2000
0000
0000
,  // measure 6
3100
0000
0010
0000
0001
0000
0100
0010
0000
0010
1000
0000
0001
0100
0000
0100
,  // measure 7
0010
0000
1000
0000
0001
0100
1000
0100
0001
1000
0100
0001
0100
2000
0000
0000
,  // measure 8
0002
0000
0000
3003
,  // measure 9
0100
0000
0010
0000
0001
0100
0001
0010
0000
0000
0010
1000
0010
0100
0010
0000
,  // measure 10
0001
0001
0000
1000
0010
0000
1000
1000
0000
0001
0100
0000
0010
0000
1000
0000
,  // measure 11
0100
0100
0000
0010
0001
0000
0010
0010
0000
0100
1000
0000
0000
0110
0000
0001
,  // measure 12
1000
1000
0000
0100
0010
0000
0001
0001
0000
0010
1000
0000
0010
0000
0001
0000
,  // measure 13
0100
0000
1000
0100
0001
0000
0100
0000
0001
0010
1000
0000
0010
0000
0001
0000
,  // measure 14
1000
1000
0010
0100
0010
0000
0100
0001
0000
0100
0100
0000
0000
0011
0000
0001
,  // measure 15
0010
0010
0100
1000
0001
0000
1000
0100
0000
1000
1000
0000
0000
1010
0000
0100
,  // measure 16
0010
0001
0001
1000
0100
0000
1000
0010
0010
0100
0001
0000
0100
0000
0010
0000
,  // measure 17
1000
0000
0100
0010
0001
0000
0010
0000
0100
1000
0001
0000
0010
0000
0001
0200
,  // measure 18
0020
0000
0000
0330
,  // measure 19
1000
0000
0001
0000
0010
0000
0100
1000
0000
0010
0000
0100
0001
0100
0010
0000
,  // measure 20
1000
0010
0001
1000
0100
0001
1000
0010
0001
1000
0100
0001
0100
0010
0000
0010
,  // measure 21
1000
0100
0001
1000
0010
0001
1000
0100
0001
1000
0000
0001
0100
0001
0000
0100
,  // measure 22
0010
0000
1000
0010
0001
1000
0100
0001
0000
0100
0000
0010
1000
0010
0000
1000
,  // measure 23
0001
0000
0001
0100
1000
0001
0010
1000
0000
0010
0100
0001
0100
0010
1000
0000
,  // measure 24
1002
0000
0100
0100
0000
0010
0010
0000
0100
0100
0000
0010
0013
0001
1000
0000
,  // measure 25
0100
0010
0001
1000
0100
0010
1000
0001
0100
0010
0001
0010
0100
1000
0100
0010
,  // measure 26
0100
0000
1000
0001
0010
0100
0001
1000
0010
0001
0010
0100
1000
0100
0010
0000
,  // measure 27
0100
0000
1000
0001
0010
1000
0010
0100
0001
0100
1000
0010
0100
0000
0001
0000
,  // measure 28
2002
0000
0000
0000
0000
0000
0000
0000
0000
0000
0000
0000
0000
0000
0000
0000
0000
0000
0000
0000
0000
0000
0000
0000
3000
0000
0000
0000
0000
0000
1003
0000
0000
0100
0000
0000
0010
0000
0001
0000
1000
0000
0001
0000
1000
0000
0010
0000
,  // measure 29
0100
0000
0010
0000
2000
0000
0000
0000
0000
3001
0000
0100
0000
0020
0000
0000
0000
0000
1030
0000
0100
0000
0000
0000
0010
0000
0000
0010
0000
0000
0000
0000
0000
0001
0000
0000
0001
0000
0000
0000
0000
0000
0100
0000
0000
0100
0000
0000
,  // measure 30
0000
1000
1000
0000
0100
0010
0100
0000
0001
0001
0000
1000
1000
0000
0100
0100
,  // measure 31
0000
0010
0010
0001
1000
0100
1000
0000
0010
0010
0000
1000
1000
0000
0100
0100
,  // measure 32
0000
0001
0001
0100
1000
0100
0010
0000
1100
0000
0001
0100
1000
0000
0011
0000
,  // measure 33
1000
0010
0001
0000
0010
0000
1000
0000
0010
0010
1000
0001
1000
0010
0010
0100
,  // measure 34
0000
0001
0100
0000
0010
0000
1000
0000
0100
0100
0010
0001
1000
0001
0001
0100
,  // measure 35
0000
0000
0000
0001
0000
0000
0010
0000
0000
0100
0000
0000
0010
0000
0000
0000
0001
0000
0000
0000
1000
0000
0000
0000
0010
0000
0000
1000
0000
0000
1000
0000
0000
0100
0000
0000
0010
0000
0000
0001
0000
0000
0100
0000
0000
0100
0000
0000
,  // measure 36
0000
0000
0000
0001
0000
0000
1000
0000
0000
0100
0000
0000
0010
0000
0000
0000
0100
0000
0000
0000
1000
0000
0000
0000
0101
0000
0000
0000
0000
0000
1000
0000
0000
0100
0000
0000
0001
0000
0000
0000
0000
0000
0011
0000
0000
0000
0000
0000
,  // measure 37
0001
0010
1000
0000
0010
0001
1000
0001
0120
0000
0000
1000
1000
0000
0000
0001
,  // measure 38
0001
0000
0000
1000
1030
0000
0010
0100
0210
0000
0000
0001
0001
0000
0000
1000
,  // measure 39
1300
0100
0000
0110
0000
0001
1000
0000
0010
1000
0100
0010
0001
1000
0100
0010
,  // measure 40
0100
1000
0000
0001
0000
0010
0001
0000
0100
0010
0001
0010
0100
0001
1000
0001
,  // measure 41
0100
0010
0100
1000
0100
0010
0100
0000
0001
0010
1000
0010
0001
0100
0010
0100
,  // measure 42
0001
1000
0010
0001
0010
1000
0001
0000
1000
0000
0100
0010
0001
1000
0100
0001
,  // measure 43
0100
1000
0001
0010
0100
0010
0001
0000
1000
0010
0010
1000
0010
1000
1000
0010
,  // measure 44
1000
1000
0001
1000
0001
0001
1000
0001
0001
0000
0110
0000
1000
0100
0001
0100
,  // measure 45
1000
0001
0100
1000
0100
0001
0010
0100
1000
0001
0010
0010
0001
0100
0001
0001
,  // measure 46
0100
0010
1000
0010
0010
1000
0001
0100
0100
0000
0001
1000
0010
0001
0010
1000
,  // measure 47
0001
0010
1000
0010
0001
0100
0010
1000
2002
0000
0000
0000
0000
0000
0000
0000
,  // measure 48
0000
0000
3003
0000
;
