#TITLE:MADE OF FIRE;
#SUBTITLE:;
#ARTIST:NIKO;
#TITLETRANSLIT:;
#SUBTITLETRANSLIT:;
#ARTISTTRANSLIT:;
#GENRE:EUROBEAT;
#CREDIT:YonabearCWY;
#BANNER:MADE OF FIRE.png;
#BACKGROUND:MADE OF FIRE-bg.png;
#LYRICSPATH:;
#CDTITLE:SUPER EUROBEAT presents EUROMACH.png;
#MUSIC:MADE OF FIRE.ogg;
#OFFSET:-6.930000;
#SAMPLESTART:49.349888;
#SAMPLELENGTH:15.000000;
#SELECTABLE:YES;
#BPMS:0.000000=152.080002
;
#STOPS:
;
#BGCHANGES:;
#KEYSOUNDS:;
#ATTACKS:;

//---------------dance-single - ----------------
#NOTES:
     dance-single:
     BEGINNER:
     Beginner:
     3:
     0.168754,0.231839,0.033120,0.044160,0.000000,107.000000,104.000000,3.000000,4.000000,0.000000,0.000000,0.168754,0.231839,0.033120,0.044160,0.000000,107.000000,104.000000,3.000000,4.000000,0.000000,0.000000:
0000
0000
0000
0000
,
0000
0000
0000
0000
,
1000
0000
1000
0000
,
1000
1000
0000
0000
,
0001
0000
0001
0000
,
0001
0001
0001
0000
,
0010
0000
0010
0000
,
0010
0010
0000
0000
,
0100
0000
0100
0000
,
0100
0100
0100
0100
,
1001
0000
0000
0000
,
1000
0001
1000
0000
,
0010
0010
0010
0010
,
0020
0000
0030
0000
,
0110
0000
0000
0000
,
0001
1000
0001
0000
,
0100
0100
0100
0100
,
0200
0000
0300
0000
,
0010
0000
0010
0000
,
0010
0000
0000
0000
,
1000
0000
1000
0000
,
1000
0000
0000
0000
,
0001
0000
0001
0000
,
0001
0000
0000
0000
,
0100
0000
0100
0000
,
0100
0000
0000
0000
,
2002
0000
3003
0000
,
0010
0010
0010
0000
,
0010
0010
0010
0000
,
0100
0000
0100
0000
,
0100
0000
0000
0000
,
0100
0100
0100
0000
,
0100
0100
0100
0000
,
0001
0000
1000
0000
,
0001
0000
0000
0000
,
1000
1000
1000
0000
,
1000
1000
1000
0000
,
0001
0000
0001
0000
,
0001
0000
0000
0000
,
0001
0001
0001
0000
,
0001
0001
0001
0000
,
0000
1000
0000
0001
,
0000
1000
0000
0000
,
0010
0000
0010
0000
,
0010
0000
0000
0000
,
0100
0000
0100
0000
,
0100
0000
0000
0000
,
0001
0000
0001
0000
,
0001
0000
0000
0000
,
1000
0000
1000
0000
,
1000
0000
0000
0000
,
0010
0010
0010
0000
,
0100
0100
0100
0000
;

//---------------dance-single - ----------------
#NOTES:
     dance-single:
     EXPERT:
     Hard:
     10:
     0.498376,0.493831,0.419519,0.264959,0.093840,316.000000,278.000000,38.000000,24.000000,0.000000,0.000000,0.498376,0.493831,0.419519,0.264959,0.093840,316.000000,278.000000,38.000000,24.000000,0.000000,0.000000:
0000
0000
0000
0000
,
0000
0000
0000
0000
,
1000
0010
0000
0100
0000
0001
0000
0010
,
0100
1000
0000
0010
0100
0001
1001
0000
,
0010
0000
0000
0001
0000
0000
0100
0000
0000
1000
0000
0000
0200
0000
0000
0000
,
0301
0010
0001
0000
1001
0000
0010
1000
,
0100
0010
0000
0100
0000
0001
0000
0010
,
0000
1000
0000
0001
0010
0100
1000
0000
,
0010
0000
0000
0100
0000
0000
0001
0000
0000
1000
0000
0000
0100
0000
0010
0000
,
2002
0000
0000
3003
,
1000
0010
1000
0100
1000
0001
0001
0000
,
0010
0001
0010
0000
0100
0010
0100
1000
,
0000
1001
0000
0011
0000
1010
0000
1000
,
0020
0000
0000
0100
0130
0000
0010
1000
,
0002
0000
1000
0000
0013
0001
0100
0000
,
2000
0000
0010
0000
3100
1000
0001
0010
,
0000
0110
0000
1010
0000
0101
0000
0001
,
2000
0000
0000
0001
3001
0100
0000
0010
,
1000
0100
0001
0100
1000
0010
0100
0010
,
1000
0001
0010
0100
0010
0000
0001
0000
,
0100
0001
0010
0001
1000
0010
1000
0010
,
0001
0010
0100
0000
2002
0000
3003
0000
,
0100
0010
0001
0010
0100
0010
0100
1000
,
0001
1000
0020
0000
0100
0100
0130
0000
,
0010
1000
0010
0001
0010
0100
0010
0001
,
0000
0100
0010
0010
1000
1000
0001
0001
,
2002
0000
0000
3003
,
1100
0000
0011
0000
0100
1000
0100
0000
,
0101
0000
1010
0000
0001
0100
0001
0000
,
1010
0000
0000
0000
1001
0000
0000
1000
0000
0000
0001
0000
0010
0000
0100
0000
,
0010
0001
0001
1000
0010
0000
0110
0000
,
0101
0000
0011
0000
1000
0001
1000
0000
,
1010
0000
1001
0000
0100
0010
0100
0000
,
0021
1030
0201
1300
,
1200
0301
1020
0031
,
0100
0001
0200
0000
0010
0310
0000
0001
,
1000
0010
2000
0000
0010
0010
3010
0000
,
0100
0010
0001
0010
0100
0010
1000
0100
,
0000
0010
0001
1000
1010
0000
0011
0000
,
0001
0100
0002
0000
1000
1003
0000
0010
,
0100
1000
0200
0000
0010
0310
0000
0100
,
0012
1000
0000
1003
,
2010
0001
0002
3003
,
0100
0001
0000
0010
0000
0001
1000
0001
,
0000
1000
0000
0010
0000
1000
0100
0010
,
0001
0000
0000
0100
0000
0000
0001
0000
0000
0010
0000
0000
0001
0000
1000
0000
,
0010
0000
0000
1000
0000
0100
0000
1000
0000
0001
0100
0000
0001
0000
0010
0000
,
0100
1000
0000
0100
0000
0010
0001
1000
,
0000
0010
0000
1000
0000
0100
1000
0001
,
0010
0000
0000
0010
0000
0000
0100
0000
0000
0100
0000
0000
1000
0000
0001
0000
,
1001
0000
0000
0010
0000
0100
0000
0001
0000
0010
0001
0000
2000
0000
0000
0000
,
3010
0000
1010
0000
1001
1001
0000
0000
,
0101
0000
0011
0000
1001
1001
0000
0000
;

//---------------dance-single - ----------------
#NOTES:
     dance-single:
     BASIC:
     Easy:
     5:
     0.236571,0.376739,0.176639,0.165599,0.000000,150.000000,134.000000,16.000000,15.000000,0.000000,0.000000,0.236571,0.376739,0.176639,0.165599,0.000000,150.000000,134.000000,16.000000,15.000000,0.000000,0.000000:
0000
0000
0000
0000
,
0000
0000
0000
0000
,
1000
0100
1000
0000
,
0001
0000
0001
0000
,
0100
0001
0100
0000
,
0010
0000
0010
0000
,
0100
0010
0100
0000
,
0001
0000
0001
0000
,
1000
0001
1000
0000
,
2002
0000
3003
0000
,
0010
0010
0010
0000
,
0010
0010
0010
0000
,
0100
0100
0100
0100
,
2002
0000
3003
0000
,
1000
1000
1000
0000
,
1000
1000
1000
0000
,
0001
0001
0001
0001
,
0220
0000
0330
0000
,
1000
0010
1000
0000
,
0020
0000
0030
0000
,
0001
0100
0001
0000
,
2000
0000
3000
0000
,
0010
0100
0001
0000
,
0200
0000
0300
0000
,
0001
0010
0100
0000
,
0011
1001
1010
1001
,
0220
0000
0330
0000
,
1000
1000
1000
0000
,
1000
1000
1000
0000
,
0001
0000
0001
0000
,
0001
0001
0001
0001
,
0010
0010
0010
0000
,
0010
0010
0010
0000
,
0100
0000
0100
0000
,
0010
0000
0010
0000
,
1000
1000
1000
0000
,
0001
0001
0001
0000
,
1000
1000
1000
1000
,
0001
0001
0001
0001
,
0100
0100
0100
0000
,
0010
0010
0010
0000
,
0000
0100
0000
0010
,
0000
0100
0220
0330
,
0001
0000
0010
0000
,
0100
0000
1000
0000
,
0010
0100
0001
1000
,
0010
0010
0100
0100
,
0001
0000
0010
0000
,
0001
0000
1000
0000
,
0010
1000
0100
0010
,
2002
0000
0000
3003
,
1010
1010
1010
0000
,
0101
0101
0101
0000
;

//---------------dance-single - ----------------
#NOTES:
     dance-single:
     DIFFICULT:
     Medium:
     8:
     0.365896,0.406685,0.154560,0.143520,0.000000,232.000000,218.000000,14.000000,13.000000,0.000000,0.000000,0.365896,0.406685,0.154560,0.143520,0.000000,232.000000,218.000000,14.000000,13.000000,0.000000,0.000000:
0000
0000
0000
0000
,
0000
0000
0000
0000
,
1000
0010
1000
0010
,
0100
0001
0100
1000
,
0100
0000
0100
0000
,
0010
0000
0000
0000
0010
0000
0100
0001
,
0100
0001
0010
0100
,
1000
0001
0010
0001
,
1000
0000
0001
0000
,
0110
0000
1000
0001
1000
0000
0010
0000
,
1000
0000
0100
0000
0010
0001
0010
0000
,
0001
0000
0100
0000
0001
1000
0001
2000
,
0000
0010
0000
0010
0000
0010
0000
3010
,
0200
0000
0000
0010
0310
0000
1001
0000
,
0100
0000
0001
0000
0010
0100
0010
0000
,
0100
0000
1000
0000
0001
1000
0100
0020
,
0000
0001
0000
0001
0000
0001
0000
0031
,
2000
0000
0000
0100
3100
0000
1001
0000
,
0010
0000
0001
0000
0100
0000
0001
0010
,
0001
1000
0010
0000
,
1000
0000
0100
0000
1000
0000
0010
0100
,
0010
0100
1001
0000
,
0010
0001
0100
0001
,
1000
0001
1000
0000
0010
0000
0100
0000
,
0001
0000
0001
0000
1000
0000
1000
0100
,
0010
0010
0100
0100
,
2002
0000
3003
0000
,
0010
0000
0010
0000
0010
0100
0000
1000
,
0001
0000
0001
0000
0001
1000
0000
1000
,
0010
0000
0100
0000
0001
0000
0010
0001
,
0100
0000
0010
0000
1000
0100
0010
0000
,
0001
0000
0001
0000
0001
0010
0000
0100
,
1000
0000
0100
0000
0010
0001
0000
1000
,
0020
0130
0200
0301
,
2000
0000
3001
0000
0001
0010
0100
1000
,
0001
0000
0100
0000
0001
0010
0001
0000
,
1000
0000
0010
0000
1000
0100
1000
0000
,
0001
0000
0100
0000
0001
0010
0001
0010
,
0100
0000
1000
0000
0100
1000
0100
1000
,
0001
0000
0100
0000
0010
1000
0001
0000
,
0100
0000
0010
0000
0100
0001
0010
0000
,
0000
1100
0000
0101
,
0000
0110
2002
3003
,
0001
0000
0100
0000
0001
0010
0100
0000
,
1000
0000
0100
0000
0010
0001
1000
0000
,
0010
0000
0100
0000
,
1000
0000
0000
0000
0001
0000
0010
0001
,
0100
0000
0001
0000
0010
0000
0100
1000
,
0001
0000
1000
0000
0100
0000
0010
0001
,
1000
0000
0000
0010
0000
0000
1000
0000
,
2002
0000
0000
0000
3003
0000
0100
0010
,
1010
0000
1010
0000
1000
0100
0000
0000
,
0101
0000
0101
0000
0001
1000
0000
0000
;

//---------------dance-single - ----------------
#NOTES:
     dance-single:
     CHALLENGE:
     Challenge:
     15:
     0.744409,0.958614,0.452639,0.154560,0.651358,472.000000,431.000000,41.000000,14.000000,0.000000,0.000000,0.744409,0.958614,0.452639,0.154560,0.651358,472.000000,431.000000,41.000000,14.000000,0.000000,0.000000:
0000
0000
0000
0000
,
0000
0000
0000
0000
,
0001
0000
1000
0010
0000
1000
0000
0001
0000
0100
0001
0100
0010
0000
0100
0000
,
0001
0010
0000
0100
0000
1000
0000
0010
0000
1000
0100
1000
0001
0000
1000
0000
,
0010
1000
0100
1000
0001
0000
0010
0001
1000
0001
0100
0000
0001
0100
0001
1000
,
0010
0000
0100
0001
0000
0010
0000
0001
0000
1000
0001
1000
0010
0000
0100
0000
,
0001
0000
0010
0001
0000
1000
0000
0010
0000
0100
1000
0100
0010
0000
0100
0000
,
0001
0100
0000
0010
0000
0001
0000
0010
0000
0100
0010
1000
0010
0000
1000
0000
,
0100
0010
0001
1000
0001
1000
0100
0010
1000
0001
1000
0010
0100
1000
0001
1000
,
0010
0000
0100
0010
0000
1010
0000
1001
0000
0001
0010
0100
0020
0000
0000
0000
,
0031
0010
1000
0010
0002
0100
0203
0010
,
0310
0100
1000
0100
0010
0100
0001
1000
,
0000
1010
0000
0101
0000
1001
0000
0210
,
0010
0000
0010
0000
0010
0000
0010
0000
0310
0000
0100
0000
0001
1000
0001
1000
,
0001
1000
0100
0001
0200
1000
2300
0001
,
3001
0010
0100
0010
0001
0010
0100
0001
,
0000
1100
0000
0011
0000
0110
0000
1002
,
1000
0000
1000
0000
1000
0000
1000
0000
1003
0000
0001
0000
0010
0100
0010
0100
,
0010
0100
1000
0100
0001
0100
1000
0001
,
0010
1000
0001
0100
1000
0010
0001
0000
,
0010
0001
1000
0100
0010
0001
0010
1000
,
0010
0000
0100
0000
0001
0000
0000
0000
1001
0000
0000
0000
0100
0010
0100
0010
,
0100
1000
0100
0010
0001
1000
0100
0001
,
0100
0010
1000
0010
0001
0100
1000
0010
,
0100
0000
1001
0000
0010
0000
1000
1002
,
0000
0013
0100
1000
0001
0010
0100
0100
,
0220
0000
0000
0000
0330
0000
0000
0001
,
1001
0000
0100
0010
0001
1000
0010
0100
,
0011
0000
0100
1000
0001
0100
0010
0001
,
0110
0000
0000
0000
1001
0000
0000
0000
0100
0000
0010
0000
0100
1000
0100
1000
,
0001
0000
0100
0000
1000
0000
0100
0000
0010
0001
0010
0100
1000
0100
0001
0100
,
0010
0000
0100
0010
1000
0001
1000
0100
,
1010
0000
0000
0000
0100
0000
0001
0000
0010
0000
0001
0000
0100
0000
1000
0100
,
0001
0000
0000
0000
1100
0000
0000
0000
0001
0000
0000
0000
0011
0000
0001
0010
,
1000
0000
1010
0000
0101
0001
1001
1000
,
1000
0000
0100
0000
0010
0000
0001
0000
0100
0000
0010
0000
0000
1000
0100
0000
,
0010
0000
0100
0000
0001
0000
0100
0000
1000
0000
0010
0000
0000
0100
0001
0000
,
0011
0000
0000
0000
1100
0000
0000
0000
0001
0000
0100
0000
0010
0100
0010
0100
,
0001
0000
1000
0000
0100
0000
0010
0000
1000
0001
1000
0010
0100
1000
0100
0010
,
0001
0000
0100
0000
1000
0000
0100
0000
0001
0000
1000
0000
0000
0010
0100
0000
,
0001
0000
0010
0000
1000
0000
0010
0000
0001
0000
0100
0000
0000
0010
0001
0000
,
0110
1000
0101
0010
,
1100
0000
0001
0000
2002
0000
3000
1000
,
1003
0000
0010
0100
0000
0001
0000
0010
0000
0001
1000
0100
1000
0000
0100
0000
,
0010
0001
0000
1000
0000
0001
0000
0010
0000
0100
1000
0100
0001
0000
0100
0000
,
0010
0100
1000
0100
0001
0000
0100
0010
0001
0010
1000
0000
0010
0001
0100
0001
,
1000
0000
0010
1000
0000
0100
0000
1000
0000
0100
0010
0001
0010
0000
0100
0000
,
0010
0000
0001
0100
0000
1000
0000
0100
0000
0001
0010
0100
0010
0000
0100
0000
,
0010
1000
0000
0010
0000
0100
0000
0010
0000
0001
1000
0100
0010
0000
0100
0000
,
0010
0001
0010
0100
1000
0001
1000
0100
0010
0001
0010
0100
0010
0001
1000
0001
,
1001
0000
1000
0001
0000
0011
0000
0110
0000
0100
0010
0100
1000
0001
1000
0001
,
0011
0000
0101
0000
1001
2002
0000
3003
,
1010
0000
0110
0000
1001
1001
0000
0000
;

//---------------dance-double - ----------------
#NOTES:
     dance-double:
     DIFFICULT:
     Medium:
     8:
     0.395862,0.435734,0.353279,0.154560,0.000000,251.000000,219.000000,32.000000,14.000000,0.000000,0.000000,0.395862,0.435734,0.353279,0.154560,0.000000,251.000000,219.000000,32.000000,14.000000,0.000000,0.000000:
00000000
00000000
00000000
00000000
,
00000000
00000000
00000000
00000000
,
00000010
00000000
00000010
00000000
00000010
00000100
00000010
00000000
,
00000100
00000000
00000100
00000000
00000100
00000010
00000100
00000000
,
00011000
00000000
00000000
00101000
00000000
00000000
01100000
00000000
,
10000000
00000000
00010000
00000000
10000000
00010000
10000000
00000000
,
01000000
00000000
01000000
00000000
01000000
00100000
01000000
00000000
,
00100000
00000000
00100000
00000000
00100000
01000000
00100000
00000000
,
01010000
00000000
00000000
00101000
00000000
00000000
00001100
00000000
,
00022000
00000000
00000000
00033000
,
00010000
00000000
00010000
00000000
00001000
00000100
00000010
00000000
,
00000100
00000000
00000100
00000000
00000001
00000010
00000100
00001000
,
00000000
00000001
00000000
00001000
00000000
00000001
00000000
00001000
,
00000002
00000000
00000000
00001000
00002000
00000000
00003003
00000000
,
00000010
00000000
00000010
00000000
00000010
00001000
00000100
00000000
,
00010000
00000000
00010000
00000000
00010000
00001000
01000000
00100000
,
00000000
01000000
00000000
00100000
00000000
01000000
00000000
00100000
,
02000000
00000000
00000000
00100000
00200000
00000000
03300000
00000000
,
10000000
00010000
01000000
00010000
,
00100000
00001000
00010000
00000000
00001000
00000000
00010000
00000000
,
00000100
00000000
00000010
00000000
00000001
00000000
00001000
00000010
,
00000100
00001000
00000100
00000000
00002002
00000000
00003003
00000000
,
00000010
00010000
00001000
00010000
,
00000100
00000000
00010000
00000000
00001000
00100000
00010000
00000000
,
01000000
00000000
00001000
00000000
00100000
00000000
00001000
00010000
,
00001000
00010000
00010000
00001000
,
00022000
00000000
00000000
00000000
00000000
00033000
00000000
00001000
,
00100000
00000000
00100000
00000000
00100000
01000000
00000000
00000000
,
10000000
00000000
10000000
00000000
10000000
10010000
00000000
00000000
,
01010000
00000000
00110000
00000000
00100000
00001000
00010000
00000100
,
00001000
00000000
00000100
00000010
00000001
00000000
00001000
00000000
,
00000001
00000000
00000001
00000000
00000001
00000010
00000000
00000000
,
00000100
00000000
00000100
00000000
00000100
00010100
00000000
00000000
,
00010000
00011000
00001000
00101000
,
00100000
00000000
00110000
00000000
00001000
00010000
00011000
00000000
,
00001000
00000100
00000010
00000000
00000100
00000001
00000100
00000000
,
00000010
00000100
00000001
00000000
00001000
00000010
00001000
00000000
,
00000100
00000100
00010000
00010000
,
00001000
00010000
00100000
01000000
00100000
01000000
00010000
00000000
,
10000000
00000000
10000000
00000000
00100000
01000000
00010000
00000000
,
00100000
00000000
00100000
00000000
00001000
00010000
00000100
00000000
,
00000000
00011000
00000000
00110000
,
00000000
00010100
00022000
00033000
,
00010000
00000000
00010000
00000000
00010000
00000100
00010000
00000000
,
00000010
00000000
00000010
00000000
00000010
00001000
00000010
00000000
,
00010100
00000000
00000000
00001100
00000000
00000000
00011000
00000000
,
01000000
00000000
00100000
00000000
00010000
00000000
00100000
01000000
,
10000000
00000000
10000000
00000000
00010000
01000000
00010000
00000000
,
00100000
00000000
00100000
00000000
00001000
00100000
00001000
00000000
,
00011000
00000000
00000000
00010010
00000000
00000000
00000110
00000000
,
00002002
00000000
00000000
00003003
,
00000010
00000000
00000010
00000000
00001010
00001010
00000000
00000000
,
00010000
00000000
00010000
00000000
00011000
00011000
00000000
00000000
;

//---------------dance-double - ----------------
#NOTES:
     dance-double:
     EXPERT:
     Hard:
     10:
     0.474718,0.464783,0.320159,0.165599,0.049680,301.000000,272.000000,29.000000,15.000000,0.000000,0.000000,0.474718,0.464783,0.320159,0.165599,0.049680,301.000000,272.000000,29.000000,15.000000,0.000000,0.000000:
00000000
00000000
00000000
00000000
,
00000000
00000000
00000000
00000000
,
00000001
00000010
00000000
00000100
00000000
00010000
00001000
00000000
,
00100000
00001000
00000000
00010000
00000000
00100000
01000000
00000000
,
00010000
10000000
00010000
00000000
10000000
00100000
10000000
00000000
,
01100000
00000000
01001000
00000000
00100000
00010000
00001000
00000100
,
00001000
00000010
00000000
00000100
00000000
00000001
00000010
00000000
,
00000100
00001000
00000000
00010000
00000000
00100000
01000000
00000000
,
10000000
00010000
10000000
00000000
00010000
00100000
00010000
00000000
,
00022000
00000000
00000000
00033000
,
00000100
00000000
00000010
00000000
00000100
00000001
00000010
00000100
,
00000000
00010000
00000000
00001000
00000000
00010000
00001000
00010000
,
00000000
00011000
00000000
00101000
00000000
00110000
00000000
00010000
,
02000000
00000000
00000000
00100000
03100000
00000000
10010000
00000000
,
01000000
00100000
00010000
00000000
00100000
00000000
00001000
00000000
,
00010000
00000010
00000100
00000000
00000010
00000000
00000100
00001000
,
00000000
00011000
00000000
00010100
00000000
00000110
00000000
00000010
,
00020000
00000000
00000000
00001000
00031000
00000000
00011000
00000000
,
00001000
00100000
01000000
00000000
00100000
01000000
10000000
00000000
,
01000000
00000000
00100000
00001000
00010000
00000100
00001000
00000000
,
00000010
00000100
00000001
00000000
00000010
00000100
00001000
00000000
,
00010000
00100000
01000000
10000000
00010000
00000000
01100000
00000000
,
10000000
00000000
00100000
00000000
01000000
00010000
00100000
00001000
,
00000000
00010000
00001000
00000100
00000010
00000001
00001000
00000000
,
00000010
00000000
00000100
00000000
00000001
00000010
00000100
00001000
,
00000000
00000100
00010000
00010000
00001000
00001000
00100000
00100000
,
02200000
00000000
00000000
00000000
00000000
03300000
00000000
10000000
,
00010000
00000000
00010000
00000000
01000000
00010000
00100000
00000000
,
00001000
00000000
00001000
00000000
00010000
00000010
00001000
00000000
,
00000110
00000000
00000000
00000000
00000101
00000000
00000000
00001000
00000000
00000000
00000010
00000000
00000100
00000000
00001000
00000000
,
00010000
00000000
00001000
00100000
00110000
00000000
11000000
00000000
,
00100000
00000000
00100000
00000000
01000000
10000000
00010000
00000000
,
01000000
00000000
01000000
00000000
00001000
00100000
00010000
00000000
,
00021000
00030100
00012000
00103000
,
00010000
00001000
00021000
00000000
00030100
00000000
00001000
00010000
,
00001000
00100000
00010000
00000000
00100000
01000000
10000000
00000000
,
01000000
00100000
01000000
00000000
00100000
00001000
00010000
00000000
,
00000100
00001000
00000100
00000010
00000001
00000000
00001000
00000000
,
00000010
00000100
00001000
00010000
00001000
00100000
01100000
00000000
,
10000000
00010000
00100000
01000000
00100000
00010000
00001000
00000000
,
00000100
00000010
00000001
00001000
00000001
00001000
00000010
00000000
,
00001200
00010300
00012000
00103000
,
00210000
00301000
00022000
00033000
,
00010000
00001000
00000000
00100000
00000000
00010000
00100000
01000000
,
00000000
10000000
00000000
00010000
00000000
10000000
00100000
00000000
,
01000000
00010000
01000000
00000000
00001000
00100000
00001000
00000000
,
00010000
00000000
00000000
00000100
00000000
00000010
00000000
00000001
00000000
00001000
00000010
00000000
00000100
00000000
00000001
00000000
,
00000010
00000100
00000000
00000010
00000000
00000100
00010000
00001000
,
00000000
00100000
00000000
00010000
00000000
01000000
00010000
00000000
,
01000000
00010000
01000000
10000000
01000000
00100000
00010000
00001000
,
00010000
00000000
00000100
00010000
00000000
00001000
00000000
00010000
00000000
00000100
00000000
00000000
00002000
00000000
00000000
00000000
,
00003010
00000000
00000100
00000000
00000101
00000101
00000000
00000000
,
00000010
00000000
00001000
00000000
00011000
00011000
00000000
00000000
;

//---------------dance-double - ----------------
#NOTES:
     dance-double:
     CHALLENGE:
     Challenge:
     15:
     0.749140,0.929565,0.331199,0.176639,0.695518,475.000000,445.000000,30.000000,16.000000,0.000000,0.000000,0.749140,0.929565,0.331199,0.176639,0.695518,475.000000,445.000000,30.000000,16.000000,0.000000,0.000000:
00000000
00000000
00000000
00000000
,
00000000
00000000
00000000
00000000
,
00001000
00000000
00000001
00000010
00000000
00000001
00000000
00000100
00000000
00000010
00001000
00000010
00000100
00000000
00000010
00000000
,
00010000
00000000
00001000
00010000
00000000
00001000
00000000
00100000
00000000
00010000
00100000
01000000
00100000
00000000
01000000
00000000
,
10000000
01000000
10000000
00010000
01000000
00000000
00010000
01000000
00010000
00100000
00001000
00000000
00010000
00001000
00010000
00000100
,
00000010
00000000
00000001
00001000
00000000
00000010
00000000
00000100
00000000
00000001
00000000
00000010
00000001
00000000
00000010
00000000
,
00000100
00000000
00010000
00001000
00000000
00100000
00000000
00010000
00000000
01000000
00100000
01000000
00010000
00000000
01000000
00000000
,
10000000
00000000
01000000
00100000
00000000
01000000
00000000
00010000
00000000
00100000
00001000
00010000
00001000
00000000
00010000
00000000
,
00000100
00010000
00001000
00010000
00000100
00001000
00000010
00001000
00000100
00010000
00001000
00010000
00100000
01000000
00100000
01000000
,
00010000
00000000
10000000
00010000
00000000
00110000
00000000
10010000
00000000
10000000
01000000
00100000
00020000
00000000
00000000
00000000
,
01030000
00010000
00100000
01000000
00100000
00002000
00010000
00010000
,
00013000
00000100
00001000
00000010
00001000
00000100
00010000
00001000
,
00000000
00000110
00000000
00000011
00000000
00001010
00000000
00010010
,
00012000
00000000
00010000
00000000
00010000
00000000
00010000
00000000
00010000
00000000
00013000
00000000
00001000
00010000
00001000
00010000
,
00001000
00010000
00000100
00000010
00000200
00010000
00010000
00010300
,
00001000
00100000
01000000
00100000
00001000
01000000
00001000
00100000
,
00000000
00110000
00000000
01010000
00000000
01001000
00000000
00101000
,
00021000
00000000
00001000
00000000
00001000
00000000
00001000
00000000
00001000
00000000
00031000
00000000
00010000
00001000
00010000
00001000
,
00010000
00001000
00000100
00000010
00000001
00000010
00001000
00000100
,
00001000
00010000
00100000
01000000
10000000
01000000
00010000
00000000
,
01000000
00100000
00010000
00001000
00000100
00001000
00000010
00000100
,
00001000
00000000
00000100
00000000
00000001
00000000
00000000
00000000
00000101
00000000
00000000
00000000
00001000
00000010
00001000
00000010
,
00001000
00000100
00001000
00010000
00100000
00010000
01000000
10000000
,
01000000
00010000
00100000
01000000
00100000
00000000
10010000
00000000
,
01000000
00010000
00001000
00010000
00100000
00010000
00001000
00000100
,
00000100
00000010
00000001
00000001
00001000
00001000
00000010
00000010
,
00002002
00000000
00000000
00000000
00000000
00003003
00000000
00000100
,
00000001
00000000
00000010
00000000
00000100
00000000
00000000
00000000
00001000
00000100
00000000
00000100
00010000
00000000
00001000
00000000
,
00100000
00000000
00010000
00000000
01000000
00000000
00000000
00000000
00010000
00000000
10000000
00000000
00100000
00000000
10000000
00010000
,
10000000
00000000
00000000
00000000
01010000
00000000
00010000
10000000
00000000
00000000
01000000
00000000
00100000
00010000
00100000
00010000
,
00100000
00000000
00001000
00000000
00010000
00000000
00000100
00000000
00001000
00000100
00000010
00000100
00000010
00000001
00001000
00000001
,
00001000
00000000
00000010
00000000
00000001
00000000
00000000
00000000
00000010
00000100
00000000
00000100
00000001
00000000
00000100
00000000
,
00001000
00000000
00010000
00000000
01000000
00000000
00100000
00000000
00010000
00000000
00100000
00000000
01000000
00000000
10000000
00010000
,
20000000
30100000
01020000
00130000
,
00201000
00000000
00000000
00000000
00310000
00000000
00000000
00000000
00002000
00000000
00010000
00000000
00010000
00000000
00013000
00000100
,
00001000
00000000
00000010
00000000
00000100
00000000
00000001
00000010
00000001
00000000
00001000
00000000
00000100
00000000
00000010
00000100
,
00001000
00000000
00010000
00000000
00100000
00000000
01000000
00100000
01000000
00000000
10000000
00000000
00010000
00000000
01000000
00010000
,
00100000
00000000
00000000
00000000
00011000
00000000
00001000
00100000
00000000
00000000
00010000
00000000
01000000
00100000
01000000
00100000
,
01000000
00000000
00010000
00000000
00100000
00000000
00001000
00000000
00010000
00001000
00010000
00001000
00000010
00000100
00000010
00000100
,
00001000
00000000
00000010
00000000
00000100
00000000
00000001
00001000
00000010
00000000
00001000
00000000
00000100
00000000
00010000
00001000
,
00010000
00000000
00001000
00000000
00100000
00000000
00010000
01000000
10000000
00000000
01000000
00000000
00010000
00000000
10000000
00010000
,
20000000
00100000
30020000
01000000
,
20030000
00000000
30200000
00000000
00302000
00000000
00003100
00000010
,
00000001
00000000
00001000
00000010
00000000
00001000
00000000
00000100
00000000
00000010
00000001
00000010
00000100
00000000
00001000
00000000
,
00010000
00000000
00100000
01000000
00000000
00100000
00000000
00001000
00000000
00100000
01000000
10000000
01000000
00000000
00010000
00000000
,
01000000
10000000
00010000
10000000
00100000
00000000
01000000
00010000
00100000
00001000
00100000
00000000
00001000
00010000
00001000
00000100
,
00000010
00000000
00000100
00000001
00000000
00001000
00000000
00000010
00000000
00001000
00000100
00000010
00000100
00000000
00001000
00000000
,
00010000
00000000
00100000
00010000
00000000
01000000
00000000
00010000
00000000
10000000
00100000
10000000
01000000
00000000
00010000
00000000
,
01000000
10000000
00000000
00100000
00000000
01000000
00000000
00010000
00000000
00100000
00010000
00100000
00001000
00000000
00010000
00000000
,
00000100
00001000
00000100
00001000
00000001
00000010
00000001
00000010
00000100
00001000
00000100
00010000
00001000
00100000
00010000
01000000
,
00010000
00000000
00010000
00100000
00000000
00110000
00000000
10010000
00000000
11000000
00000000
01000000
00100000
00010000
00100000
01000000
,
11000000
00000000
01010000
00000000
00101000
00101000
00000000
00000000
,
00001100
00000000
00010010
00000000
00011000
00011000
00000000
00000000
;

//---------------dance-double - ----------------
#NOTES:
     dance-double:
     BASIC:
     Easy:
     5:
     0.261805,0.347759,0.220799,0.176639,0.000000,166.000000,146.000000,20.000000,16.000000,0.000000,0.000000,0.261805,0.347759,0.220799,0.176639,0.000000,166.000000,146.000000,20.000000,16.000000,0.000000,0.000000:
// measure 0
00000000
00000000
00000000
00000000
,  // measure 1
00000000
00000000
00000000
00000000
,  // measure 2
00000010
00000000
00000010
00000000
,  // measure 3
00000010
00000000
00001000
00000001
,  // measure 4
00000100
00000100
00000100
00000100
,  // measure 5
00000110
00000000
00001000
00010000
,  // measure 6
00100000
00000000
00100000
00000000
,  // measure 7
00100000
00000000
00010000
10000000
,  // measure 8
01000000
01000000
01000000
01000000
,  // measure 9
20020000
00000000
00000000
30030000
,  // measure 10
00000000
01000000
00000000
01000000
,  // measure 11
00010000
00100000
00001000
00010000
,  // measure 12
00001000
00001000
00010000
00010000
,  // measure 13
00022000
00000000
00000000
00033000
,  // measure 14
00000000
00000010
00000000
00000010
,  // measure 15
00000100
00000001
00001000
00000100
,  // measure 16
00010000
00010000
00001000
00001000
,  // measure 17
00022000
00000000
00000000
00033000
,  // measure 18
00000000
00100000
00000000
00100000
,  // measure 19
00000000
00100000
01000000
10000000
,  // measure 20
00010000
00000000
00010000
00000000
,  // measure 21
00010000
01000000
02020000
03030000
,  // measure 22
00000000
00001000
00000000
00001000
,  // measure 23
00000000
00001000
00010000
00000100
,  // measure 24
00000010
00000010
00000100
00000100
,  // measure 25
00000001
00001000
00000010
00001000
,  // measure 26
00002002
00000000
00003003
00000000
,  // measure 27
00000010
00000010
00000110
00000000
,  // measure 28
00010000
00010000
00011000
00000000
,  // measure 29
01100000
01100000
10010000
00000000
,  // measure 30
00010000
01000000
00001000
00010000
,  // measure 31
00001000
00001000
00011000
00000000
,  // measure 32
00000100
00000100
00000110
00000000
,  // measure 33
00000000
00000001
00000000
00000001
,  // measure 34
00000000
00000001
00000001
00000001
,  // measure 35
00000001
00001000
00000010
00001000
,  // measure 36
00000100
00010000
00001000
00010000
,  // measure 37
00100000
00000000
00100000
00000000
,  // measure 38
01100000
01100000
10010000
00000000
,  // measure 39
10000000
01000000
00100000
01000000
,  // measure 40
00100000
00001000
00010000
00011000
,  // measure 41
00000000
00010000
00000000
00000010
,  // measure 42
00000000
00000100
00002002
00003003
,  // measure 43
00000010
00000000
00000010
00000000
,  // measure 44
00000010
00000010
00000100
00000100
,  // measure 45
00000001
00000010
00000100
00001000
,  // measure 46
00010000
00100000
00010000
01000000
,  // measure 47
00100000
00000000
00100000
00000000
,  // measure 48
01000000
00000000
01000000
00000000
,  // measure 49
00010000
10000000
01000000
00100000
,  // measure 50
00022000
00000000
00000000
00033000
,  // measure 51
00000020
00000100
00000130
00000000
,  // measure 52
00020000
00031000
00011000
00000000
;
