#VERSION:0.83;
#TITLE:Klungkung 1655;
#SUBTITLE:;
#ARTIST:simon;
#TITLETRANSLIT:;
#SUBTITLETRANSLIT:;
#ARTISTTRANSLIT:;
#GENRE:GAMELAN;
#ORIGIN:;
#TAGS:;
#CREDIT:YonabearCWY/Pandemonium X;
#BANNER:Klungkung 1655.png;
#BACKGROUND:Klungkung 1655-bg.png;
#PREVIEWVID:;
#JACKET:Klungkung 1655-jacket.png;
#CDIMAGE:;
#DISCIMAGE:;
#LYRICSPATH:;
#CDTITLE:Keyboardmania.png;
#MUSIC:Klungkung 1655.ogg;
#OFFSET:-5.499000;
#SAMPLESTART:16.158001;
#SAMPLELENGTH:15.000000;
#SELECTABLE:YES;
#BPMS:0.000000=180.000000
;
#STOPS:29.000000=0.165000
,29.500000=0.165000
,30.000000=0.165000
,203.500000=0.165000
,204.000000=0.165000
,204.500000=0.165000
,278.000000=0.165000
,278.500000=0.165000
;
#DELAYS:;
#WARPS:;
#TIMESIGNATURES:0.000000=4=4
;
#TICKCOUNTS:0.000000=4
;
#COMBOS:0.000000=1
;
#SPEEDS:0.000000=1.000000=0.000000=0
;
#SCROLLS:0.000000=1.000000
;
#FAKES:;
#LABELS:0.000000=Song Start
;
#BGCHANGES:-16.000=Klungkung 1655.mp4=1.000=1=0=0=StretchNoLoop==CrossFade==,
99999=-nosongbg-=1.000=0=0=0 // don't automatically add -songbackground-
;
#KEYSOUNDS:;
#ATTACKS:
;

//---------------dance-single - ----------------
#NOTEDATA:;
#CHARTNAME:BEGINNER;
#CHARTHASH:515276796;
#STEPSTYPE:dance-single;
#BANNER:;
#DESCRIPTION:;
#CHARTSTYLE:;
#DIFFICULTY:Beginner;
#METER:4;
#METERF:4.000000;
#LASTSECONDHINT:99.818993;
#RADARVALUES:0.000000,0.000000,0.000000,0.000000,0.000000,0.000000,0.000000,0.000000,0.000000,0.000000,0.000000,0.000000,0.000000,0.000000,0.000000,0.000000,0.000000,0.000000,0.000000,0.000000,0.000000,0.000000,0.000000,0.000000,0.000000,0.000000,0.000000,0.000000;
#CREDIT:YonabearCWY;
#NOTES:
1000
0000
1000
0000
,
0001
0000
0001
0000
,
1000
0000
1000
0000
,
0001
0000
0001
0000
,
2002
0000
0000
0000
,
0000
0000
3003
0000
,
0100
0100
0010
0010
,
0220
0000
0000
0000
0330
0001
0000
0000
,
0000
0001
0000
0000
0000
0001
0000
0000
,
0000
0000
0000
0000
0000
1000
0000
0000
,
0000
1000
0000
0000
0000
1000
0000
0000
,
0000
0000
0000
0000
0000
0010
0000
0000
,
0000
0010
0000
0000
0000
0010
0000
0000
,
0000
0000
0000
0000
0000
0100
0000
0000
,
0000
0100
0000
0000
0000
0100
0000
0100
,
0000
0100
0000
0000
0000
1001
0000
0000
,
0000
0100
0000
0000
0000
0100
0000
0000
,
0000
0100
0000
0000
0000
0100
0000
0000
,
0000
0010
0000
0000
0000
0100
0000
0000
,
0000
1001
0000
1001
0000
0110
0000
0000
,
0000
0000
0000
0000
0000
0010
0000
0010
,
0000
0010
0000
0000
0000
0010
0000
0010
,
0000
0010
0000
0000
0000
0010
0000
0000
,
0000
0010
0000
0000
0000
1001
0000
0000
,
0000
0000
0000
0000
0000
0100
0000
0100
,
0000
0100
0000
0000
0000
0100
0000
0100
,
0000
0100
0000
0000
0000
0100
0000
0000
,
0000
0100
0000
0000
0000
0100
0000
0001
,
0000
0000
0000
0001
0000
0000
0000
0001
,
0000
1000
0000
0001
0000
0000
0000
0100
,
0000
0000
0000
0100
0000
1000
0000
0010
,
0000
1000
0000
0010
0000
0000
0000
0010
,
0000
0000
0000
0010
0000
0100
0000
0001
,
0000
0100
0000
0001
0000
1000
0000
0000
,
0000
1000
0000
0000
0000
0001
0000
0000
,
0000
0001
0000
1001
0000
0220
0000
0000
,
0000
0000
0000
0330
0000
2020
0000
0000
,
0000
0000
0000
3030
0000
0202
0000
0000
,
0000
0000
0000
0303
0000
2002
0000
0000
,
0000
0000
0000
3003
0000
1000
0000
0000
,
0000
1000
0000
0000
0000
0001
0000
0000
,
0000
0001
0000
0000
0000
0010
0000
0000
,
0000
0010
0000
0000
0000
0100
0000
0000
,
0000
0100
0000
0000
0000
1001
0000
0000
,
0000
0000
0000
1000
0000
0000
0000
0000
,
0000
0000
0000
0000
0000
0001
0000
0000
,
0000
0000
0000
0000
0000
0010
0000
0000
,
0000
0000
0000
0000
0000
0220
0000
0000
,
0000
0000
0000
0000
,
0000
0000
0000
0330
0000
0000
0000
0000
,
0000
0000
0000
0000
0000
2002
0000
0000
,
0000
3003
0010
0000
0000
0000
0010
0000
,
0000
0010
0000
0010
,
0000
0000
0000
0100
,
0000
0100
0000
0100
,
0000
0100
0000
0000
,
0000
0001
0000
0001
,
0000
0001
0000
0001
,
0000
0000
0000
1000
,
0000
1000
0000
1000
,
0000
1000
0000
0000
,
0000
0010
0000
0010
,
0000
0010
0000
0000
,
0000
0100
0000
0100
,
0000
0100
0000
0000
,
0000
0001
0000
0001
,
0000
0001
0000
0000
,
0000
1000
0000
1000
,
0000
1000
0000
0000
,
2002
0000
0000
3003
;

//---------------dance-single - ----------------
#NOTEDATA:;
#CHARTNAME:BASIC;
#CHARTHASH:1371324412;
#STEPSTYPE:dance-single;
#BANNER:;
#DESCRIPTION:;
#CHARTSTYLE:;
#DIFFICULTY:Easy;
#METER:7;
#METERF:7.000000;
#LASTSECONDHINT:99.818993;
#RADARVALUES:0.000000,0.000000,0.000000,0.000000,0.000000,0.000000,0.000000,0.000000,0.000000,0.000000,0.000000,0.000000,0.000000,0.000000,0.000000,0.000000,0.000000,0.000000,0.000000,0.000000,0.000000,0.000000,0.000000,0.000000,0.000000,0.000000,0.000000,0.000000;
#CREDIT:YonabearCWY;
#NOTES:
1000
0100
0010
0100
,
0010
0001
0100
1000
,
0100
0001
1000
0010
,
0001
0010
1000
1001
,
0220
0000
0000
0000
,
0000
0000
0000
0330
,
1000
1010
0001
0101
,
0100
0000
0220
0000
0330
0100
0000
0100
,
0000
0010
0000
0010
0000
1000
0000
0100
,
0000
0010
0000
0001
0000
1000
0000
1000
,
0000
0001
0000
0001
0000
0010
0000
0100
,
0000
0010
0000
1001
0000
0110
0000
0010
,
0000
1000
0000
1000
0000
0100
0000
0010
,
0000
0001
0000
0100
0000
0001
0000
0001
,
0000
0010
0000
0010
0000
0100
0000
1000
,
0000
0001
0000
1010
0000
0102
0000
0000
,
0000
1000
0000
0000
0000
0010
0000
0000
,
0000
1000
0000
0000
0000
0013
0000
0001
,
0000
1000
0000
0010
0000
1000
0000
0010
,
0000
0100
0010
0100
0000
2001
0000
0010
,
0000
0100
0000
0010
0000
0000
0000
0100
,
0000
0010
0000
3100
0000
1000
0000
0001
,
0000
0010
0000
0100
0000
1000
0100
1000
,
0000
0100
0001
0100
0000
1002
0000
0100
,
0000
0010
0000
0100
0000
0000
0000
0010
,
0000
0100
0000
0013
0000
0001
0000
1000
,
0000
0010
0000
0100
0000
0001
0010
0001
,
0000
0010
1000
0010
0000
2001
0000
0100
,
0000
0001
0000
0100
0000
3001
1000
0100
,
0000
0010
0000
0001
0000
1002
0000
1000
,
0000
0010
0000
1000
0000
0013
0001
0100
,
0000
0010
0000
0100
0000
2001
0000
0100
,
0000
0010
0000
0100
0000
3010
0100
0001
,
0000
0010
0000
0001
0000
0000
0100
0001
,
0100
0001
0000
0010
0000
0100
1000
0100
,
0000
1000
0000
1001
0000
2200
0000
0000
,
0000
0000
0000
3300
0000
0022
0000
0000
,
0000
0000
0000
0033
0000
0220
0000
0000
,
0000
0000
0000
0330
0000
2002
0000
0000
,
0000
0000
0000
3003
0000
1000
0000
0000
,
0000
1000
0000
0000
0000
0001
0000
0000
,
0000
0001
0000
0000
0000
0100
0000
0100
,
0000
0010
0000
0010
0000
0100
0000
0001
,
0000
0010
0000
0100
0000
1002
0000
0000
,
0000
0000
0000
1000
1003
0000
0000
0010
,
0000
0100
0000
0001
0000
2001
0000
0000
,
0000
0000
0000
0000
0001
3001
0000
0100
,
0000
0010
0000
1000
0000
0220
0000
0000
,
0000
0000
0000
0000
,
0000
0000
0000
0330
0000
0100
0000
0100
,
0000
0010
0000
0010
0000
1001
0000
0220
,
0000
0330
1000
0000
0001
0000
0100
0000
,
1000
0100
0001
1000
,
0010
0001
0010
1000
,
0001
0100
0001
1000
,
0010
1000
0100
1000
,
0010
0101
0010
0001
,
1000
0001
0100
0001
,
0010
0100
1000
1010
,
0100
0010
0001
1000
,
0010
0100
0001
1000
,
0010
0200
0000
1000
,
0000
0001
0000
1000
,
0300
0020
0000
0001
,
0000
1000
0000
0001
,
0030
0000
0100
0000
0010
1000
0000
0010
,
1000
0000
0100
0000
0001
0100
0000
0001
,
0100
0000
1000
0000
0010
0100
0010
0000
,
1000
0001
1000
0000
0001
0000
0100
0000
,
0020
0200
0000
0000
0000
0000
0330
0000
;

//---------------dance-single - ----------------
#NOTEDATA:;
#CHARTNAME:DIFFICULT;
#CHARTHASH:2021716754;
#STEPSTYPE:dance-single;
#BANNER:;
#DESCRIPTION:;
#CHARTSTYLE:;
#DIFFICULTY:Medium;
#METER:10;
#METERF:10.000000;
#LASTSECONDHINT:99.818993;
#RADARVALUES:0.000000,0.000000,0.000000,0.000000,0.000000,0.000000,0.000000,0.000000,0.000000,0.000000,0.000000,0.000000,0.000000,0.000000,0.000000,0.000000,0.000000,0.000000,0.000000,0.000000,0.000000,0.000000,0.000000,0.000000,0.000000,0.000000,0.000000,0.000000;
#CREDIT:YonabearCWY;
#NOTES:
1000
0000
0010
0000
0100
0000
0001
0010
,
0100
0000
1000
0000
0001
0000
0010
0001
,
0100
1000
0100
0000
0010
0001
0010
0000
,
0100
0001
0100
1000
0100
0001
1001
0000
,
0220
0000
0000
0000
,
0000
0000
0000
0330
,
1000
0101
0010
1100
,
0010
0100
0001
1000
0001
1000
0010
1000
,
0000
0010
0100
0010
0000
0100
0001
0100
,
0000
0001
0010
0001
0000
1000
0010
1000
,
0001
1000
0100
1000
0000
0001
0100
0001
,
0010
0000
0001
0000
1000
0000
0001
0000
0000
0100
0010
0000
1000
0000
0100
0000
,
0000
1000
0010
0100
0000
0001
0100
0010
,
0000
0100
0001
1000
0000
0100
0010
0001
,
1000
0001
0010
0100
0000
1000
0100
0001
,
0100
0000
1000
0000
0010
0000
0100
0000
0000
0001
2000
0000
0000
0000
0000
0000
,
0000
0010
0000
0000
0100
0100
0000
0000
,
0000
0001
0000
0000
0010
3010
1000
0010
,
0000
0100
0001
0100
0000
0001
1000
0001
,
1000
0000
1000
0000
0001
0000
1001
0000
0000
0100
0010
0000
0000
0000
0001
0000
,
0000
0100
0000
1000
0000
0010
0000
0001
,
0000
1000
0100
0010
0001
0100
0000
0010
,
0000
1000
0000
0100
0000
0010
0001
0010
,
0000
0001
0010
0001
0020
0000
0000
0130
,
0000
1000
0000
0001
0000
0010
0000
1000
,
0000
0100
0010
0001
1000
0010
0000
0100
,
0000
0001
0000
0010
0000
0100
1000
0100
,
0000
1000
0100
1000
0200
0000
0000
1000
,
0000
0001
0000
1300
0001
0000
0010
0010
,
0100
0010
0100
0100
0010
0002
0000
1000
,
0000
0010
0000
1003
0001
0000
1000
1000
,
0001
1000
0001
0001
1000
0020
0000
0100
,
0000
0001
0000
1030
0010
0000
0100
0100
,
0001
0010
0001
0001
1000
0010
1000
0100
,
1000
1010
0000
0101
0000
0001
1000
2001
,
0000
0010
0010
3010
0000
0202
0000
0000
,
0000
0000
0000
0303
0000
2020
0000
0000
,
0000
0000
0000
3030
0000
0220
0000
0000
,
0000
0000
0000
0330
0000
2002
0000
0000
,
0000
0000
0000
3003
0000
1000
0100
1000
,
0000
0100
0001
0100
0000
0010
0001
0010
,
0000
0100
1000
0100
0000
0010
0001
0100
,
1000
0100
0001
0010
0100
1000
0001
1000
,
0010
0000
0100
0000
0100
0000
0110
0000
0000
0001
0020
0000
0000
0000
1000
0000
,
0000
0001
0000
1030
0010
0000
0101
0000
,
0001
0010
0100
1000
0001
1000
0020
0000
,
0130
0002
0000
1000
0000
0013
0001
0000
,
1000
0010
1000
0001
0000
0220
0000
0000
,
0000
0000
0000
0000
,
0000
0000
0000
0330
0000
0011
0000
1100
,
0000
0001
0100
0000
0010
0000
1000
0000
0000
0100
0020
0000
0000
0000
0130
0000
,
0010
0100
0001
0100
1000
0000
1000
0100
,
0001
0000
0110
0000
1001
0000
0010
0100
,
0001
0000
1000
0010
0100
0000
0001
0010
,
1000
0000
1000
0010
0001
0000
1100
0000
,
0011
0000
0100
0001
0010
0100
1000
0001
,
0100
0000
0010
1000
0100
0000
0010
0001
,
0100
0000
1010
0000
0101
0000
0010
0001
,
1000
0100
0010
0001
0100
0000
0010
0100
,
0001
0000
0100
0010
1000
0000
0011
0000
,
1100
0000
0010
0100
0001
0010
0100
1000
,
0001
2010
0100
0001
,
0100
3002
0010
1000
,
0010
0203
0001
1000
,
0001
0320
0001
1000
,
0130
0010
0200
0000
0001
0001
0000
1000
,
1300
0100
0020
0000
0100
0100
0000
0001
,
0031
0010
0100
0001
0001
1000
0010
1000
,
1000
0010
0100
0000
0001
0000
0010
0100
,
1000
1002
0000
0000
1003
0001
1001
0000
;

//---------------dance-single - EXPERT----------------
#NOTEDATA:;
#CHARTNAME:EXPERT;
#CHARTHASH:2002088995;
#STEPSTYPE:dance-single;
#BANNER:;
#DESCRIPTION:EXPERT;
#CHARTSTYLE:;
#DIFFICULTY:Hard;
#METER:14;
#METERF:0.000000;
#LASTSECONDHINT:99.818993;
#RADARVALUES:0.000000,0.000000,0.000000,0.000000,0.000000,0.000000,0.000000,0.000000,0.000000,0.000000,0.000000,0.000000,0.000000,0.000000,0.000000,0.000000,0.000000,0.000000,0.000000,0.000000,0.000000,0.000000,0.000000,0.000000,0.000000,0.000000,0.000000,0.000000;
#CREDIT:YonabearCWY;
#NOTES:
1000
0000
0000
0000
0001
0000
0000
0000
0010
0000
0000
0001
0100
0000
0010
0000
,
1000
0000
0000
0000
0100
0000
0000
0000
0010
0000
0000
0100
0001
0000
0100
0000
,
1000
0010
0001
0010
1000
0100
0001
0100
,
1000
0000
0001
0010
0001
0000
1000
0000
0010
0000
0010
0000
1000
0000
0001
0000
,
0100
0000
0000
0010
1000
0000
0000
0100
0010
0000
0000
0001
1000
0000
0000
0010
,
0200
0000
0000
0000
,
0301
0100
0100
0010
1000
0100
0100
0010
,
0001
1000
1000
0001
0120
1030
0100
0010
,
0001
1000
0010
0100
0001
0010
0100
1000
,
0001
0100
0010
1000
0001
0100
0100
0010
,
1000
0000
1000
0000
0010
0000
0100
0000
0001
0000
0001
0000
0010
0100
0010
0000
,
0100
0000
1000
0000
0001
0000
0101
0000
0000
1000
0010
0000
1000
0000
0100
0000
,
0010
0001
0100
0010
0100
0001
1000
0010
,
0100
0010
0001
0010
0100
1000
1000
0100
,
0001
0000
0001
0000
0100
0000
0010
0000
0100
0000
0001
0000
1000
0010
1000
0000
,
0100
0000
0010
0000
0010
0000
0010
0000
0000
0001
2000
0000
0000
0000
3000
0000
,
0000
0100
0020
0000
0000
0000
0030
0000
0000
0001
0200
0000
0000
0000
0300
0000
,
0000
1000
0020
0000
0000
0000
0030
0000
0000
0001
0100
0000
0010
0000
2000
0000
,
0000
3010
1000
0002
0000
0103
0001
0100
,
0010
0000
0100
0000
0100
0000
1001
0000
0000
0100
0010
0000
0001
0000
1000
0000
,
0010
0001
0010
1000
0002
0000
1003
0010
,
0001
0110
0000
1100
0000
0100
0010
0001
,
1000
0010
0100
0001
0000
0010
0010
1100
,
0000
0000
0010
0000
0010
0000
0101
0000
0000
1000
0100
0000
0010
0000
0001
0000
,
0100
1000
0100
0001
2000
0000
3001
1000
,
0010
0101
0000
1010
0000
0100
0001
0010
,
0100
1000
0100
0010
0000
0100
0100
1010
,
0000
0100
0100
0011
0000
1000
0001
0010
,
0001
1000
0001
0100
0001
0000
0010
0010
,
0010
0010
0100
1000
0001
0000
0100
0010
,
0100
1000
0100
0001
0100
0000
0001
0001
,
0001
0001
1000
0100
0010
0001
1000
0010
,
0001
0010
1000
0100
0010
0000
0100
0100
,
0100
0100
1000
0001
0010
0100
1000
1000
,
1000
1000
0010
0100
0001
0000
1001
1001
,
0000
0000
0010
0000
0000
1000
0001
0000
0000
0000
0010
0100
0000
0100
1000
0000
,
1000
0010
0000
0010
0100
0000
0001
0000
1000
0000
0001
0100
0000
0100
0001
0000
,
0001
0010
0000
0010
0001
0000
1000
0000
0010
0000
1000
0100
0000
0100
0010
0000
,
0010
0001
0000
0001
1000
0000
0010
0000
1000
0000
0100
1000
0000
1000
0010
0000
,
0010
0100
0000
0100
0001
0000
0010
0000
0001
0000
1000
0000
0001
0000
0100
0001
,
0000
0000
0010
0000
0100
0000
1000
0010
0000
0000
0100
0000
0001
0000
0010
0001
,
0000
0000
0001
0000
0010
0000
0100
1000
0000
0000
0010
0000
0100
0000
0001
1000
,
0000
1000
0010
0000
0100
0000
0001
0010
0000
0010
0100
0000
1000
0000
0100
0010
,
0100
0010
0100
0000
0010
0000
1001
0000
0000
0001
0010
0000
0100
0000
0010
0000
,
0001
0010
0100
0010
1100
0000
1001
0000
,
0100
0000
0001
0010
0000
0010
1000
0000
0010
0000
0001
0000
0100
0000
0010
0000
,
1000
0000
0001
0000
0000
1000
0010
0000
0100
0000
0001
0000
0010
0000
0100
0000
,
1000
0000
0001
0000
0100
0000
0020
0000
0000
0000
1030
0001
0100
0001
0020
0002
,
0000
0000
0000
0000
0030
2000
0000
0000
,
0000
0000
0000
3003
0000
1010
0000
0101
,
0000
0001
0010
0000
0100
0000
1000
0000
0000
0100
0020
0000
0000
0000
0031
0000
,
1000
0210
0301
0100
1000
0100
0010
0100
,
0010
0001
1000
0001
1000
0010
0100
0001
,
0010
0000
0001
0000
1000
0000
0010
0000
1000
0000
0100
0001
0100
0000
1000
0000
,
0100
0010
0001
0100
0001
0010
0100
0010
,
0001
0010
0100
1000
0001
1000
0100
0010
,
0100
0000
1000
0100
0010
0000
0100
0000
1000
0000
0100
0000
0010
0000
0010
0000
,
0100
0100
1000
0001
0100
0001
0010
0010
,
0001
0001
0100
0010
1000
0100
0010
0001
,
1000
0010
0100
0100
0001
0001
0010
0100
,
1000
0001
1000
1000
0010
0010
0100
0001
,
0010
0000
0001
0000
1000
0000
0000
0001
0010
0000
0000
0000
0100
0000
0100
0000
,
0001
0000
0010
0000
0100
0000
0000
0000
1000
0010
0000
0010
0100
0000
0001
0000
,
0010
0000
0100
0000
0010
0000
0000
0100
1000
0000
0000
0000
0001
0000
0001
0000
,
1000
0000
0010
0000
0100
0000
0000
1000
0001
0000
0000
0000
0010
0000
0010
0000
,
0010
0000
0010
0000
0020
0000
0000
0031
1000
0000
1000
0100
0000
0100
0010
0000
,
0001
0000
1000
0000
0200
0000
0000
1300
0010
0000
0010
0100
0000
0100
0001
0000
,
0010
0000
0001
0000
1000
0010
0000
0010
0100
0000
0100
0001
0000
0001
0010
0000
,
0100
0000
1000
0000
0001
1000
0001
1000
0001
0000
1000
0000
0100
0000
0010
0000
,
0100
2001
0000
0000
3100
0010
1001
0000
;

//---------------dance-single - CHALLENGE----------------
#NOTEDATA:;
#CHARTNAME:CHALLENGE;
#CHARTHASH:1032836799;
#STEPSTYPE:dance-single;
#BANNER:;
#DESCRIPTION:CHALLENGE;
#CHARTSTYLE:;
#DIFFICULTY:Challenge;
#METER:16;
#METERF:0.000000;
#LASTSECONDHINT:99.818993;
#RADARVALUES:0.000000,0.000000,0.000000,0.000000,0.000000,0.000000,0.000000,0.000000,0.000000,0.000000,0.000000,0.000000,0.000000,0.000000,0.000000,0.000000,0.000000,0.000000,0.000000,0.000000,0.000000,0.000000,0.000000,0.000000,0.000000,0.000000,0.000000,0.000000;
#CREDIT:Pandemonium X;
#NOTES:
1001
0000
0000
0000
1000
0000
0001
0000
1000
0000
0000
0100
0010
0000
0001
0000
,
1000
0000
0000
0000
0001
0000
1000
0000
0001
0000
0000
0010
0100
0000
1000
0000
,
0001
0010
0100
0010
0001
1000
0010
1000
,
0100
0000
0010
0001
0010
0001
0010
0001
0010
0000
0100
0000
1000
0000
0001
0000
,
1000
0001
0010
0000
0100
1000
0001
0000
1000
0001
0010
0000
0001
1000
0100
0000
,
0010
0001
0100
0001
0010
0001
0100
0001
0010
0001
0100
0001
0010
0001
0100
0001
,
1000
0000
0000
0000
0011
0000
0000
0000
0001
0000
0000
0000
1010
0000
0000
0100
,
0010
0000
0100
0002
0003
1000
0100
0010
,
0100
0010
0001
0100
0010
1000
0010
0100
,
0001
0010
0100
0010
0001
1000
0010
1000
,
0001
0010
0001
0100
0001
1000
0010
0001
,
0010
0100
0001
1000
0100
0010
0100
1000
,
0001
0100
0001
0010
0100
0010
0001
0100
,
0001
1000
0100
0010
0100
1000
0001
0100
,
0010
0000
1000
0000
0001
0000
0010
0000
0001
0000
1000
0000
0010
0100
0001
0000
,
0100
0000
1000
0000
0100
0000
0001
0000
1000
0000
0100
0000
0000
0100
0010
0000
,
0000
0000
0001
0000
0000
0001
1000
0000
0000
0000
1000
0000
0000
1000
0010
0000
,
0000
0000
0010
0000
0000
0010
0100
0000
0000
0000
0001
0000
1000
0000
0100
0000
,
1000
0000
0001
0000
0010
0000
0001
0000
0100
0000
0001
0000
1000
0010
1000
0001
,
0000
0001
1000
0000
0100
0000
1001
0000
0000
0001
0100
0000
1000
0000
0100
0000
,
0001
2000
0000
3100
0000
0000
1000
0100
,
0001
0100
0010
0100
0010
0000
0100
1000
,
0001
0200
0000
0310
0000
0100
0001
1000
,
0000
0001
0010
1000
0000
0000
0010
0001
,
1000
0002
0000
0103
0000
0000
1000
0100
,
0010
1000
0001
1000
0001
0000
0010
1000
,
0010
0002
0000
0103
0000
0100
0010
1000
,
0000
0000
0010
0000
0100
0010
0100
0000
0001
0000
0000
0000
1000
0000
1000
0000
,
0100
0020
0000
0130
0000
0000
0010
0010
,
0100
1000
0100
0010
0100
0000
0010
0100
,
0100
2000
0000
3010
0000
0000
1000
1000
,
0001
0010
0100
0010
0001
0010
0001
0001
,
0100
0002
0000
1003
0000
0000
1000
0010
,
0100
0001
0100
0010
0100
0000
0010
0010
,
1000
0002
0000
1003
0000
0000
0001
1000
,
0000
0000
1000
0000
0001
1000
0001
0000
0000
0000
1000
0000
0010
0100
0010
0100
,
0010
0100
0010
0100
0010
0100
0010
0100
0010
0000
1000
0000
0100
0010
0100
0010
,
0100
0010
0100
0010
0100
0010
0100
0010
0100
0000
1000
0000
0010
0100
0010
0100
,
0010
0100
0010
0100
0010
0100
0010
0100
0010
0000
1000
0000
0100
0010
0100
0010
,
0100
0010
0100
0010
0100
0010
0100
0010
0100
0000
0011
0000
0010
0000
0100
0000
,
1000
1001
0001
0100
0010
1010
0010
0100
,
0001
0000
1001
0000
1000
0000
0100
0000
0010
0000
0001
0000
1000
0100
1000
0000
,
0001
0100
0001
0000
1000
0100
1000
0000
0001
0100
0001
1000
0010
1000
0001
0100
,
0001
1000
0010
1000
0001
0100
0001
1000
0010
1000
0001
0000
0000
0001
0010
0000
,
0100
1000
1000
0001
0101
0000
0110
0000
,
1000
0000
1001
0000
0000
1000
0100
0000
0010
0000
0011
0000
0110
0000
0000
0000
,
1000
0000
1001
0000
0000
0001
0010
0000
0011
0000
0010
0000
0000
0100
1000
0000
,
1001
0000
0001
1000
0100
0000
0010
0000
0011
0000
1100
0000
0100
0001
0100
1000
,
0010
0000
0000
0000
,
0000
0000
0000
0000
0000
0110
0000
1001
,
0000
1000
0010
0000
0010
0000
1001
0000
0000
0001
0010
0000
0000
0000
1000
0000
,
0020
0030
0001
0100
0010
1000
0001
0010
,
0100
0010
0001
0100
0010
1000
0001
0010
,
0100
0010
0001
0100
1000
0100
0001
0010
,
0100
0010
0001
1000
0010
1000
0100
0010
,
0100
1000
0001
0100
0010
1000
0001
0010
,
1000
0010
0001
0010
0100
0010
0001
0100
,
0010
1000
0001
0010
0100
1000
0100
0010
,
0100
1000
0001
0100
1000
0100
0001
1000
,
0001
0010
0100
0010
0001
1000
0010
1000
,
0100
0010
0100
1000
0001
0100
0001
0010
,
1000
0000
0010
0000
0001
0000
0000
0001
0010
0000
0000
0010
0100
0000
0000
0100
,
1000
0000
0000
1000
0010
0000
0000
0010
0100
0000
0000
0100
0001
0000
0000
0001
,
1000
0000
0100
0000
0010
0000
0000
0010
0100
0000
0000
0100
1000
0000
0000
1000
,
0010
0000
0000
0010
0100
0000
0000
0100
0001
0000
0000
0001
1000
0000
0000
1000
,
0001
0000
0000
0000
1100
0000
0000
0100
0010
0000
0010
0001
0000
0001
0100
0000
,
0010
0000
0010
0000
1000
0000
0000
1000
0100
0000
0100
0010
0000
0010
0001
0000
,
0100
0000
0100
0000
0001
0000
0100
0010
1000
0000
1000
0000
0100
0010
0001
0000
,
0010
0000
0100
1000
0010
0100
0010
1000
0010
0100
0010
1000
0010
0000
1000
0000
,
0100
2100
0000
0000
3010
0200
0300
0000
;

//---------------dance-double - ----------------
#NOTEDATA:;
#CHARTNAME:DIFFICULT;
#CHARTHASH:715653295;
#STEPSTYPE:dance-double;
#BANNER:;
#DESCRIPTION:;
#CHARTSTYLE:;
#DIFFICULTY:Medium;
#METER:10;
#METERF:10.000000;
#LASTSECONDHINT:99.818993;
#RADARVALUES:0.000000,0.000000,0.000000,0.000000,0.000000,0.000000,0.000000,0.000000,0.000000,0.000000,0.000000,0.000000,0.000000,0.000000,0.000000,0.000000,0.000000,0.000000,0.000000,0.000000,0.000000,0.000000,0.000000,0.000000,0.000000,0.000000,0.000000,0.000000;
#CREDIT:YonabearCWY;
#NOTES:
10000000
00000000
00010000
00000000
00100000
00000000
01000000
00100000
,
00001000
00000000
00010000
00000000
00000100
00000000
00001000
00000010
,
00000001
00000000
00000010
00000100
00000010
00000000
00000100
00000010
,
00000100
00001001
00000110
00001001
,
00021000
00000000
00000000
00000000
,
00002000
00000000
00000000
00033000
,
00001000
00100000
01000000
00000000
00100000
01000000
10000000
00000000
,
00100000
01000000
02002000
00000000
03003000
00001000
00100000
00001000
,
00000000
00010000
00001000
00010000
00000000
00001000
00000000
00010000
,
00000000
00000100
00000010
00000001
00001000
00000010
00000000
00001000
,
00000100
00001000
00000000
00000100
00010000
00000100
00000000
00011000
,
00000000
00101000
00000000
01100000
00000000
00010000
01000000
00010000
,
00000000
01000000
00001000
01000000
00000000
00010000
00000000
00100000
,
00000000
00001000
00010000
00001000
00000100
00000010
00000000
00001000
,
00000001
00001000
00000000
00000010
00000100
00000010
00000000
00001100
,
00000000
00010010
00000000
00011000
00000000
00202000
00000000
00303000
,
00000000
02200000
00000000
03300000
00000000
22000000
00000000
33000000
,
00000000
02002000
00000000
03003000
00000000
00001000
00010000
00001000
,
00000000
00010000
00000100
00010000
00000000
00000010
00010000
00000010
,
00001000
00000100
00000010
00000001
00000000
00001000
00000000
00001000
,
00000000
00000010
00000000
00000010
00010000
00000000
00010000
00001000
,
00000000
01001000
00000000
01100000
00000000
00100000
10000000
00100000
,
10000000
01000000
00100000
00010000
00000000
00100000
00001000
00100000
,
00000000
00001000
00010000
00001000
00000000
00010000
00000000
00010000
,
00000000
00001000
00000000
00001000
01000000
00000000
01000000
00100000
,
00000000
00100000
10000000
01000000
00100000
00010000
00100000
00010000
,
00000000
00100000
00001000
00010000
00001000
00010000
00000100
00010000
,
00000000
00001000
00000010
00001000
00000000
00000120
00000000
00001000
,
00000000
00000001
00000000
00001000
00001030
00000000
00000100
00010000
,
00000100
00010000
00000100
00010000
00000100
00021000
00000000
00100000
,
00000000
00001000
00000000
00100000
00130000
00000000
00100000
01000000
,
00100000
01000000
00100000
01000000
00100000
20010000
00000000
01000000
,
00000000
00100000
00000000
01000000
31000000
00000000
00100000
00001000
,
00100000
00001000
00100000
00001000
00100000
00001000
00010000
00001000
,
00000100
00000010
00000000
00001001
00000000
00000000
00000010
00000100
,
00000000
00001000
00000000
00000110
00000000
00000202
00000000
00000000
,
00000000
00000000
00000000
00000303
00000000
00020020
00000000
00000000
,
00000000
00000000
00000000
00030030
00000000
00022000
00000000
00000000
,
00000000
00000000
00000000
00033000
00000000
02002000
00000000
00000000
,
00000000
00000000
00000000
03003000
00000000
00010000
10000000
00010000
,
00000000
00100000
00010000
00100000
00000000
00001000
00010000
00001000
,
00000000
00010000
00000100
00010000
00000000
00000100
00001000
00000100
,
00000010
00000001
00000100
00001000
00010000
01000000
00100000
00010000
,
00100000
01000000
10000000
00010000
00000000
11000000
00000000
11000000
,
00000000
10010000
00000000
00000000
00011000
00000000
00011000
00000000
,
00000100
00010000
00000000
00000000
00000000
00000110
00000000
00000110
,
00000000
00001001
00000000
00000000
00011000
00000000
00011000
00000000
,
00001000
00100000
00000000
00000000
00000000
00202000
00000000
00000000
,
00000000
00000000
00000000
00000000
,
00000000
00000000
00000000
00303000
00000000
10010000
00000000
00011000
,
00000000
00001000
00000100
00000010
00000000
00000202
00000000
00000000
,
00000000
00000303
00001000
00000000
00000010
00000000
00010000
00000000
,
00001000
00000000
00100000
00000000
01000000
10000000
01000000
00100000
,
00010000
00000000
01000000
00100000
01000000
00000000
00010000
00000000
,
10000000
00100000
01000000
00001000
,
00100000
00000000
00001000
00000000
00010000
00000000
00000100
00000010
,
00000100
00001000
00000100
00000000
00001000
00000000
00000010
00000000
,
00010000
00000000
00000100
00000000
00010000
00001000
00100000
00001000
,
01000000
00000000
00010000
10000000
00010000
00000000
01000000
00000000
,
00100000
00010000
00100000
01000000
,
00001000
00000000
00100000
00000000
00001000
00000000
00010000
00000100
,
00010000
00000010
00002000
00000000
00000000
00000000
00000010
00000000
,
00000000
00000001
00000000
00003010
,
00001000
00000100
00020000
00000000
00000000
00000000
00001000
00000000
,
00000000
01000000
00000000
00001000
,
00000000
00000000
00000000
00000000
01030000
00000000
00000000
00000000
00010000
00000000
00000000
00010000
00000000
00000000
00001000
00000000
,
00100000
00000000
00010000
00000000
01000000
00000000
00000000
00000000
00100000
00000000
00000000
00100000
00000000
00000000
01000000
00000000
,
00010000
01000000
10000000
01000000
00010000
00100000
00001000
00010000
,
00000100
00000000
00001100
00000000
00010100
00000000
00000010
00001000
,
00000001
00002002
00000000
00000000
00000000
00000000
00003003
00000000
;

//---------------dance-double - ----------------
#NOTEDATA:;
#CHARTNAME:EXPERT;
#CHARTHASH:3966673978;
#STEPSTYPE:dance-double;
#BANNER:;
#DESCRIPTION:;
#CHARTSTYLE:;
#DIFFICULTY:Hard;
#METER:14;
#METERF:14.000000;
#LASTSECONDHINT:99.818993;
#RADARVALUES:0.000000,0.000000,0.000000,0.000000,0.000000,0.000000,0.000000,0.000000,0.000000,0.000000,0.000000,0.000000,0.000000,0.000000,0.000000,0.000000,0.000000,0.000000,0.000000,0.000000,0.000000,0.000000,0.000000,0.000000,0.000000,0.000000,0.000000,0.000000;
#CREDIT:YonabearCWY;
#NOTES:
00100000
00000000
01000000
10000000
00010000
01000000
00010000
01000000
,
00001000
00000000
00010000
00001000
00000100
00000010
00000100
00001000
,
00000100
00000001
00000100
00000000
00000010
00001000
00000010
00000000
,
00001000
00000000
00000001
00000000
00000010
00000100
00000010
00000100
00000010
00000000
00000100
00000000
00001000
00000000
00000000
00010000
,
00100000
00000000
00000000
01000000
10000000
00000000
00000000
01000000
00100000
00000000
00000000
00100000
00001000
00000000
00000000
00002000
,
00020000
00000000
00000000
00033000
,
00001000
00010000
00001000
00000000
00010000
00000010
00010000
00000000
,
00001000
00100000
00001000
00010000
01000000
00100000
00010000
00100000
,
01000000
10000000
00010000
10000000
00100000
01000000
00000000
00010000
,
00100000
00001000
00100000
00010000
00001000
00000100
00001000
00000100
,
00000010
00000001
00001000
00000001
00000100
00000010
00000000
00001000
,
00000100
00000010
00000100
00001000
00010000
00100000
01000000
10000000
,
00010000
10000000
00100000
01000000
00010000
00100000
00000000
00001000
,
00010000
00000100
00001000
00000100
00000010
00000001
00001000
00000010
,
00001000
00000000
00010000
00000000
00100000
00000000
00010000
00000000
00100000
00000000
01000000
00000000
10000000
00010000
10000000
00000000
,
00100000
00000000
01000000
00000000
00010000
00000000
00100000
00000000
00000000
00001000
00020000
00000000
00000000
00000000
00030000
00000000
,
00000000
00010000
00000200
00000000
00000000
00000000
00000300
00000000
00000000
00010000
00002000
00000000
00000000
00000000
00003000
00000000
,
00000000
00010000
02000000
00000000
00000000
00000000
03000000
00000000
00000000
10000000
00010000
00000000
01000000
00000000
00010000
00000000
,
00100000
00000000
00001000
00000000
00001000
00000000
00001000
00000000
00000000
00000100
00000010
00000000
00001000
00000000
00000001
00000000
,
00000100
00000010
00000010
00000010
00000000
00001100
00000000
00010000
,
00000000
00011000
00000000
00001000
00100000
00000000
00100000
00010000
,
10000000
01000000
00010000
01000000
10000000
00010000
00000000
01010000
,
00000000
01000000
00000000
01001000
00000000
00001000
00001000
00001000
,
00000000
00010000
00010000
00010000
00000000
00010100
00000000
00001000
,
00000000
00001010
00000000
00000010
00000100
00000000
00000001
00001000
,
00000010
00000001
00000010
00001000
00000001
00001000
00000000
00001100
,
00000000
00010000
00000000
00011000
00000000
00010000
00010000
00010000
,
00000000
00001000
00001000
00001000
00000000
00010000
01000000
00100000
,
00010000
00100000
10000000
00100000
01000000
00000000
00100000
00100000
,
00000000
00101000
00000000
00001000
00010000
00000000
00001000
00000100
,
00000001
00000100
00000010
00000001
00000010
00000000
00000100
00000100
,
00000000
00001010
00000000
00000100
00010000
00001000
00100000
00010000
,
01000000
00010000
00100000
00001000
00100000
00010000
00100000
00100000
,
00000000
01001000
00000000
00100000
00001000
00010000
00001000
00001000
,
00010000
00000100
00000010
00000001
00000000
00001000
00000010
00010010
,
00000000
00000000
00001000
00000000
00010000
00000000
00011000
00000000
00000000
00000000
00100000
00001000
00000000
00001000
01000000
00000000
,
01000000
00100000
00000000
00100000
10000000
00000000
01000000
00000000
00010000
00000000
00001000
00010000
00000000
00010000
00000100
00000000
,
00000100
00001000
00000100
00000000
00001000
00000000
00000010
00000000
00000001
00000000
00000010
00001000
00000000
00001000
00000100
00000000
,
00000100
00010000
00000000
00010000
00001000
00000000
00100000
00000000
00010000
00000000
10000000
01000000
00000000
01000000
00100000
00000000
,
00100000
00010000
00100000
00000000
01000000
00000000
00010000
00000000
00001000
00000000
00000100
00000000
00000010
00000000
00000010
00000000
,
00000000
00010000
00000100
00000100
00000000
00100000
00010000
00010000
,
00000000
10000000
00100000
00100000
00000000
01000000
00010000
00100000
,
00001000
00100000
00010000
00001000
00000100
00001000
00000100
00000010
,
00000001
00000000
00001000
00000000
00000010
00000000
00001000
00000000
00000010
00000000
00000100
00000000
00000000
00001000
00010000
00000000
,
00001000
00100000
00001000
00001000
00100000
00000000
00110000
00000000
,
10000000
00000000
00010000
00000000
00000000
00100000
01000000
00000000
10000000
00000000
01000000
00000000
00100000
00000000
00000000
00000000
,
00001000
00100000
00000000
00010000
00100000
00010000
00001000
00000100
,
00001000
00000000
00010000
00000000
00001000
00000000
00000100
00000000
00000010
00000000
00000001
00001000
00000001
00001000
00000001
00002000
,
00000000
00000000
00000000
00000000
00000000
00000002
00000000
00000000
,
00000000
00000000
00000000
00003003
00000000
00001001
00000000
00011000
,
00000000
00010000
10000000
00000000
01000000
00000000
00100000
00000000
00000000
01000000
20000000
00000000
00000000
00000000
30100000
00000000
,
01000000
00001000
00010000
00000100
00010000
00000100
00000010
00000001
,
00001000
00000010
00001000
00000010
00000100
00001000
00010000
00100000
,
00010000
00000000
01000000
00000000
00100000
00000000
10000000
00000000
00010000
00000000
00100000
00010000
00100000
00000000
00001000
00000000
,
01000000
00001000
01000000
00010000
00100000
00010000
00001000
00000100
,
00001000
00000100
00000010
00000001
00001000
00000001
00001000
00000010
,
00000100
00000000
00000010
00010000
00000010
00000000
00010000
00000000
00000100
00000000
00010000
00000000
00001000
00000000
00100000
00000000
,
00001000
00010000
00001000
01000000
00010000
01000000
00100000
00010000
,
00001000
00000000
00100000
00001000
00100000
00000000
00001000
00000000
00010000
00000000
00000100
00000000
00000010
00000000
00000100
00000000
,
00010000
00001000
00010000
00001000
00100000
01000000
00100000
00001000
,
00010000
00000000
00001000
00000000
00000100
00000000
00001000
00000000
00010000
00000000
00001000
00100000
00001000
00000000
00010000
00000000
,
00100000
01000000
20010000
00000000
00100000
00000000
31000000
00010000
,
01000000
10000000
01000000
00000000
00101000
00000000
00010000
00000000
,
00010100
00000000
00001002
00000000
00000010
00000000
00000103
00000001
,
00000100
00001000
00000100
00000000
00000110
00000000
00001000
00000000
,
00010010
00000000
00000000
00000000
00010000
00000000
00000000
00001000
00100000
00000000
00001000
00000000
00000000
00100000
00001000
00000000
,
00010000
00000000
00001000
00000000
00100000
00000000
00000000
00001000
00010000
00000000
00000100
00000000
00000000
00010000
00001000
00000000
,
00010000
00000000
00000010
00000000
00001000
00000100
00000000
00000100
00010000
00000000
00010000
00001000
00000000
00001000
00100000
00000000
,
00010000
10000000
10000000
10000000
00100000
01000000
00010000
00100000
,
01000000
20010000
00000000
00000000
31000000
00010000
00011000
00000000
;

//---------------dance-double - CHALLENGE----------------
#NOTEDATA:;
#CHARTNAME:CHALLENGE;
#CHARTHASH:3082582836;
#STEPSTYPE:dance-double;
#BANNER:;
#DESCRIPTION:CHALLENGE;
#CHARTSTYLE:;
#DIFFICULTY:Challenge;
#METER:16;
#METERF:0.000000;
#LASTSECONDHINT:99.818993;
#RADARVALUES:0.000000,0.000000,0.000000,0.000000,0.000000,0.000000,0.000000,0.000000,0.000000,0.000000,0.000000,0.000000,0.000000,0.000000,0.000000,0.000000,0.000000,0.000000,0.000000,0.000000,0.000000,0.000000,0.000000,0.000000,0.000000,0.000000,0.000000,0.000000;
#CREDIT:Pandemonium X;
#NOTES:
00110000
00000000
00000000
00000000
00010000
00000000
01000000
00000000
00100000
00000000
00000000
00100000
10000000
00000000
01000000
00000000
,
10000000
00000000
00000000
00000000
01000000
00000000
00100000
00000000
00010000
00000000
00000000
00010000
10000000
00000000
01000000
00000000
,
00100000
00001000
00010000
00000010
00010000
00001000
00100000
00001000
,
00010000
00000000
00000100
00001000
00000100
00001000
00000100
00001000
00000100
00000000
00000010
00000000
00001001
00000000
00000000
00000000
,
00000001
00000100
00001000
00000000
00001000
00010000
00100000
00000000
00100000
10000000
01000000
00000000
01000000
00100000
00010000
00000000
,
00001000
00000100
00000010
00000000
00000001
00000100
00001000
00000000
00001000
00010000
00100000
00000000
01000000
10000000
01000000
00010000
,
10000000
00100000
10000000
01000000
00010000
00001000
00000010
00000001
,
00001000
00000010
00000120
00001000
00010030
00001000
01000000
00010000
,
00100000
00010000
01000000
00001000
00010000
00001000
01000000
00010000
,
00100000
01000000
10000000
00010000
01000000
00010000
00100000
00001000
,
00010000
00000100
00001000
00000010
00000100
00001000
00000100
00000001
,
00000010
00000100
00001000
00000100
00010000
00001000
00100000
00010000
,
00100000
00001000
00100000
00010000
00100000
00001000
00010000
00000100
,
00010000
00001000
00010000
00000100
00000010
00000100
00000010
00000100
,
00001000
00000000
00000100
00000000
00010000
00000000
00001000
00000000
00010000
00000000
01000000
00000000
00100000
01000000
00100000
00000000
,
00100000
00000000
00001000
00000000
00100000
00000000
00001000
00000000
00010000
00001000
00010000
00000000
00000000
00000000
00010100
00000000
,
00000000
00000100
00000000
00001010
00000000
00000010
00000000
00001001
,
00000000
00000001
00000000
00001100
00000000
00010100
00000000
00010100
,
00000000
00000000
00101000
00000000
00000000
00000000
00101000
00000000
00000000
00000000
00001000
00000000
01000000
00100000
01000000
00000000
,
00010000
10000000
00010000
00000000
10000000
01000000
10000000
00000000
00010000
00000000
10010000
00000000
10000000
00000000
01000000
00000000
,
00010000
02000000
00000000
03200000
00000000
00300000
00100000
00001000
,
00010000
00000100
00010000
00000100
00010000
00000000
00010000
00000010
,
00000100
00000020
00000000
00000230
00000000
00000310
00000100
00001001
,
00000000
00000010
00000100
00001001
00000000
00000000
00000001
00000100
,
00000010
00002000
00000000
00003200
00000000
00000300
00000001
00000100
,
00000010
00000001
00000100
00001000
00010000
00000000
00001000
01000000
,
00100000
00000000
10000000
00010000
00000000
00000000
01010000
00000000
00000000
00000000
00010000
00000000
10000000
00000000
11000000
00000000
,
00000000
10000000
00010000
01010000
00000000
00000000
00010000
00100000
,
00100000
00001000
00000000
00010100
00000000
00000000
00001000
00001000
,
00000010
00000001
00000010
00001000
00000100
00000000
00010000
00001000
,
00001000
01000000
00000000
01010000
00000000
00000000
00010000
10000000
,
00100000
00010000
00100000
10000000
00010000
00000000
00100000
00010000
,
00001000
00000100
00000000
00000011
00000000
00000000
00000001
00000001
,
00000100
00000010
00001000
00000001
00000100
00000000
00000001
00000100
,
00001000
00010000
00000000
00011000
00000000
00000000
00001000
01001000
,
00000000
00000000
01000000
00100000
01000000
00100000
01000000
00000000
00000000
00000000
00011000
00000000
00010000
00001000
00010000
00001000
,
00010000
00001000
00010000
00001000
00010000
00001000
00010000
00001000
00010000
00000000
00010100
00000000
00001000
00010000
00001000
00010000
,
00001000
00010000
00001000
00010000
00001000
00010000
00001000
00010000
00001000
00000000
01001000
00000000
00010000
00001000
00010000
00001000
,
00010000
00001000
00010000
00001000
00010000
00001000
00010000
00001000
00010000
00000000
00010100
00000000
00001000
00010000
00001000
00010000
,
00001000
00010000
00001000
00010000
00001000
00010000
00001000
00010000
00001000
00010000
00001000
00000000
01000000
00000000
01100000
00000000
,
01000000
00001000
00010000
00011000
00010000
00000010
00000100
00000110
,
00000010
00000000
00010000
00000000
00001000
00000000
00011000
00000000
00001000
00000000
00100000
01000000
00100000
00000000
01000000
10000000
,
01000000
00000000
10000000
00010000
10000000
00000000
00010000
01000000
00010000
00000000
10000000
00010000
00100000
00010000
10000000
00100000
,
10000000
00010000
00100000
00000000
01000000
00000000
11000000
00000000
00000000
00000000
10100000
00000000
00000000
00100000
01000000
00000000
,
10000000
01000000
00010000
00100000
00110000
00000000
00010010
00000000
,
00001000
00000000
00000010
00000000
00000000
00000010
00010000
00000000
00001000
00000000
01001000
00000000
01000000
00000000
00000000
00000000
,
00010000
00000000
10000000
00000000
00000000
01000000
00100000
00000000
00010000
00000000
00110000
00000000
00000000
00010000
00100000
00000000
,
00001000
00000000
00000000
00010000
00000100
00000000
00010000
00000000
00011000
00000000
00000000
00000000
00000100
00010000
00001000
01000000
,
00010000
00000000
00000000
00000000
,
00000000
00000000
00000000
00000000
00000000
10010000
00000000
00011000
,
00000000
00001000
00000001
00000000
00000001
00000000
00001000
00000000
00000000
00000001
00000100
00000000
00000000
00000000
00000120
00000000
,
00001000
00010030
00001000
01000000
00010000
00100000
00001000
00010000
,
00000010
00000100
00000001
00000010
00000100
00001000
00000100
00010000
,
00001000
01000000
00010000
00100000
10000000
00100000
00010000
10000000
,
00100000
01000000
00010000
00100000
00001000
00010000
00000100
00001000
,
00000010
00000100
00000001
00000010
00000100
00001000
00000100
00000001
,
00000100
00001000
00000010
00000100
00001000
00000100
00000010
00001000
,
00000100
00010000
00001000
01000000
00100000
00010000
00100000
01000000
,
00010000
00100000
01000000
00010000
01000000
10000000
00010000
01000000
,
00010000
00100000
00010000
00001000
00000100
00001000
00000010
00000001
,
00000010
00000100
00001000
00000001
00000010
00000001
00001000
00000100
,
00000001
00000100
00001200
00000000
00001000
00000000
00010000
00000000
,
00001300
00012000
00100000
00010000
,
00103000
02010000
00001000
00010000
,
03001000
00021000
00000100
00001000
,
00030100
00000000
00000000
00000000
00001100
00000000
00000000
00000100
00010000
00000000
00001000
01000000
00000000
00100000
10000000
00000000
,
01000000
00000000
01000000
00000000
10010000
00000000
00000000
10000000
01000000
00000000
00100000
00001000
00000000
00010000
00000100
00000000
,
00001000
00000000
00001000
00000000
00000001
00000000
00000000
00000001
00000100
00000000
00001000
00000000
00010000
00001000
01000000
00000000
,
00100000
00000000
10000000
01000000
00100000
00001000
00010000
00000100
00010000
00001000
00100000
00010000
01000000
00000000
00100000
00000000
,
10000000
10010000
00000000
00000000
00210000
00010000
00301000
00000000
;

//---------------dance-double - ----------------
#NOTEDATA:;
#CHARTNAME:BASIC;
#CHARTHASH:3376933728;
#STEPSTYPE:dance-double;
#BANNER:;
#DESCRIPTION:;
#CHARTSTYLE:;
#DIFFICULTY:Easy;
#METER:7;
#METERF:7.000000;
#LASTSECONDHINT:5.499000;
#RADARVALUES:0.321122,0.481366,0.335207,0.285911,0.000000,228.000000,194.000000,34.000000,29.000000,0.000000,0.000000,0.000000,0.000000,0.000000,0.321122,0.481366,0.335207,0.285911,0.000000,228.000000,194.000000,34.000000,29.000000,0.000000,0.000000,0.000000,0.000000,0.000000;
#CREDIT:YonabearCWY;
#NOTES:
// measure 0
10000000
10000000
01000000
00100000
,  // measure 1
00001000
00001000
00010000
00000100
,  // measure 2
00001001
00000000
00001001
00000000
,  // measure 3
00000110
00000110
00001001
00000000
,  // measure 4
00022000
00000000
00000000
00000000
,  // measure 5
00000000
00000000
00000000
00033000
,  // measure 6
01000000
00000000
00100000
00000000
,  // measure 7
01000000
00100000
02000000
00000000
03000000
00010000
00000000
00000000
,  // measure 8
00000000
00010000
00000000
00000000
00000000
10000000
00000000
00000000
,  // measure 9
00000000
10000000
00000000
00000000
00000000
00010000
00000000
01000000
,  // measure 10
00000000
00001000
00000000
00010000
00000000
00000100
00000000
00000010
,  // measure 11
00000000
00000001
00000000
00001000
00000000
00000010
00000000
00000000
,  // measure 12
00000000
00000010
00000000
00000000
00000000
00000100
00000000
00000000
,  // measure 13
00000000
00000100
00000000
00000000
00000000
00000010
00000000
00001000
,  // measure 14
00000000
00000100
00000000
00010000
00000000
00001000
00000000
00100000
,  // measure 15
00000000
01000000
00000000
10000000
00000000
10010000
00000000
00000000
,  // measure 16
00000000
10010000
00000000
00000000
00000000
01100000
00000000
00000000
,  // measure 17
00000000
01100000
00000000
00000000
00000000
00100000
00000000
10000000
,  // measure 18
00000000
00100000
00000000
01000000
00000000
00010000
00000000
00100000
,  // measure 19
00000000
00001000
00000000
00000100
00000000
00000210
00000000
00000000
,  // measure 20
00000000
00000010
00000000
00000010
00000000
00000310
00000000
00000000
,  // measure 21
00000000
00000010
00000000
00000000
00000000
00000010
00000000
00001000
,  // measure 22
00000000
00000100
00000000
00010000
00000000
00001000
00010000
00001000
,  // measure 23
00000000
00010000
00001000
00010000
00000000
01200000
00000000
00000000
,  // measure 24
00000000
01000000
00000000
01000000
00000000
01300000
00000000
00000000
,  // measure 25
00000000
01000000
00000000
00000000
00000000
01000000
00000000
10000000
,  // measure 26
00000000
00010000
00000000
00100000
00000000
00001000
00010000
00001000
,  // measure 27
00000000
00010000
00001000
00010000
00000000
00020020
00000000
00000000
,  // measure 28
00000000
00000000
00000000
00030030
00000000
00000000
00000010
00000010
,  // measure 29
00000000
00001001
00000000
00001001
00000000
00022000
00000000
00000000
,  // measure 30
00000000
00000000
00000000
00033000
00000000
00000000
01000000
01000000
,  // measure 31
00000000
10010000
00000000
10010000
00000000
02002000
00000000
00000000
,  // measure 32
00000000
00000000
00000000
03003000
00000000
00000000
00010000
00010000
,  // measure 33
00000000
00011000
00000000
00011000
00000000
00000000
00000100
00000100
,  // measure 34
00000000
00001010
00000000
00001010
00000000
00000100
00000000
00001001
,  // measure 35
00000000
00000010
00000100
00000010
00000000
00002200
00000000
00000000
,  // measure 36
00000000
00000000
00000000
00003300
00000000
00022000
00000000
00000000
,  // measure 37
00000000
00000000
00000000
00033000
00000000
00202000
00000000
00000000
,  // measure 38
00000000
00000000
00000000
00303000
00000000
00020200
00000000
00000000
,  // measure 39
00000000
00000000
00000000
00030300
00000000
00000100
00001000
00000100
,  // measure 40
00000000
00001000
00000000
00000010
00000000
00000100
00000001
00000100
,  // measure 41
00000000
00000010
00000000
00010000
00000000
00001000
00010000
00001000
,  // measure 42
00000000
00010000
00001000
00010000
00000000
00001000
00000000
00001000
,  // measure 43
00000000
00010000
00000000
00010000
00000000
00011000
00000000
00000000
,  // measure 44
00000000
00000000
01000000
01000000
,  // measure 45
01000000
00000000
00000000
00000000
00000000
00011000
00000000
00000000
,  // measure 46
00000000
00000000
00000010
00000010
,  // measure 47
00000010
00000000
00000000
00000000
00000000
00002002
00000000
00000000
,  // measure 48
00000000
00000000
00000000
00000000
,  // measure 49
00000000
00000000
00000000
00003003
00000000
00000100
00000000
00000000
,  // measure 50
00000000
00000010
00000000
00000000
00000000
00022000
00000000
00000000
,  // measure 51
00000000
00033000
00100000
00000000
00000000
00000000
00100000
00000000
,  // measure 52
00000000
01000000
00000000
01000000
,  // measure 53
00000000
10000000
10000000
00010000
,  // measure 54
00000000
00010000
00000000
00100000
,  // measure 55
00000000
00100000
00000000
00001000
,  // measure 56
00001000
00010000
00000000
00010000
,  // measure 57
00000000
00000100
00000000
00000100
,  // measure 58
00000000
00000010
00000010
00000001
,  // measure 59
00000000
00000001
00000000
00001000
,  // measure 60
00000000
00001000
00000000
00000010
,  // measure 61
00000010
00020020
00000000
00000000
,  // measure 62
00030030
00010000
00001000
00100000
,  // measure 63
00010000
20020000
00000000
00000000
,  // measure 64
30030000
01000000
00001000
00010000
,  // measure 65
00001000
00000000
00000010
00000000
00000000
00000001
00000000
00000000
,  // measure 66
00001000
00000000
00000010
00000000
00000000
00010000
00000000
00000000
,  // measure 67
00001000
00100000
00100000
01000000
,  // measure 68
01000000
10000000
00010000
01000000
,  // measure 69
00002000
00020000
00000000
00000000
00000000
00000000
00033000
00000000
;
