#TITLE:KISS KISS;
#SUBTITLE:;
#ARTIST:HANNA;
#TITLETRANSLIT:;
#SUBTITLETRANSLIT:;
#ARTISTTRANSLIT:;
#GENRE:HAPPY HARDCORE;
#CREDIT:YonabearCWY;
#BANNER:KISS KISS.png;
#BACKGROUND:KISS KISS-bg.png;
#LYRICSPATH:;
#CDTITLE:Dance Mania SPEED G3.png;
#MUSIC:KISS KISS.ogg;
#OFFSET:-10.380000;
#SAMPLESTART:54.769444;
#SAMPLELENGTH:15.000000;
#SELECTABLE:YES;
#BPMS:0.000000=194.000000
;
#STOPS:
;
#BGCHANGES:0.000=amoeba4.mp4=1.600=1=0=1===CrossFade==,
16.000=amoeba2.mp4=1.600=0=0=1=====,
24.000=heart6.mp4=1.600=0=0=1=====,
28.000=heart1.mp4=1.600=0=0=1=====,
29.000=heart2.mp4=1.600=0=0=1=====,
30.000=heart6.mp4=1.400=0=0=1=====,
31.000=amoeba4.mp4=1.600=0=0=1=====,
32.000=amoeba2.mp4=1.600=0=0=1=====,
40.000=tunnel12.mp4=1.600=0=0=1=====,
48.000=tunnel11.mp4=1.600=0=0=1=====,
56.000=heart4.mp4=1.200=0=0=1=====,
64.000=heart9.mp4=1.200=0=0=1=====,
68.000=ddr1a.mp4=2.000=0=0=1=====,
70.000=ddr1b.mp4=2.000=0=0=1=====,
72.000=heart6.mp4=1.600=0=1=1=StretchRewind====,
80.000=heart7.mp4=1.600=0=0=1=====,
88.000=heart4.mp4=1.200=0=1=1=StretchRewind====,
96.000=heart9.mp4=1.200=0=1=1=StretchRewind====,
104.000=heart1.mp4=1.600=0=1=1=StretchRewind====,
112.000=chain1.mp4=1.600=0=0=1=====,
120.000=heart2.mp4=1.600=0=1=1=StretchRewind====,
128.000=sphere2.mp4=1.600=0=0=1=====,
132.000=amoeba2.mp4=1.600=0=1=1=StretchRewind====,
136.000=sphere2.mp4=1.600=0=0=1=====,
137.000=amoeba2.mp4=1.600=0=0=1=====,
138.000=sphere2.mp4=1.600=0=0=1=====,
139.000=amoeba4.mp4=1.600=0=1=1=StretchRewind====,
144.000=heart6.mp4=1.600=0=1=1=StretchRewind====,
148.000=heart7.mp4=1.600=0=1=1=StretchRewind====,
152.000=heart6.mp4=1.600=0=1=1=StretchRewind====,
156.000=heart7.mp4=1.600=0=1=1=StretchRewind====,
160.000=heart10.mp4=1.600=0=0=1=====,
164.000=heart7.mp4=1.600=0=1=1=StretchRewind====,
168.000=tunnel12.mp4=1.600=0=1=1=StretchRewind====,
176.000=chain1.mp4=1.600=0=1=1=StretchRewind====,
180.000=heart7.mp4=1.600=0=1=1=StretchRewind====,
184.000=chain1.mp4=1.600=0=1=1=StretchRewind====,
188.000=heart7.mp4=1.600=0=1=1=StretchRewind====,
192.000=heart10.mp4=1.600=0=1=1=StretchRewind====,
196.000=heart7.mp4=1.600=0=1=1=StretchRewind====,
200.000=tunnel11.mp4=1.600=0=1=1=StretchRewind====,
208.000=heart1.mp4=1.600=0=1=1=StretchRewind====,
216.000=heart2.mp4=1.600=0=1=1=StretchRewind====,
224.000=heart4.mp4=1.200=0=1=1=StretchRewind====,
232.000=heart9.mp4=1.200=0=1=1=StretchRewind====,
236.000=ddr1a.mp4=2.000=0=1=1=StretchRewind====,
238.000=ddr1b.mp4=2.000=0=1=1=StretchRewind====,
240.000=KISS KISS-bg.png=1.000=0=0=1=====,
99999=-nosongbg-=1.000=0=0=0 // don't automatically add -songbackground-
;
#KEYSOUNDS:;
#ATTACKS:;

//---------------dance-single - ----------------
#NOTES:
     dance-single:
     BASIC:
     Easy:
     7:
     0.000000,0.000000,0.000000,0.000000,0.000000,0.000000,0.000000,0.000000,0.000000,0.000000,0.000000,0.000000,0.000000,0.000000,0.000000,0.000000,0.000000,0.000000,0.000000,0.000000,0.000000,0.000000:
1000
0000
0000
1000
0000
0000
0001
0000
,
0000
0001
0000
0000
0100
0000
0010
0000
,
1000
0000
0000
0100
0000
0000
0010
0000
,
0000
0001
0000
0000
0100
0000
0001
0000
,
0010
0001
1000
0001
,
1000
0100
0010
0100
,
0011
0001
1000
0010
,
1010
1000
1001
0010
,
0220
0000
0000
0000
,
0000
0000
0330
0000
,
1000
1000
1000
0000
,
1000
1000
1000
0001
,
1000
1000
1000
0000
,
1000
1000
1000
0001
,
0010
0010
0010
0000
,
0010
0010
0010
0100
,
0010
0010
0010
0000
,
1001
1001
0110
0110
,
2001
0000
0100
0000
,
3001
0010
1000
0100
,
0001
0000
0000
0100
0001
0000
0000
1000
,
0010
1000
0220
0330
,
1002
0000
0100
0000
,
1003
0010
0001
0100
,
1000
0000
0000
0010
0100
0000
0000
0001
,
0010
0100
2002
3003
,
0020
1000
0100
0000
,
1000
0100
1030
0000
,
0010
0100
0010
0001
,
0010
0100
2002
3003
,
0200
0001
0010
0000
,
0001
0010
0301
0000
,
1001
0000
0000
0100
0010
0000
0000
0001
,
0100
0000
0000
0010
1000
0000
0000
0100
,
0010
0001
1000
0100
,
0010
0001
2002
3003
,
2000
0000
0000
0010
0010
0000
0000
0010
,
3010
1000
0001
1000
,
0002
0000
0000
0100
0100
0000
0000
0100
,
0103
0010
1000
0001
,
0200
0001
1000
0001
,
0310
1000
0100
0010
,
0002
1000
0100
2000
,
0000
0000
0000
3003
,
0020
0000
0000
0100
0100
0000
1000
0000
,
0130
0000
1001
0000
,
0200
0000
0000
0010
0010
0000
0001
0000
,
0310
0000
0110
0000
,
2000
0010
0001
0000
,
3010
1000
1001
0000
,
0002
0100
1000
0000
,
0103
0010
1001
0000
,
0010
0000
0010
0000
,
0010
0100
1000
0001
,
0100
0000
0100
0000
,
0010
0001
1000
0100
,
0010
0000
0001
0100
,
1000
0010
0001
1000
,
0001
0000
0010
0100
,
1100
0100
0110
1000
,
1001
0000
0000
0000
;

//---------------dance-single - ----------------
#NOTES:
     dance-single:
     DIFFICULT:
     Medium:
     10:
     0.000000,0.000000,0.000000,0.000000,0.000000,0.000000,0.000000,0.000000,0.000000,0.000000,0.000000,0.000000,0.000000,0.000000,0.000000,0.000000,0.000000,0.000000,0.000000,0.000000,0.000000,0.000000:
0100
0000
0010
0000
0001
0100
0000
0001
,
0100
0000
0010
1000
0000
0100
0010
0000
,
0100
0000
1000
0000
0010
0000
0100
0001
,
0000
0010
0100
0000
1000
0001
1000
0000
,
0010
1010
0100
0101
,
0010
0011
0100
1100
,
0001
0100
0001
0000
0010
0001
0010
0000
,
0100
1000
0100
0000
1000
0001
1000
0001
,
0220
0000
0000
0000
,
0000
0000
0330
0000
,
0001
0010
0100
0000
1000
0000
0100
0000
,
0010
0001
0100
0000
0010
1000
0100
0000
,
1000
0001
0010
0001
0100
0000
0001
0000
,
1000
0000
0100
0000
0010
0001
1000
0001
,
0100
0000
0010
0100
0001
0000
0010
0000
,
1000
0000
0100
0000
0001
0000
1000
0100
,
0001
1000
0100
1000
0010
0100
0001
0000
,
0110
0000
1001
0000
0100
0100
0010
0010
,
1000
1001
0001
1001
,
1000
1001
0100
0110
,
0010
1000
0100
0000
1000
0001
0010
0000
,
0110
0110
2002
3003
,
0010
1000
0100
0000
0010
1000
0100
0000
,
1000
0001
0100
0001
,
0010
0001
1000
0000
0010
0001
1000
0000
,
1001
1001
0220
0330
,
2000
0010
0100
0010
,
3001
1000
0100
0010
0001
0100
1000
0000
,
0010
0001
1000
0100
,
0001
0100
2002
3003
,
0020
0001
0100
1000
,
0130
0010
1000
0100
0010
0001
0100
0000
,
0021
0000
0000
1000
1000
0000
0000
0001
,
0001
0000
0000
0100
0100
0000
0030
0010
,
1001
1100
0011
0101
,
0110
0000
1000
0010
0001
0100
1000
0000
,
0101
0010
0101
0010
,
0100
0001
0010
0100
0001
0000
0100
0000
,
1100
0010
1100
0010
,
0100
1000
0001
0010
0100
0000
0010
0100
,
1001
0000
0010
0000
0100
0010
0100
0000
,
0001
0010
1000
0100
0001
0000
0010
0100
,
0010
0000
0100
0001
0100
0000
1000
0001
,
1000
0110
0001
0110
,
1000
0100
1000
0000
0100
1000
0100
0000
,
1000
1000
0001
0001
0010
0000
0100
0000
,
0010
0001
0010
0000
0001
0010
0001
0000
,
0100
0100
0010
0010
1000
0000
0001
0010
,
1000
0000
1100
0000
1000
0010
0001
0000
,
0010
0001
0100
0001
1000
0000
0010
0000
,
1000
0100
0001
0000
0101
0000
0001
0100
,
1000
0000
0000
1000
0000
0000
0001
0000
0220
0000
0000
0000
0330
0000
0000
0000
,
1000
0010
0100
0000
0010
0000
0001
0000
,
0010
0100
0010
1000
0010
0000
0100
0000
,
0001
0010
0100
1000
0100
0000
1000
0000
,
0010
0001
0010
1000
0010
0100
0010
0001
,
0010
0000
0001
1000
0100
0000
0011
0000
,
1000
0100
0001
0100
1000
0010
0100
0010
,
1000
0000
0001
0100
0010
0000
0110
0000
,
1001
0101
1010
0110
,
1001
0000
0000
0000
;

//---------------dance-single - ----------------
#NOTES:
     dance-single:
     EXPERT:
     Hard:
     13:
     0.665025,0.655172,0.356322,0.149425,0.120690,405.000000,374.000000,31.000000,13.000000,0.000000,0.000000,0.665025,0.655172,0.356322,0.149425,0.120690,405.000000,374.000000,31.000000,13.000000,0.000000,0.000000:
// measure 0
1000
0000
0010
0000
0100
0000
0001
0000
0000
0010
0000
0000
0100
0000
0000
0000
0000
0000
0010
0000
0000
0100
0000
0000
,  // measure 1
0000
1000
0010
1000
0000
0001
0100
0001
,  // measure 2
0010
0001
0000
1000
0010
1000
0000
0100
,  // measure 3
0000
0010
0001
0100
0000
0010
1000
0100
,  // measure 4
0010
0000
0000
0100
1000
0000
0000
0100
1000
0000
0000
0100
0001
0000
0000
0100
,  // measure 5
0001
0000
0100
1000
0001
0000
0100
0001
,  // measure 6
0010
0000
0000
0001
1000
0000
0000
0001
1000
0000
0000
0100
0010
0000
0000
0100
,  // measure 7
0010
0000
0000
0001
0100
0000
0000
0010
1000
0000
0001
0000
0010
0000
0100
0000
,  // measure 8
0020
0000
0000
0000
,  // measure 9
0000
0000
0030
0000
,  // measure 10
0100
0001
0100
1000
0100
0000
0011
0000
,  // measure 11
0100
1000
1000
0001
0100
1000
0100
0010
,  // measure 12
0100
0001
0010
0100
0010
0000
1100
0000
,  // measure 13
0010
0001
0001
1000
0010
0001
0010
0100
,  // measure 14
0001
0000
1000
0010
1000
0000
0110
0000
,  // measure 15
0001
0100
0100
0010
1000
0100
0010
0001
,  // measure 16
0100
0010
0001
0010
0100
1000
0100
0000
,  // measure 17
1001
0000
0010
0010
0100
0100
0001
0001
,  // measure 18
1100
0001
0101
1000
,  // measure 19
1010
0000
0100
0001
0010
0100
1000
0000
,  // measure 20
0100
0010
0001
1000
1000
0001
1000
0001
,  // measure 21
0011
0000
1100
0000
0120
0100
0130
0000
,  // measure 22
1010
1000
0101
0001
,  // measure 23
0010
0001
0001
1000
0100
0010
0010
0000
,  // measure 24
0100
0010
0001
0010
0010
0010
0100
0010
,  // measure 25
0100
0000
1000
0000
1001
0000
0000
0000
0100
0010
0100
0010
0100
0000
0000
0000
,  // measure 26
0012
0000
1000
0000
0010
0010
0000
1000
,  // measure 27
1003
0001
0010
0100
1000
0000
0110
0000
,  // measure 28
1000
0010
0001
0100
,  // measure 29
1000
0000
0001
0000
0100
0000
0001
1000
,  // measure 30
2010
0000
0100
0000
0010
0010
0000
0100
,  // measure 31
3100
1000
0001
0100
0010
0000
1001
0000
,  // measure 32
0200
0000
0000
0301
2000
0000
0000
3100
,  // measure 33
0002
0000
0000
0013
2000
0000
0000
3001
,  // measure 34
0100
0001
1000
0100
0001
0010
1000
0100
,  // measure 35
0001
0010
1000
0100
0001
1000
0110
0000
,  // measure 36
1001
0100
0001
0010
,  // measure 37
0001
0100
1000
0010
0001
0000
0110
0000
,  // measure 38
1001
0100
0010
0001
,  // measure 39
1000
0010
0001
0100
1000
0000
0010
0100
,  // measure 40
0010
0000
1100
0000
0010
0001
0010
0000
,  // measure 41
0100
0010
0001
1000
0100
0001
0010
1000
,  // measure 42
0001
0000
1000
0010
0001
1000
0200
0000
,  // measure 43
0010
0000
0310
0000
1000
0001
1001
0000
,  // measure 44
0100
0001
0100
0001
0010
0100
1000
0000
,  // measure 45
0001
0100
0000
0000
0001
0100
0000
0000
0001
0100
0000
0000
0010
0000
1000
0000
,  // measure 46
0100
0010
0001
1000
0010
1000
0010
0000
,  // measure 47
0100
0010
0000
0000
0100
0010
0000
0000
0100
0010
0000
0000
1000
0000
0010
0000
,  // measure 48
0100
1000
0010
0001
0100
1000
0001
0100
,  // measure 49
0010
0001
2000
0000
3100
0010
0002
0000
,  // measure 50
0103
0010
1000
0100
0010
1000
0001
0010
,  // measure 51
1100
0000
0000
1001
0000
0000
0110
0000
0220
0000
0000
0000
0330
0000
0000
0000
,  // measure 52
0001
0010
1000
0010
0100
0000
1001
0000
,  // measure 53
0100
0001
0001
0010
1000
0010
0001
1000
,  // measure 54
0010
0100
1000
0100
0001
0000
0110
0000
,  // measure 55
1000
0100
0100
0001
0100
1000
0001
0100
,  // measure 56
0001
0000
0010
0100
0010
0000
1100
0000
,  // measure 57
0010
0100
0100
0001
0010
0001
1000
0010
,  // measure 58
0001
0010
0100
1000
0100
0010
0100
0000
,  // measure 59
0001
0001
1000
1000
0010
0010
0100
0100
,  // measure 60
1001
0000
0000
0000
;

//---------------dance-single - ----------------
#NOTES:
     dance-single:
     BEGINNER:
     Beginner:
     4:
     0.000000,0.000000,0.000000,0.000000,0.000000,0.000000,0.000000,0.000000,0.000000,0.000000,0.000000,0.000000,0.000000,0.000000,0.000000,0.000000,0.000000,0.000000,0.000000,0.000000,0.000000,0.000000:
1000
0000
0000
0000
,
1000
0000
0000
0000
,
0001
0000
0000
0000
,
0001
0000
0000
0000
,
0100
0100
0100
0000
,
0100
0000
0000
0000
,
0010
0010
0010
0000
,
0010
0000
0000
0000
,
1001
0000
0000
0000
,
0000
0000
0000
0000
,
0010
0000
0010
0000
,
0010
0000
0010
0000
,
0010
0000
0000
0000
,
0010
0000
0000
0000
,
0100
0000
0100
0000
,
0100
0000
0100
0000
,
0100
0000
0000
0000
,
0100
0100
0010
0010
,
1001
0000
0010
0000
,
1000
0000
0001
0000
,
1000
0000
0000
0000
,
0001
0000
0000
0000
,
0110
0000
1000
0000
,
0001
0000
1000
0000
,
0010
0000
0000
0000
,
0100
0000
0000
0000
,
0010
0000
0010
0000
,
0010
0000
0000
0000
,
0100
0100
0100
0100
,
0100
0000
0000
0000
,
0001
0000
0001
0000
,
0001
0000
0000
0000
,
1000
1000
1000
0000
,
1000
1000
1000
0000
,
1001
0100
0100
0100
,
1001
0000
0010
0000
,
0100
0000
0100
0000
,
0100
0000
0000
0000
,
0010
0000
0010
0000
,
0010
0000
0000
0000
,
1000
0000
1000
0000
,
1000
0000
0000
0000
,
0001
0000
0001
0000
,
1001
1001
1001
0000
,
0010
0000
0010
0000
,
0110
0100
0100
0000
,
0100
0000
0100
0000
,
0110
0010
0010
0000
,
1000
0000
1000
0000
,
1001
0001
0001
0000
,
0001
0000
0001
0000
,
1001
1001
1001
0000
,
0010
0000
0010
0000
,
0010
0000
0000
0000
,
0100
0000
0100
0000
,
0100
0000
0000
0000
,
1000
0000
1000
0000
,
1000
0000
0000
0000
,
0001
0000
0001
0000
,
0001
0000
0000
0000
,
1001
0000
0000
0000
;

//---------------dance-double - ----------------
#NOTES:
     dance-double:
     BASIC:
     Easy:
     6:
     0.000000,0.000000,0.000000,0.000000,0.000000,0.000000,0.000000,0.000000,0.000000,0.000000,0.000000,0.000000,0.000000,0.000000,0.000000,0.000000,0.000000,0.000000,0.000000,0.000000,0.000000,0.000000:
00010000
00000000
00010000
00000000
,
00010000
00000000
00000000
00000000
,
00001000
00000000
00001000
00000000
,
00001000
00000000
00000000
00000000
,
00100000
00100000
00100000
00000000
,
00100000
00001000
00010000
00000100
,
00000010
00000010
00000010
00000000
,
00000100
00001000
00010000
00100000
,
20020000
00000000
00000000
00000000
,
00000000
00000000
30030000
00000000
,
01000000
00000000
01000000
00000000
,
00001000
00100000
00010000
00001000
,
00000100
00000000
00000100
00000000
,
00001001
00001001
00000110
00000000
,
00000010
00000000
00000010
00000000
,
00001000
00000010
00010000
00001000
,
00100000
00000000
00100000
00000000
,
10010000
10010000
01100000
01100000
,
12000000
00000000
00010000
03010000
,
00100000
00010000
01000000
00010000
,
00100000
00000000
00100000
00000000
,
00001000
00000000
00011000
00000000
,
00000210
00000000
00001000
00001300
,
00000001
00000010
00000100
00000010
,
00000001
00001000
00000010
00010000
,
00000100
00011000
00011000
00000000
,
00100000
01000000
10000000
00000000
,
01000000
00100000
00010000
00100000
,
00001000
00001000
00010000
00010000
,
00000100
00000010
00002002
00003003
,
00000010
00000001
00000100
00000000
,
00000010
00010000
00000100
00000000
,
00010000
00010000
00001000
00001000
,
00100000
01000000
10000000
01000000
,
00100000
00100000
01000000
01000000
,
01001000
00100000
00011000
00000100
,
00001010
00000100
00000001
00000100
,
00000001
00000000
00000001
00000000
,
00001010
00000100
00010000
00000100
,
00010000
00000000
00010000
00000000
,
01010000
00100000
10000000
00100000
,
10000000
00000000
10000000
00000000
,
01010000
00100000
00001000
00100000
,
00022000
00000000
00000000
00033000
,
00001000
00000100
00000010
00000001
,
00001000
00000010
00000001
00000100
,
00001000
00010000
00100000
01000000
,
10000000
00100000
00010000
01000000
,
10000000
00010000
01000000
00001000
,
00010000
00001000
00000100
00000010
,
00000100
00001000
00010000
00100000
,
00022000
00000000
00033000
00000000
,
00100000
00000000
00100000
00000000
,
01000000
00000000
01000000
00000000
,
10000000
10000000
00010000
00010000
,
01000000
00100000
00010000
00001000
,
00000010
00000000
00000010
00000000
,
00000100
00000000
00000100
00000000
,
00001000
00001000
00000001
00000001
,
00000010
00000100
00001000
00010000
,
00011000
00000000
00000000
00000000
;

//---------------dance-double - ----------------
#NOTES:
     dance-double:
     DIFFICULT:
     Medium:
     10:
     0.000000,0.000000,0.000000,0.000000,0.000000,0.000000,0.000000,0.000000,0.000000,0.000000,0.000000,0.000000,0.000000,0.000000,0.000000,0.000000,0.000000,0.000000,0.000000,0.000000,0.000000,0.000000:
10010000
01000000
00010000
00100000
,
00011000
00000100
00000010
00000001
,
00001001
00000100
00000010
00001000
,
00011000
00000000
01000000
00000000
00100000
00010000
00100000
01000000
,
00000000
10000000
00000000
10000000
00000000
00010000
00000000
00010000
,
01000000
00010000
00000000
00100000
00001000
00100000
00000000
00001000
,
00010000
00001000
00000000
00001000
00000000
00010000
00001000
00000100
,
00000000
00000010
00000100
00001000
00000100
00000000
00000010
00000000
,
00002002
00000000
00000000
00000000
,
00000000
00000000
00003003
00000000
,
00000010
00000100
00010000
00000000
00001000
00000000
00011000
00000000
,
00100000
00010000
10000000
00000000
01000000
01000000
01000000
00000000
,
00100000
00001000
00010000
00000000
00001000
00000000
00010100
00000000
,
00001000
00000010
00000001
00000100
,
00001000
00000000
00000010
00000100
00000010
00000000
00001001
00000000
,
00000100
00010000
00001000
00000000
00010000
00010000
00010000
00000000
,
00001000
00010000
00100000
01000000
10000000
01000000
00100000
00000000
,
10010000
00000000
10010000
00000000
01000000
01000000
00010000
00010000
,
00100000
00101000
00001000
00011000
,
00010000
00000100
00000010
00000000
00000100
00001000
00000001
00000000
,
00000010
00001000
00000100
00000001
,
00000110
00001001
00000220
00000330
,
00000100
00010100
00010000
00011000
,
00001000
01000000
00100000
00000000
10000000
00100000
01000000
00000000
,
00010000
00100000
10000000
01000000
,
10010000
01100000
20020000
30030000
,
01000000
00010000
01000000
00000000
00001000
00100000
00001000
00000000
,
00010000
00010000
00010000
00010000
00010000
00000000
00001000
00000000
,
00000100
00000010
00001000
00000010
,
00000100
00000010
00020020
00030030
,
00000100
00010000
00000100
00000000
00010000
00001000
00010000
00000000
,
00001000
00001000
00001000
00001000
00001000
00000000
00010000
00000000
,
00100000
00000000
01000000
00000000
00010000
00000000
00100000
01000000
,
10000000
00000000
10000000
01000000
00100000
00000000
00010000
00100000
,
01100000
01001000
00011000
00010100
,
00002002
00000000
00000000
00003003
,
00000001
00000000
00000010
00000001
00000100
00000000
00000010
00001000
,
00000100
00000000
00010100
00000000
00010100
00000000
00010000
00001000
,
00100000
00000000
00100000
01000000
10000000
00000000
01000000
00100000
,
00010000
00000000
10010000
00000000
10010000
00000000
00010000
01000000
,
00001000
00000000
00100000
00000000
00001000
00010000
00001000
00000000
,
00010010
00000000
00010010
00000000
00010010
00000000
00001000
00000100
,
00000010
00000001
00000010
00000100
00000010
00000000
00002002
00000000
,
00000000
00000000
00003003
00000000
00000001
00000010
00000100
00001000
,
00000100
00000000
00010000
00000100
00010000
00000000
00001000
00100000
,
00010000
00000000
00110000
00000000
00110000
00000000
00100000
01000000
,
10000000
00000000
01000000
00000000
00100000
00001000
00100000
00000000
,
00011000
00011000
00021000
00000000
,
00030100
00001000
00000100
00000010
00000100
00001000
00010000
00001000
,
00010000
00000010
00000100
00000000
00001000
00000001
00000010
00000000
,
00000100
00000001
00000100
00001000
00000100
00000010
00000100
00010000
,
00022000
00000000
00033000
00000000
,
00001000
00100000
00001000
00000000
01000000
00010000
01000000
00000000
,
00100000
10000000
01000000
00010000
,
00100000
10000000
01000000
10000000
01000000
00000000
00101000
00000000
,
00010000
00100000
00001000
00000000
00010000
00010000
00010000
00000000
,
00001100
00000000
00000010
00000001
00001000
00000000
00000110
00000000
,
00000100
00000001
00000010
00001000
,
00000100
00000001
00000010
00000001
00000010
00000000
00010100
00000000
,
00010000
00010000
00001000
00001000
00100000
01000000
10000000
00010000
,
01010000
00000000
00000000
00000000
;

//---------------dance-double - ----------------
#NOTES:
     dance-double:
     EXPERT:
     Hard:
     14:
     0.000000,0.000000,0.000000,0.000000,0.000000,0.000000,0.000000,0.000000,0.000000,0.000000,0.000000,0.000000,0.000000,0.000000,0.000000,0.000000,0.000000,0.000000,0.000000,0.000000,0.000000,0.000000:
00010000
00001000
00100000
01000000
00010000
10000000
01000000
00010000
,
00100000
00010000
01000000
00000000
00001000
00000000
00010000
00001000
,
00100000
00001000
00010000
00000010
00000100
00001000
00000010
00000001
,
00000100
00001000
00010000
00000000
00001000
00100000
00010000
00100000
,
01000000
10000000
01000000
00000000
10000000
00000000
00100000
00000000
00010000
00000000
01000000
00000000
10000000
00000000
00000000
00000000
,
00100000
01000000
00010000
00000000
00100000
00001000
00010000
00000100
,
00000010
00000100
00000010
00000000
00000100
00000000
00001000
00000000
00000010
00000000
00000001
00000000
00000100
00000000
00001000
00000000
,
00000010
00000100
00001000
00010000
00011000
00001000
00011000
00000000
,
02020000
00000000
00000000
00000000
,
00000000
00000000
03030000
00000000
,
10000000
01000000
01000000
00100000
00010000
00000000
01100000
00000000
,
00010000
00100000
10000000
01000000
00010000
01000000
10000000
00100000
,
00010000
00100000
00100000
00001000
00010000
00000000
00010100
00000000
,
00001000
00000100
00000001
00000010
00000001
00000100
00001000
00000010
,
00000001
00000000
00000010
00000100
00000010
00000000
00001010
00000000
,
00001000
00000100
00000001
00000010
00001000
00000010
00000001
00000100
,
00001000
00000100
00000100
00010000
00001000
00001000
00001000
00000000
,
00101000
00000000
01001000
00000000
01000000
00100000
00100000
01000000
,
11000000
00100000
01010000
10000000
,
01000000
00100000
00010000
00001000
00010000
00000000
00010010
00000000
,
00000010
00000100
00001000
00000000
00001000
00000100
00000001
00000000
,
00000001
00000010
00001000
00000000
00000210
00000010
00000310
00000000
,
00000101
00000010
00001001
00000100
,
00001000
00000100
00000100
00010000
00001000
00100000
00100000
00010000
,
00100000
01000000
10000000
01000000
00010000
00100000
10000000
01000000
,
00100000
00000000
00000000
00000000
01100000
00000000
00000000
00000000
10000000
00010000
10000000
00010000
10000000
00000000
00000000
00000000
,
00010000
01000000
00001000
00000000
00100000
00001000
00010000
00000000
,
00000100
00000100
00000100
00000100
00000100
00000000
00000011
00000000
,
00001000
00000010
00010000
00100000
,
01000000
00000000
00010000
00000000
00100000
00001000
00010000
00000000
,
00000010
00001000
00000100
00000000
00001000
00010000
01000000
00000000
,
00100000
00100000
00100000
00100000
00100000
00000000
10010000
00000000
,
01100000
00000000
00100000
00001000
00010000
00000000
00010000
00000100
,
00000010
00000000
00000010
00000001
00001000
00000000
00001000
00000010
,
00000100
00001000
00010000
00100000
01000000
00010000
10000000
01000000
,
00100000
00100000
01000000
01000000
00010000
00010000
00101000
00000000
,
00011000
00010100
00000110
00001001
,
00001000
00000100
00000001
00000010
00001000
00000000
00000010
00000000
,
00001010
00000110
00000011
00001001
,
00000001
00000100
00001000
00000010
00000001
00000000
00000010
00000000
,
00010010
00011000
00101000
01001000
,
01000000
00010000
00100000
10000000
00010000
00100000
10000000
01000000
,
00010000
00000000
00100000
00001000
00100000
00000000
00001000
00010000
,
00001000
00000000
00100000
00000000
10010000
10010000
10010000
00000000
,
10000000
00100000
10000000
01000000
00100000
00010000
00001000
00000100
,
00001000
00000100
00000000
00000000
00001000
00000100
00000000
00000000
00000001
00000100
00000000
00000000
00000001
00000100
00000000
00000000
,
00001000
00000010
00000100
00001000
00010000
01000000
00100000
00000000
,
00010000
10000000
00000000
00000000
00010000
10000000
00000000
00000000
01000000
00100000
00000000
00000000
01000000
00100000
00000000
00000000
,
00010000
00100000
00001000
00000100
00000010
00001000
00000001
00000000
,
00000010
00000100
00000000
00000000
00000010
00000100
00000000
00000000
00001000
00000001
00001000
00000001
00001000
00000000
00000000
00000000
,
00000010
00001000
00000100
00000010
00000100
00001000
00010000
00100000
,
11000000
00000000
00000000
00100000
00000000
00000000
10010000
00000000
20020000
00000000
00000000
00000000
30030000
00000000
00000000
00000000
,
00100000
01000000
00010000
00100000
01000000
00000000
10010000
00000000
,
00100000
00001000
00010000
00100000
01000000
00001000
00100000
00010000
,
00001000
00000100
00000010
00000001
00001000
00000000
00000110
00000000
,
00000001
00001000
00000010
00000100
00000010
00010000
00000100
00010000
,
00001000
00000000
00100000
00001000
00010000
00000000
01100000
00000000
,
10000000
01000000
00100000
00010000
01000000
00100000
00010000
00001000
,
00010000
00000100
00000010
00000100
00001000
00001000
00001000
00000000
,
00000010
00000010
00000100
00000100
00000001
00000001
00000010
00000010
,
00010100
00000000
00000000
00000000
;
