#TITLE:INJECTION OF LOVE;
#SUBTITLE:;
#ARTIST:新谷あきら;
#TITLETRANSLIT:;
#SUBTITLETRANSLIT:;
#ARTISTTRANSLIT:AKIRA SHINTANI;
#GENRE:ELECTRIC CABARET;
#CREDIT:YonabearCWY/KONAMI;
#BANNER:INJECTION OF LOVE.png;
#BACKGROUND:INJECTION OF LOVE-bg.png;
#LYRICSPATH:;
#CDTITLE:Beatmania IIDX.png;
#MUSIC:INJECTION OF LOVE.ogg;
#OFFSET:-6.000000;
#SAMPLESTART:57.011002;
#SAMPLELENGTH:15.000000;
#SELECTABLE:YES;
#BPMS:0.000000=160.000000
;
#STOPS:30.000000=0.373000,
133.000000=0.380000,
232.000000=0.378000
;
#BGCHANGES:0.000=INJECTION OF LOVE.mp4=1.000=1=0=0=StretchNoLoop==CrossFade==,
265.000=INJECTION OF LOVE-bg.png=1.000=0=0=1=====,
99999=-nosongbg-=1.000=0=0=0 // don't automatically add -songbackground-
;
#KEYSOUNDS:;
#ATTACKS:;

//---------------dance-single - ----------------
#NOTES:
     dance-single:
     BEGINNER:
     Beginner:
     4:
     0.181985,0.278197,0.018734,0.000000,0.000000,136.000000,134.000000,2.000000,0.000000,0.000000,0.000000,0.181985,0.278197,0.018734,0.000000,0.000000,136.000000,134.000000,2.000000,0.000000,0.000000,0.000000:
1000
0000
1000
0000
,
0001
0000
0001
0000
,
1000
0000
1000
0000
,
0001
0000
0001
0000
,
0100
0000
0100
0000
,
0010
0000
0010
0000
,
0001
0000
1000
0000
,
0001
0000
1001
0000
,
0000
0010
0000
0010
,
0000
0001
0001
0000
,
0000
1000
0000
1000
,
0000
0100
0100
0000
,
0000
1000
0000
1000
,
0000
0001
0000
0001
,
0000
0010
0000
0010
,
0000
0100
0000
0100
,
0000
0001
0000
1000
,
0000
0001
0001
0000
,
0000
1000
0000
0001
,
0000
0100
0100
0000
,
0000
0001
0000
1000
,
0000
1000
0000
0001
,
0000
0001
0000
0100
,
0000
0001
0000
1000
,
0000
0000
0000
0000
,
0000
0001
0001
0000
,
0000
0000
0000
0000
,
0000
1000
1000
0000
,
0000
0001
0000
0001
,
0000
1000
1000
0000
,
0000
1000
0000
0000
,
0000
1000
1000
1000
,
0000
0001
0000
1000
,
1000
1000
0000
0000
,
1000
0000
0001
0001
,
0001
0000
1000
0000
,
0100
0000
0010
0010
,
0010
0000
0100
0000
,
1000
0000
0001
0000
,
1000
0000
0001
0000
,
1000
0000
0001
0001
,
0001
0001
0000
0000
,
1000
0000
0010
0000
,
0100
0000
0001
0000
,
1000
0000
0010
0000
,
1000
1000
0000
0000
,
0100
0000
0010
0000
,
0001
0001
0000
1000
,
0000
0100
0000
1000
,
0000
0001
0000
0000
,
1000
0000
1000
0000
,
0001
0000
1000
0000
,
0100
0000
0010
0000
,
0001
0000
0010
0000
,
0001
0000
0001
0000
,
0100
0000
0010
0000
,
1000
0000
0100
0000
,
1000
1000
0000
0000
,
0000
0100
0000
0100
,
0000
0100
0000
0000
,
0000
0010
0000
0010
,
0000
0010
0000
0000
,
0000
1000
1000
1000
,
1000
1000
0000
0000
,
0000
0001
0001
0001
,
0001
0001
0001
0001
,
1001
0000
0000
0000
;

//---------------dance-single - ----------------
#NOTES:
     dance-single:
     BASIC:
     Easy:
     6:
     0.255582,0.309107,0.084302,0.000000,0.000000,191.000000,182.000000,9.000000,0.000000,0.000000,0.000000,0.255582,0.309107,0.084302,0.000000,0.000000,191.000000,182.000000,9.000000,0.000000,0.000000,0.000000:
0001
0000
1000
0000
,
0001
0000
1000
0001
,
1000
0000
0001
0000
,
0100
0000
0001
0010
,
0001
0000
1000
0000
,
1000
0000
0001
0100
,
0001
0000
1000
0000
,
0001
1000
1001
1000
,
0000
0100
0000
1000
,
0100
1000
0001
0000
,
0000
1000
0000
0001
,
0000
1000
1000
0001
,
0001
0100
0000
1000
,
1000
0100
0000
0001
,
0001
0100
0000
0001
,
1000
0001
0100
0000
,
0000
0010
1000
0001
,
0000
0100
0001
0100
,
0000
1000
0000
0001
,
0000
0001
1000
0001
,
0001
0010
0000
1000
,
1000
0010
0000
0001
,
0001
0010
0000
0001
,
0001
1000
1000
0010
,
0000
0100
0000
0001
,
0000
1001
1001
0000
,
0000
0010
0000
1000
,
0000
1001
1001
0000
,
0000
0001
0000
0100
,
0000
1001
1001
0000
,
0000
1000
0000
0100
,
0000
1000
0001
0010
,
0001
1000
0001
1000
,
1000
0001
1000
0000
,
0001
0000
0100
0010
,
0100
0100
0010
0000
,
0100
0000
0001
1000
,
0001
0001
1000
0000
,
0100
0000
1000
0000
,
0010
0000
1000
0001
,
1000
0001
0010
0100
,
0100
0000
0000
0100
,
0000
1000
0000
0100
,
0100
0100
0000
0010
,
0000
0001
0000
1000
,
1000
1000
0000
0001
,
0000
1000
0000
0010
,
0000
0100
0000
0001
,
0100
0001
1000
0010
,
1000
0010
0000
1000
,
0000
0001
0000
1000
,
0000
0001
0000
1000
,
0000
0100
0010
0001
,
0010
0100
0000
1000
,
0000
0010
0000
1000
,
0000
0010
0000
0100
,
0000
1000
0100
0001
,
0010
1000
0000
0000
,
0110
0001
0000
0001
,
1000
0010
0000
0010
,
0100
0001
0000
1000
,
0100
0001
0010
1000
,
0001
0100
0000
0100
,
0010
1000
0000
0010
,
0100
0001
0010
1000
,
0100
0001
0010
0100
,
1001
0000
0000
0000
;

//---------------dance-single - ----------------
#NOTES:
     dance-single:
     DIFFICULT:
     Medium:
     9:
     0.362633,0.401840,0.327841,0.243539,0.004683,271.000000,236.000000,35.000000,26.000000,0.000000,0.000000,0.362633,0.401840,0.327841,0.243539,0.004683,271.000000,236.000000,35.000000,26.000000,0.000000,0.000000:
0010
2000
0010
3100
,
1100
0000
0001
0001
,
0100
0002
0100
0013
,
0011
0000
1000
1000
,
0001
0020
0001
0130
,
0110
0000
0100
0100
,
1000
0020
1000
0130
,
0110
0001
2000
3001
,
1000
0001
0010
0100
,
1000
0100
0010
0001
,
0001
1000
0100
0010
,
0001
0001
0100
0010
,
1000
0001
1001
0010
,
0100
0001
0101
0010
,
0100
1000
1100
0001
,
1000
0010
0001
0010
,
1000
0100
0010
0001
,
0010
0001
0100
1000
,
0100
0001
0010
0100
,
1000
0001
0001
0010
,
0001
0010
0011
0100
,
1000
0010
1010
0100
,
0001
1000
1001
0010
,
1000
0100
0100
0200
,
0300
2000
3000
0002
,
0003
1000
0100
0020
,
0030
0200
0300
0020
,
0030
0001
0100
0020
,
0030
0200
0300
0020
,
0030
1000
0100
0002
,
0003
0200
0300
1000
,
0010
0100
0001
0001
,
1000
1000
0001
0100
,
0010
0220
0330
1000
,
1000
0001
0001
1000
,
1100
0011
0000
0010
,
0010
0100
0100
0010
,
0110
1001
0000
1000
,
0100
1100
0000
0001
,
0100
0101
0002
0013
,
0020
0130
0200
1300
,
0010
1001
0000
0001
,
0001
1000
1000
0001
,
0101
1010
0000
0100
,
0100
0010
0010
0100
,
0110
1001
0000
0001
,
0100
0101
0000
1000
,
0100
1100
2000
3010
,
0020
0130
0200
0301
,
0010
1001
0000
0001
,
0100
0110
0000
1000
,
0100
0110
0000
1000
,
0100
0001
0010
1000
,
0100
0001
0000
1100
,
1000
0100
1000
0101
,
0001
0100
0001
1000
,
0001
1000
0100
0010
,
0100
2002
0000
0000
,
0000
3003
0000
0000
0000
0000
0000
0000
0000
0000
0000
0000
0000
0000
0000
0000
0000
0000
0000
0000
0000
0000
0000
0000
0000
0000
0000
0000
0000
0000
0000
0000
0000
0000
0000
0000
0000
0000
0000
0000
0000
0000
0000
0000
0000
0000
0000
0000
0100
0000
0000
0000
0000
0000
0000
0000
0000
0000
0000
0000
0000
0000
0000
0000
0000
0000
0000
0000
0000
0000
0000
0000
0000
0000
0000
0000
0000
0000
0000
0000
0000
0000
0000
0000
0000
0000
0000
0000
0000
0000
0000
0000
0000
0000
0000
0000
0100
0000
0000
0000
0000
0000
0000
0000
0000
0000
0000
0000
0000
0000
0000
0000
0000
0000
0000
0000
0000
0000
0000
0000
0000
0000
0000
0000
0000
0000
0000
0000
0000
0000
0000
0000
0000
0000
0000
0000
0000
0000
0000
0000
0000
0000
0000
0000
0010
0000
0000
0000
0000
0000
0000
0000
0000
0000
0000
0000
0000
0000
0000
0000
0000
0000
0000
0000
0000
0000
0000
0000
0000
0000
0000
0000
0000
0000
0000
0000
0000
0000
0000
0000
0000
0000
0000
0000
0000
0000
0000
0000
0000
0000
0000
0000
,
0100
0001
0010
1000
,
0100
0001
0001
1000
,
0001
0001
0100
1000
,
0010
0001
0110
1000
,
0100
0010
0001
0100
,
0010
1000
0100
0011
,
0100
1010
1000
1001
,
0110
0000
0000
0000
;

//---------------dance-single - ----------------
#NOTES:
     dance-single:
     EXPERT:
     Hard:
     12:
     0.515179,0.588787,0.393409,0.159237,0.660366,385.000000,343.000000,42.000000,17.000000,0.000000,0.000000,0.515179,0.588787,0.393409,0.159237,0.660366,385.000000,343.000000,42.000000,17.000000,0.000000,0.000000:
1000
0000
0000
1100
0000
0000
0010
0000
0000
0100
0000
1000
,
0000
0000
0000
0001
0000
0000
1000
0000
0001
0000
0010
0000
,
0001
0000
0000
0101
0000
0000
0010
0000
0000
0010
0000
0001
,
0000
0000
0000
0100
0000
0000
1000
0000
0100
0000
0010
0000
,
0100
0000
0000
0110
0000
0000
0100
0000
0000
1000
0000
0001
,
0000
0000
0000
0010
0000
0000
0001
0000
0100
0000
0010
0000
,
0100
0000
0000
0110
0000
0000
0100
0000
0000
0001
0000
1000
,
0000
0000
1000
0001
0000
0000
0210
0000
0000
0301
0000
0000
,
0001
0000
0000
0000
0000
1000
0002
0000
0000
0013
0000
0000
,
0010
0000
0000
0000
0000
0001
0200
0000
0000
0301
0000
0000
,
0001
0000
0000
0000
0000
1000
0020
0000
0000
0130
0000
0000
,
0100
0000
0000
0010
0000
1000
0000
0000
0010
1000
0000
0001
,
0010
0000
0100
0000
0000
1000
0000
0000
0100
1000
0000
0001
,
0100
0000
0010
0000
0000
1000
0000
0000
0100
0010
0000
0001
,
1000
0000
0010
0000
0000
0100
0000
0000
0001
1000
0000
1000
,
0100
0000
0100
0010
0000
0010
0002
0000
0000
1003
0000
0000
,
1000
0000
0000
1000
0000
0001
0100
0000
0001
0200
0000
0000
,
0310
0000
0000
0010
0000
1000
0001
0000
0000
0010
0000
0000
,
0010
0000
0100
2000
0000
0000
3010
0000
0000
0010
0000
0000
,
0010
0000
0110
0000
0000
1000
0001
0000
0010
0001
0000
1000
,
0010
0000
0100
0000
0000
0001
0000
0000
0100
0001
0000
1000
,
0100
0000
0010
0000
0000
0001
0000
0000
0100
0010
0000
1000
,
0001
0000
0010
0000
0000
0100
0000
0000
1000
0001
0000
0001
,
0100
0000
0100
0010
0000
0010
1000
0000
0000
0110
0000
0000
,
0002
0100
0000
0103
,
1001
1001
2000
0000
,
0100
0000
0100
3000
,
1001
0000
0000
1001
0000
0000
0001
0000
0000
0000
0000
1000
,
0010
0000
0000
0000
0000
1000
0100
0000
0000
0000
0000
0000
,
0110
0000
0000
1001
0000
0000
1000
0000
0000
0000
0000
0001
,
0010
0000
0000
0000
0000
0001
0100
0000
0000
0000
0000
0000
,
0001
0000
0010
0001
0000
0000
1000
0000
0100
1000
0000
0000
,
0001
0000
0100
0001
0000
0000
1000
0000
0010
1000
0000
0000
,
0001
0010
0100
2000
0000
0000
3010
0000
0000
0110
0000
0000
,
0101
1010
0101
0011
,
1100
1001
0000
0011
,
1001
0101
1010
1001
,
1100
0000
0000
0110
0000
0000
0001
0000
0100
0010
0000
1000
,
0000
0000
0100
0010
0000
0001
0000
0000
0100
0010
0000
1000
,
0000
0000
0001
0010
0000
0010
0100
0000
0100
1000
0000
0010
,
0000
0000
0100
0001
0000
0010
0000
0000
0100
1000
0000
0010
,
1000
0001
1000
0001
1000
0001
1000
0000
0000
1100
0000
0000
,
0110
0011
0101
0110
,
1100
0110
0000
0101
,
1010
1100
0011
1001
,
1100
0000
0000
0110
0000
0000
0001
0000
1000
0100
0000
0010
,
0000
0000
0001
0100
0000
0010
0000
0000
1000
0100
0000
0010
,
0000
0000
0001
0100
0000
0100
0010
0000
0010
1000
0000
0100
,
0000
0000
0010
0001
0000
0100
0000
0000
0010
1000
0000
0100
,
1000
0100
1000
0100
1000
0100
1000
0000
0000
0001
0000
0100
,
0000
0000
0000
0010
0000
0100
0010
0000
1000
0000
0000
0000
,
0100
0000
0010
0001
0000
0010
0001
0000
1000
0000
0000
0000
,
0020
0230
0302
0023
,
2030
0000
0000
3020
0000
0000
0031
0000
0000
1000
0000
0001
,
0000
0000
0010
0001
0000
0010
0000
0000
0100
0000
0000
1000
,
0000
0000
0100
1000
0000
0010
0000
0000
0100
0000
0000
0001
,
0000
0000
0100
0001
0000
0100
0000
0000
0010
0000
0000
1000
,
0000
0000
0001
1000
0000
0000
0001
0100
0010
0100
0010
0200
,
0000
0300
0000
0000
0000
0000
0000
0000
0000
0000
0000
0000
0000
0000
0000
0000
0000
0000
0000
0000
0000
0000
0000
0000
0000
0000
0000
0000
0000
0000
0000
0000
0000
0000
0000
0000
0000
0000
0000
0000
0000
0000
0000
0000
0000
0000
0000
0000
0010
0000
0000
0000
0000
0000
0000
0000
0000
0000
0000
0000
0000
0000
0000
0000
0000
0000
0000
0000
0000
0000
0000
0000
0000
0000
0000
0000
0000
0000
0000
0000
0000
0000
0000
0000
0000
0000
0000
0000
0000
0000
0000
0000
0000
0000
0000
0000
1000
0000
0000
0000
0000
0000
0000
0000
0000
0000
0000
0000
0000
0000
0000
0000
0000
0000
0000
0000
0000
0000
0000
0000
0000
0000
0000
0000
0000
0000
0000
0000
1000
0000
0000
0000
0000
0000
0000
0000
0000
0000
0000
0000
0000
0000
0000
0000
0010
0000
0000
0000
0000
0000
0000
0000
0000
0000
0000
0000
0000
0000
0000
0000
0000
0000
0000
0000
0000
0000
0000
0000
0000
0000
0000
0000
0000
0000
0000
0000
0000
0000
0000
0000
0000
0000
0000
0000
0000
0000
0000
0000
0000
0000
0000
0000
,
0100
0001
0100
0010
0000
0000
0100
0000
0000
0001
0000
0000
,
0010
0000
0000
0100
0000
0000
1000
0000
1000
0001
0000
0000
,
0010
0100
1000
0100
0000
0000
1000
0000
0000
0010
0000
0100
,
0000
0010
0000
0001
0000
0000
0010
0000
0100
0001
0000
0000
,
1000
0010
1000
0100
0000
0000
1000
0000
0000
0001
0000
1000
,
0000
0010
0000
1000
0000
0000
0100
0000
0010
0001
0000
0000
,
1000
0001
1000
0010
0000
0000
0100
0000
0000
0001
0000
0000
,
1000
0000
1001
0000
0000
0000
0000
0000
0000
0000
0000
0000
;

//---------------dance-single - ----------------
#NOTES:
     dance-single:
     CHALLENGE:
     Challenge:
     15:
     0.760056,0.774720,0.384043,0.393409,1.316048,568.000000,527.000000,41.000000,42.000000,0.000000,0.000000,0.760056,0.774720,0.384043,0.393409,1.316048,568.000000,527.000000,41.000000,42.000000,0.000000,0.000000:
// measure 0
1000
0000
0010
0200
0000
0000
0301
0010
1000
0010
0001
0100
,  // measure 1
0001
0000
0010
0100
0000
0100
1000
0000
1010
0000
0001
0000
,  // measure 2
0101
0000
0100
0020
0000
0000
1030
0100
0001
0100
1000
0010
,  // measure 3
0100
0000
0100
0001
0000
0001
0010
0000
0011
0000
1000
0000
,  // measure 4
1010
0000
0001
0100
0000
0000
0010
1000
0100
1000
0100
0010
,  // measure 5
0001
0100
1000
0100
0000
0001
0010
0000
0110
0000
1000
0000
,  // measure 6
1001
0000
0100
0010
0000
0010
0001
1000
0010
0001
0010
0100
,  // measure 7
0010
0001
1000
0001
0000
0000
0120
0000
0000
1030
0000
1000
,  // measure 8
0100
0000
1000
0100
0000
0010
0100
0000
0001
0100
0000
0010
,  // measure 9
0100
1001
0110
0201
,  // measure 10
0310
0000
0100
0001
0000
1000
0001
0000
0010
0001
0000
0010
,  // measure 11
0100
0000
0010
1000
0000
0010
0100
0000
1000
0100
0000
0100
,  // measure 12
0010
0000
0021
0000
0000
0031
1000
0001
1000
0010
0000
0010
,  // measure 13
1000
0000
1200
0000
0000
1300
0010
0100
0001
0100
0000
0001
,  // measure 14
1000
0000
0120
0000
0000
1030
0010
0100
0001
0100
0000
0100
,  // measure 15
0010
0000
0010
1000
0000
1000
0001
0000
0001
0200
0000
0000
,  // measure 16
1000
0010
0301
0120
,  // measure 17
1030
0000
0010
0200
0000
0301
0000
0010
0001
2000
0000
0000
,  // measure 18
0100
0010
0100
3002
,  // measure 19
0103
0000
0010
2000
0000
3001
0000
1000
0100
0010
0000
0010
,  // measure 20
0001
0000
0201
0000
0000
0310
1000
0001
1000
0100
0000
0100
,  // measure 21
0010
0000
1020
0000
0000
0031
0010
1000
0010
0001
0000
0100
,  // measure 22
0010
0000
1002
0000
0000
0103
1000
0100
0010
0100
0000
0010
,  // measure 23
1000
0001
1000
0010
0000
0100
0001
0100
0010
1000
0100
0010
,  // measure 24
0200
0000
0000
0310
0001
0010
1000
0000
0010
0012
0000
0000
,  // measure 25
1000
0000
0000
0010
0000
0000
0103
0000
0000
1000
0001
0010
,  // measure 26
0200
0000
0000
1300
0010
0001
0010
0000
1000
1200
0000
0000
,  // measure 27
0010
0000
0000
1000
0000
0000
0301
0000
0000
0100
1000
0001
,  // measure 28
1000
0000
0010
0100
0001
0100
0010
0000
1000
1001
0000
0010
,  // measure 29
0000
0100
0001
0010
0000
0010
0100
0000
0000
1000
0010
0100
,  // measure 30
0001
0000
0010
0001
0100
0001
1000
0000
0010
0110
0000
0010
,  // measure 31
0000
1000
0100
0010
0000
0010
0001
0000
0001
0100
0000
0100
,  // measure 32
0010
0000
0010
1000
0000
1000
0100
0000
0100
0001
0100
1000
,  // measure 33
0100
0000
0000
0000
0000
0000
0000
0000
0000
0000
0000
0000
0000
0000
0000
0000
0000
0000
0000
0000
0000
0000
0000
0000
0000
0000
0000
0000
0000
0000
0000
0000
0000
0000
0000
0000
0000
0000
0000
0000
0000
0000
0000
0000
0000
0000
0000
0000
2002
3003
0000
0000
0000
0000
0000
0000
0000
0000
0000
0000
0000
0000
0000
0000
0000
0000
0000
0000
0000
0000
0000
0000
0000
0000
0000
0000
0000
0000
0000
0000
0000
0000
0000
0000
0000
0000
0000
0000
0000
0000
0000
0000
0000
0000
0000
0000
0010
0000
0000
0000
0000
0000
0000
0000
0000
0000
0000
0000
0000
0000
0000
0000
1000
0000
0000
0000
0000
0000
0000
0000
0000
0000
0000
0000
0000
0000
0000
0000
0010
0000
0000
0000
0000
0000
0000
0000
0000
0000
0000
0000
0000
0000
0000
0000
2000
0000
0000
0000
0000
0000
0000
0000
0000
0000
0000
0000
0000
0000
0000
0000
0000
0000
0000
0000
0000
0000
0000
0000
0000
0000
0000
0000
0000
0000
0000
0000
0000
0000
0000
0000
0000
0000
0000
0000
0000
0000
0000
0000
0000
0000
0000
0000
,  // measure 34
3100
0010
0100
0020
0000
0000
0031
0000
0001
0100
0000
0100
,  // measure 35
0010
0000
0010
2000
0000
0000
3100
0001
0100
0002
0000
0000
,  // measure 36
0103
1000
0100
2000
0000
0000
3010
0000
0010
0100
0000
0100
,  // measure 37
0001
0000
0001
1000
0000
1000
0010
0100
0001
0100
0000
0100
,  // measure 38
0010
0000
0010
1000
0000
1000
0001
0100
0001
0010
0000
0010
,  // measure 39
0001
0000
0001
1000
0000
1000
0100
0001
0100
1000
0000
1000
,  // measure 40
0010
0000
0010
0100
0000
0100
0001
0010
1000
0010
0000
0010
,  // measure 41
0001
1000
0001
0100
0000
0100
0010
1000
0001
2000
0000
0000
,  // measure 42
3100
0010
0001
0020
0000
0000
0130
0000
0100
1000
0000
1000
,  // measure 43
0001
0000
0001
0010
0000
0010
0001
1000
0001
0020
0000
0000
,  // measure 44
0031
1000
0100
2000
0000
0000
3010
0000
0010
1000
0000
1000
,  // measure 45
0100
0000
0100
0010
0000
0010
0001
1000
0010
1000
0000
0100
,  // measure 46
0010
0000
0010
0001
0000
0010
1000
0010
0001
0010
0000
0100
,  // measure 47
1000
0000
1000
0001
0000
0100
0010
0100
1000
0100
0000
0010
,  // measure 48
0100
0000
0001
1000
0000
0010
0100
0001
0100
0010
1000
0010
,  // measure 49
1000
0000
0100
0000
0010
0001
1002
0000
0000
0103
0000
0010
,  // measure 50
0100
0000
0000
0010
1000
0100
0120
0000
0000
1030
0000
0010
,  // measure 51
0100
0000
1001
0000
1000
0010
0210
0000
0000
0301
0000
0100
,  // measure 52
0001
0000
0010
0001
0000
1000
1010
0000
0000
0101
0000
0000
,  // measure 53
0011
0000
0000
1001
0000
0000
0010
1000
0100
1000
0010
1000
,  // measure 54
0100
0000
2100
0000
0000
0000
3001
0100
0010
0001
0010
0100
,  // measure 55
0001
0000
1002
0000
0000
0000
1003
0001
0010
1000
0010
0001
,  // measure 56
0100
0010
1000
0020
0000
0000
0130
0000
0010
1000
0000
1000
,  // measure 57
0100
0000
0100
0020
0000
0000
0031
0100
1000
0100
0010
0200
,  // measure 58
0000
0300
0000
0000
0000
0000
0000
0000
0000
0000
0000
0000
0000
0000
0000
0000
0000
0000
0000
0000
0000
0000
0000
0000
0000
0000
0000
0000
0000
0000
0000
0000
0000
0000
0000
0000
0000
0000
0000
0000
0000
0000
0000
0000
0000
0000
0000
0000
0101
0000
0000
0000
0000
0000
0000
0000
0000
0000
0000
0000
0000
0000
0000
0000
0000
0000
0000
0000
0000
0000
0000
0000
0000
0000
0000
0000
0000
0000
0000
0000
0000
0000
0000
0000
0000
0000
0000
0000
0000
0000
0000
0000
0000
0000
0000
0000
1000
0000
0000
0000
0000
0000
0000
0000
0000
0000
0000
0000
0000
0000
0000
0000
0001
0000
0000
0000
0000
0000
0000
0000
0000
0000
0000
0000
0000
0000
0000
0000
1000
0000
0000
0000
0000
0000
0000
0000
0000
0000
0000
0000
0000
0000
0000
0000
0100
0000
0000
0000
0000
0000
0000
0000
0000
0000
0000
0000
0000
0000
0000
0000
1000
0000
0000
0000
0000
0000
0000
0000
0010
0000
0000
0000
0000
0000
0000
0000
1000
0000
0000
0000
0000
0000
0000
0000
0000
0000
0000
0000
0000
0000
0000
0000
,  // measure 59
0010
0100
0001
0100
0000
0002
0010
0000
0013
0000
0000
0100
,  // measure 60
1000
0000
0000
0000
1000
0000
0001
0000
0000
0000
0000
0000
0110
0000
0000
0000
0000
0000
0001
0000
0010
0001
0010
0000
,  // measure 61
0001
1000
0010
1000
0000
0200
1000
0000
1300
0001
0000
0011
,  // measure 62
0000
0000
0001
0000
0000
0000
1001
0000
0000
0000
0000
0000
0110
0000
0000
0000
0000
0000
1000
0000
0100
0010
0100
0000
,  // measure 63
0010
0001
0010
0100
0000
2000
0010
0000
3100
1000
0000
1010
,  // measure 64
0000
0000
0010
0000
0000
0000
0011
0000
0000
0000
0000
0000
1100
0000
0000
0000
0000
0000
0010
0100
0010
0100
0010
0000
,  // measure 65
1000
0010
0100
0001
0010
0100
1000
0001
0100
0010
1000
0100
,  // measure 66
0010
0001
1001
0000
0000
0000
0000
0000
0000
0000
0000
0000
;

//---------------dance-double - ----------------
#NOTES:
     dance-double:
     BASIC:
     Easy:
     6:
     0.268964,0.278197,0.084302,0.000000,0.000000,201.000000,192.000000,9.000000,0.000000,0.000000,0.000000,0.268964,0.278197,0.084302,0.000000,0.000000,201.000000,192.000000,9.000000,0.000000,0.000000,0.000000:
10000000
00000000
01000000
00000000
,
00010000
00000000
00001000
00010000
,
00001000
00000000
00001000
00000000
,
00000100
00000000
00000001
00001000
,
00000001
00000000
00000010
00000000
,
00001000
00000000
00010000
00000100
,
00010000
00000000
00001000
00000000
,
01000000
00010000
10010000
10000000
,
00000000
01000000
00000000
10000000
,
00100000
10000000
00010000
01000000
,
00000000
00001000
00000000
00010000
,
00000000
00001000
00000100
00000001
,
00000001
00000100
00000000
00000100
,
00000100
00001000
00000000
00010000
,
00010000
00001000
00000000
00100000
,
00010000
00010000
10000000
00000000
,
00000000
01000000
10000000
00010000
,
00000000
00100000
01000000
00100000
,
00000000
00001000
00010000
00001000
,
00000000
00000010
00001000
00000010
,
00000010
00000001
00000000
00000100
,
00000100
00001000
00000000
00010000
,
00010000
01000000
00000000
10000000
,
10000000
00010000
00010000
10000000
,
00000000
01000000
00000000
00010000
,
00000000
00011000
00011000
00000000
,
00000000
00001000
00000000
00000100
,
00000000
00001001
00001001
00000000
,
00000000
00000010
00000000
00001000
,
00000000
00011000
00011000
00000000
,
00000000
00010000
00000000
00100000
,
00000000
10000000
00010000
00100000
,
00010000
10000000
01000000
00010000
,
00010000
00001000
00010000
00000000
,
00000010
00000000
00001000
00000001
,
00001000
00001000
00000100
00000000
,
00010000
00000000
00001000
00010000
,
00001000
00001000
00100000
00000000
,
00010000
00000000
10000000
00000000
,
01000000
00000000
10000000
00010000
,
10000000
00010000
00100000
01000000
,
01000000
10000000
00000000
01000000
,
01000000
00010000
00000000
00001000
,
00010000
00001000
00000000
00000010
,
00000010
00000001
00000000
00001000
,
00000001
00001000
00000000
00000100
,
00000000
00010000
00000000
00001000
,
00000000
00100000
00000000
01000000
,
10000000
00100000
00010000
00001000
,
00010000
00001000
00000000
00000010
,
00000010
00000001
00000000
00001000
,
00001000
00000100
00000000
00000010
,
00000001
00000100
00000001
00000010
,
00001000
00010000
00000000
00001000
,
00001000
00100000
00000000
00010000
,
00010000
10000000
00000000
01000000
,
01000000
00010000
00001000
00000100
,
00000001
00000001
00000000
00000000
,
00011000
00000000
01000000
00000000
,
01000000
00100000
10000000
01000000
,
00100000
00000000
00001000
00010000
,
00000100
00000010
00000001
00001000
,
00000010
00000000
00000100
00010000
,
00001000
00100000
01000000
10000000
,
00000000
00000000
00010000
01000000
,
00100000
00010000
00001000
00000100
,
00000110
00000000
00000000
00000000
;

//---------------dance-double - ----------------
#NOTES:
     dance-double:
     DIFFICULT:
     Medium:
     9:
     0.370661,0.401840,0.365309,0.477711,0.004683,277.000000,238.000000,39.000000,51.000000,0.000000,0.000000,0.370661,0.401840,0.365309,0.477711,0.004683,277.000000,238.000000,39.000000,51.000000,0.000000,0.000000:
00020000
00032000
00103000
00010000
,
10010000
00000000
01000000
10000000
,
00200000
02300000
03001000
00010000
,
00011000
00000000
00001000
00010000
,
00000200
00002300
00003001
00000010
,
00000011
00000000
00001000
00000010
,
00000200
00000302
00001003
00000100
,
00010100
00001000
00020000
00031000
,
00010000
01000000
10000000
00010000
,
10000000
00200000
00310000
00001000
,
00000100
00000001
00001000
00000001
,
00000010
00001000
00010000
00001000
,
00100000
00001000
00101000
00010000
,
00000010
00010000
00010010
00001000
,
00100000
01000000
10010000
00200000
,
00320000
00032000
00003200
00000301
,
00000100
00001000
00000100
00000001
,
00001000
00000001
00000010
00001000
,
00010000
01000000
10000000
00010000
,
10000000
01000000
00010000
00001000
,
01000000
00001000
01001000
00010000
,
00000100
00010000
00010100
00001000
,
00000100
00000010
00001001
00000001
,
00001000
00000010
00000100
00002000
,
00003000
00000200
00000300
00000020
,
00000030
00001010
00011000
00020000
,
00030000
02000000
03000000
00200000
,
00300000
00110000
00011000
00020000
,
00030000
00000200
00000300
00002000
,
00003000
00001010
00010010
00002000
,
00003000
00200000
00300000
00020000
,
01030000
01010000
00100000
00101000
,
00010000
00001100
00000010
00001010
,
00010000
00002000
00013000
00200000
,
20300000
30020000
10030000
11000000
,
10010000
00110000
00000000
00002000
,
00023000
00030200
00000310
00000011
,
00001001
00000101
00000000
00000010
,
00001000
00010000
00000000
01000000
,
10000000
00100000
00020000
00031000
,
00002000
00003100
00000200
00000301
,
00000010
00001000
00010000
00002000
,
00203000
00320000
10030000
10100000
,
01100000
01010000
00000000
00002000
,
00023000
00030020
00000130
00000101
,
00001001
00001100
00000000
00000001
,
00000010
00001000
00000000
00010000
,
00100000
10000000
02000000
03010000
,
00020000
00031000
00002000
00003100
,
00000001
00000010
00000000
00001000
,
00010000
00000100
00000000
00010000
,
00001000
01000000
00000000
00020000
,
00230000
20300000
30200000
00320000
,
00130000
00001000
00000000
00011000
,
00001000
00000100
00000001
00000011
,
00000100
00001000
00000001
00000100
,
00000010
00000001
00000010
00001000
,
00010000
02000000
00000000
00000000
,
00000000
03000000
00000000
00000000
00000000
00000000
00000000
00000000
00000000
00000000
00000000
00000000
00000000
00000000
00000000
00000000
00000000
00000000
00000000
00000000
00000000
00000000
00000000
00000000
00000000
00000000
00000000
00000000
00000000
00000000
00000000
00000000
00000000
00000000
00000000
00000000
00000000
00000000
00000000
00000000
00000000
00000000
00000000
00000000
00000000
00000000
00000000
00000000
10000000
00000000
00000000
00000000
00000000
00000000
00000000
00000000
00000000
00000000
00000000
00000000
00000000
00000000
00000000
00000000
00000000
00000000
00000000
00000000
00000000
00000000
00000000
00000000
00000000
00000000
00000000
00000000
00000000
00000000
00000000
00000000
00000000
00000000
00000000
00000000
00000000
00000000
00000000
00000000
00000000
00000000
00000000
00000000
00000000
00000000
00000000
00000000
00100000
00000000
00000000
00000000
00000000
00000000
00000000
00000000
00000000
00000000
00000000
00000000
00000000
00000000
00000000
00000000
00000000
00000000
00000000
00000000
00000000
00000000
00000000
00000000
00000000
00000000
00000000
00000000
00000000
00000000
00000000
00000000
00000000
00000000
00000000
00000000
00000000
00000000
00000000
00000000
00000000
00000000
00000000
00000000
00000000
00000000
00000000
00000000
00010000
00000000
00000000
00000000
00000000
00000000
00000000
00000000
00000000
00000000
00000000
00000000
00000000
00000000
00000000
00000000
00000000
00000000
00000000
00000000
00000000
00000000
00000000
00000000
00000000
00000000
00000000
00000000
00000000
00000000
00000000
00000000
00000000
00000000
00000000
00000000
00000000
00000000
00000000
00000000
00000000
00000000
00000000
00000000
00000000
00000000
00000000
00000000
,
00000100
00000010
00000100
00011000
,
00100000
01000000
10000000
00010000
,
00100000
00001000
00010000
00000010
,
00001000
00000101
00000010
00001000
,
00000100
00010000
00001000
01000000
,
00010000
00100000
01000000
10000000
,
01010000
00100000
00011000
00000100
,
00000011
00000000
00000000
00000000
;

//---------------dance-double - ----------------
#NOTES:
     dance-double:
     EXPERT:
     Hard:
     12:
     0.461654,0.556393,0.346575,0.084302,0.646316,345.000000,308.000000,37.000000,9.000000,0.000000,0.000000,0.461654,0.556393,0.346575,0.084302,0.646316,345.000000,308.000000,37.000000,9.000000,0.000000,0.000000:
00001000
00000000
00000000
00011000
00000000
00000000
01000000
00000000
00000000
10000000
00000000
01000000
,
00000000
00000000
00000000
00000000
00000000
00000000
10000000
00000000
01000000
00000000
00010000
00000000
,
00001000
00000000
00000000
00011000
00000000
00000000
00000100
00000000
00000000
00000001
00000000
00000100
,
00000000
00000000
00000000
00000000
00000000
00000000
00000001
00000000
00001000
00000000
00000010
00000000
,
00000100
00000000
00000000
00000110
00000000
00000000
00001000
00000000
00000000
00010000
00000000
00001000
,
00000000
00000000
00000000
00000000
00000000
00000000
01000000
00000000
10000000
00000000
00100000
00000000
,
00010000
00000000
00000000
00011000
00000000
00000000
00000100
00000000
00000000
00000010
00000000
00001000
,
00000000
00011000
00022000
00001000
,
00011000
00000000
00000000
00000000
00000000
00000100
00000020
00000000
00000000
00000100
00000000
00000000
,
00000100
00000000
00000000
00000000
00000000
00010000
00002000
00000000
00000000
00010000
00000000
00000000
,
00010000
00000000
00000000
00000000
00000000
01000000
20000000
00000000
00000000
01000000
00000000
00000000
,
00200000
00000000
00300000
00010000
00000000
00010000
00000000
00000000
10000000
01000000
00000000
00010000
,
01000000
00000000
00010000
00000000
00000000
00001000
00000000
00000000
00010000
00000100
00000000
00000010
,
00000100
00000000
00001000
00000000
00000000
00000001
00000000
00000000
00000100
00000010
00000000
00000100
,
00000001
00000000
00000100
00000000
00000000
00001000
00000000
00000000
00010000
00001000
00000000
00010000
,
01000000
10000000
01000000
00010000
,
00011000
00000000
00000000
00001000
00000000
00000100
00001000
00000000
00000100
00000001
00000000
00000000
,
00000010
00000000
00000000
00001000
00000000
00001000
00000020
00000000
00000000
00000002
00000000
00000000
,
00000200
00000000
00000300
00001000
00000000
00010000
00001000
00000000
00000000
00002000
00000000
00000000
,
02000000
00000000
03000000
00010000
00000000
00010000
00100000
00000000
00000000
01000000
00000000
10000000
,
01000000
00000000
10000000
00000000
00000000
01000000
00000000
00000000
00010000
00001000
00000000
00010000
,
00001000
00000000
00000100
00000000
00000000
00000001
00000000
00000000
00000010
00000100
00000000
00001000
,
00000100
00000000
00001000
00000000
00000000
00000001
00000000
00000000
00001000
00000001
00000000
00000000
,
00000100
00000000
00000000
00001000
00000000
00000000
00010000
00001000
00010000
00002000
00000000
00000000
,
00000000
02000000
00000000
00200000
,
00000000
11000000
10010000
02000000
,
00000000
00020000
00000000
00000200
,
00000000
00000000
00000000
00001100
00000000
00000000
00001001
00000000
00000000
00000020
00000000
00000030
,
00000000
00000000
00000001
00000200
00000000
00000300
00000000
00000000
00000010
00020000
00000000
00000000
,
00000000
00000000
00000000
00011000
00000000
00000000
01001000
00000000
00000000
02000000
00000000
03000000
,
00000000
00000000
00010000
00200000
00000000
00300000
00000000
00000000
01000000
20000000
00000000
30000000
,
00010000
00000000
01000000
00010000
00000000
00000000
10000000
00000000
01000000
10000000
00000000
00000000
,
00010000
00000000
00100000
00010000
00000000
00000000
00001000
00000000
00010000
00001000
00000000
00000000
,
00000010
00000000
00000001
00002000
00000000
00000000
00000001
00000000
00000000
00000101
00000000
00000000
,
00000100
00001100
00011000
00001010
,
00001100
00011000
00000000
00011000
,
00010000
01010000
01100000
00110000
,
01010000
00000000
00000000
11000000
00000000
00000000
10000000
00000000
00100000
01000000
00000000
00100000
,
00000000
00000000
00010000
00001000
00000000
00010000
00000000
00000000
00000010
00001000
00000000
00000010
,
00000000
00000000
00001000
00000001
00000000
00001000
00000000
00000000
00000010
00000100
00000000
00000100
,
00000000
00000000
00000001
00001000
00000000
00001000
00000000
00000000
00000100
00000010
00000000
00000001
,
00000100
00000001
00000100
00000001
00000100
00000001
00000100
00000000
00000000
00000101
00000000
00000000
,
00000100
00001100
00011000
00101000
,
01100000
01010000
00000000
00011000
,
00001000
00001100
00000110
00010010
,
00011000
00000000
00000000
01010000
00000000
00000000
10000000
00000000
00100000
01000000
00000000
00100000
,
00000000
00000000
00010000
00001000
00000000
00010000
00000000
00000000
00000010
00001000
00000000
00000010
,
00000000
00000000
00001000
00000001
00000000
00000100
00000000
00000000
00001000
00010000
00000000
00010000
,
00000000
00000000
00001000
00100000
00000000
00100000
00000000
00000000
01000000
10000000
00000000
01000000
,
00100000
01000000
00100000
01000000
00100000
01000000
00100000
00000000
00000000
01000000
00000000
10000000
,
01000000
00000000
10000000
01000000
00000000
00010000
00000000
00000000
00000000
00010000
00000000
00001000
,
00010000
00000000
00001000
00010000
00000000
00000010
00000000
00000000
00000000
00000200
00000000
00000000
,
00000001
00000002
00000010
00000020
,
00001000
00000000
00000000
00001000
00000000
00000000
00000010
00000000
00000001
00000000
00000000
00000100
,
00001000
00000000
00010000
00000000
00000000
00001000
00000000
00000000
01000000
00000000
00000000
00100000
,
10000000
00000000
00100000
00000000
00000000
10000000
00000000
00000000
00010000
00000000
00000000
00100000
,
01000000
00000000
00010000
00000000
00000000
00001000
00000000
00000000
00000100
00000000
00000000
00001000
,
00010000
02000000
00000000
00000000
,
00000000
03000000
00000000
00000000
00000000
00000000
00000000
00000000
00000000
00000000
00000000
00000000
00000000
00000000
00000000
00000000
00000000
00000000
00000000
00000000
00000000
00000000
00000000
00000000
00000000
00000000
00000000
00000000
00000000
00000000
00000000
00000000
00000000
00000000
00000000
00000000
00000000
00000000
00000000
00000000
00000000
00000000
00000000
00000000
00000000
00000000
00000000
00000000
10000000
00000000
00000000
00000000
00000000
00000000
00000000
00000000
00000000
00000000
00000000
00000000
00000000
00000000
00000000
00000000
00000000
00000000
00000000
00000000
00000000
00000000
00000000
00000000
00000000
00000000
00000000
00000000
00000000
00000000
00000000
00000000
00000000
00000000
00000000
00000000
00000000
00000000
00000000
00000000
00000000
00000000
00000000
00000000
00000000
00000000
00000000
00000000
01000000
00000000
00000000
00000000
00000000
00000000
00000000
00000000
00000000
00000000
00000000
00000000
00000000
00000000
00000000
00000000
00000000
00000000
00000000
00000000
00000000
00000000
00000000
00000000
00000000
00000000
00000000
00000000
00000000
00000000
00000000
00000000
00000000
00000000
00000000
00000000
00000000
00000000
00000000
00000000
00000000
00000000
00000000
00000000
00000000
00000000
00000000
00000000
00010000
00000000
00000000
00000000
00000000
00000000
00000000
00000000
00000000
00000000
00000000
00000000
00000000
00000000
00000000
00000000
00000000
00000000
00000000
00000000
00000000
00000000
00000000
00000000
00000000
00000000
00000000
00000000
00000000
00000000
00000000
00000000
00000000
00000000
00000000
00000000
00000000
00000000
00000000
00000000
00000000
00000000
00000000
00000000
00000000
00000000
00000000
00000000
,
00001000
00010000
00000100
00010000
00000000
00000000
00000100
00000000
00000010
00000001
00000000
00000000
,
00001000
00000000
00000000
00000010
00000000
00000000
00000100
00000000
00000000
00010000
00100000
00010000
,
01000000
00000000
00000000
00100000
00000000
00000000
10000000
00000000
01000000
00100000
00000000
00001000
,
00000000
00010000
00000000
00000100
00000000
00000000
00000010
00000000
00000000
00000001
00001000
00000010
,
00001000
00000000
00000100
00000010
00000000
00000000
00000100
00000000
00000000
00010000
00000000
00001000
,
00000000
00100000
00000000
01000000
00000000
00000000
10000000
00000000
00000000
00010000
00000000
00000000
,
01000000
00000000
00000000
00001000
00100000
00001000
00010000
00000000
00000000
00000100
00010000
00000010
,
00010000
00000000
00000000
00000000
;

//---------------dance-double - ----------------
#NOTES:
     dance-double:
     CHALLENGE:
     Challenge:
     15:
     0.784143,0.774720,0.468345,0.224805,1.339465,586.000000,536.000000,50.000000,24.000000,0.000000,0.000000,0.784143,0.774720,0.468345,0.224805,1.339465,586.000000,536.000000,50.000000,24.000000,0.000000,0.000000:
00010000
00000000
00001000
00100000
00000000
00100000
00010000
10000000
01000000
00010000
01000000
10000000
,
00010000
00100000
00001000
00010000
00000000
00010000
00001000
00000000
00000100
00000000
00000010
00000000
,
00001000
00000000
00000100
00000010
00000000
00000001
00000100
00001000
00000100
00000001
00001000
00000010
,
00001000
00000100
00010000
00001000
00000000
00001000
00010000
00000000
00100000
00000000
01000000
00000000
,
00010000
00000000
01000000
11000000
00000000
00000000
00100000
01000000
00010000
01000000
00010000
00100000
,
00001000
00100000
00010000
00001000
00000100
00001000
00000010
00000000
00000110
00000000
00000100
00000000
,
00000101
00000000
00000001
00001001
00000000
00000010
00001000
00000100
00010000
00100000
01000000
00100000
,
00010000
00001000
00010000
00000100
00001000
00000010
00000110
00000000
00000000
00011000
00000000
00000000
,
01100000
00000000
00000000
10000000
01000000
00010000
01000000
00000000
01000000
10000000
00000000
00100000
,
01000000
00000000
00001000
00100000
00000000
00000000
00011000
00000000
00000000
00000110
00000000
00000000
,
00001001
00000000
00000000
00000100
00000010
00000001
00000010
00000000
00000010
00001000
00000000
00000010
,
00000100
00000000
00001000
00010000
00000000
00100000
01000000
00000000
10000000
00010000
00000000
00100000
,
01000000
00000000
10000000
00100000
00000000
01000000
00000000
00000000
00010000
00100000
00000000
00001000
,
00010000
00000000
00000010
00001000
00000000
00000100
00000000
00000000
00000010
00000001
00000000
00001000
,
00000010
00000000
00010000
00001000
00000000
00100000
00000000
00000000
00010000
01000000
00000000
00100000
,
10000000
00000000
01000000
00100000
00000000
00010000
00001000
00010000
00001000
00000100
00000000
00000000
,
00000011
00000000
00000000
00001000
00000100
00010000
00000200
00000000
00000000
00001300
00010000
00100000
,
00020000
00000000
00000000
01030000
00100000
10000000
00200000
00000000
00000000
01300000
00000000
00000000
,
10010000
00000000
00000000
00100000
01000000
00010000
02000000
00000000
00000000
03001000
00100000
00001000
,
00020000
00000000
00000000
00030100
00001000
00000100
00000020
00000000
00000031
00000100
00000000
00001000
,
00000100
00000000
00000010
00000100
00000000
00000001
00000000
00000000
00001000
00000100
00000000
00010000
,
00001000
00000000
00100000
00010000
00000000
01000000
00000000
00000000
00100000
10000000
00000000
00100000
,
00010000
00000000
00100000
01000000
00000000
00010000
00000000
00000000
00100000
00001000
00000000
00010000
,
00001000
00000000
00010000
00000100
00000000
00001000
00000010
00000100
00000001
00000100
00000010
00001000
,
00000010
00000100
00001000
00010000
00001000
00010000
00100000
01000000
10000000
01000000
10000000
00010000
,
01000000
00010000
01000000
00001000
00100000
00001000
00200000
00000000
00000000
00310000
00100000
00001000
,
00010000
00001000
00010000
00000100
00001000
00000010
00000001
00000010
00001000
00000100
00000010
00000100
,
00001000
00010000
00001000
01000000
00010000
01000000
20000000
00000000
00000000
30010000
01000000
00100000
,
00010000
00100000
01000000
00001000
00100000
00001000
00010000
00000100
00000010
00000100
00010000
00000010
,
00001000
00000010
00000001
00000010
00000000
00000010
00002000
00000000
00000000
00003100
00010000
00001000
,
00000010
00001000
00010000
00001000
00100000
00010000
01000000
10000000
01000000
00010000
00000000
00000000
,
01100000
00000000
00000000
11000000
00000000
00000000
00010000
01000000
00010000
00100000
00000000
00100000
,
00001000
00000000
00001000
00010000
00000000
00010000
00000100
00000000
00000100
00000010
00000000
00000010
,
00000001
00000000
00000001
00001001
00000000
00000000
00011000
00000000
00000000
01100000
00000000
00000000
,
11000000
00000000
00000000
00010000
01000000
00010000
02000000
00000000
00000000
03100000
00001000
00100000
,
00002000
00000000
00000000
00013000
00000100
00010000
00000010
00000000
00000010
00000100
00000000
00000000
,
00001100
00000000
00000000
00011000
00000000
00000000
01010000
00000000
00000000
00100000
00000000
00100000
,
10000000
01000000
00100000
01000000
00000000
00000000
00101000
00000000
00000000
00011000
00000000
00000000
,
00010100
00000000
00000000
00000110
00000000
00000000
00000011
00000000
00000000
00001001
00000000
00001000
,
00000100
00000000
00000100
00010000
00000000
00010000
00001000
00000000
00000000
00101000
00000000
00000000
,
01010000
00000000
00000000
11000000
00000000
00000000
01100000
00000000
00000000
00100000
01000000
00010000
,
01000000
00010000
00001000
00000100
00000010
00000001
00000010
00001000
00000010
00000002
00000000
00000000
,
00001003
00000100
00000001
00000200
00000000
00000000
00001300
00000000
00000100
00010000
00000000
00010000
,
00001000
00000000
00001000
00100000
00000000
00010000
00100000
10000000
00100000
00020000
00000000
00000000
,
10030000
01000000
00010000
02000000
00000000
00000000
13000000
00000000
10000000
00100000
00000000
00100000
,
01000000
00000000
01000000
00001000
00000000
00001000
00010000
00000000
00010000
00000100
00000000
00000100
,
00001000
00000000
00001000
00000010
00000000
00000010
00000110
00000000
00000000
00000101
00000000
00000000
,
00001001
00000000
00000000
00001010
00000000
00000000
00010010
00000000
00010000
00001000
00000000
00001000
,
00100000
00000000
00100000
01000000
00000000
01000000
10000000
01000000
00100000
00010000
00100000
00001000
,
00010000
00000100
00010000
00000010
00000100
00000010
00000001
00000000
00000010
00000100
00000000
00000010
,
00001000
00000000
00000100
00010000
00000000
00002000
00000000
00000000
00103000
00010000
00000000
01000000
,
00100000
00000000
10000000
01000000
00000000
00200000
00000000
00000000
00301000
00010000
00000000
00001000
,
00000010
00000000
00000100
00001000
00000000
00000000
00000110
00000000
00000000
00000011
00000000
00000000
,
00001010
00000000
00000000
00010010
00000000
00000000
00011000
00000000
00000000
00001000
00100000
00010000
,
00100000
00000000
01000000
10000000
00010000
00200000
00000000
00000000
00000000
00301000
00100000
00001000
,
00010000
00000000
00000100
00010000
00001000
00000200
00000000
00000000
00000000
00000301
00000100
00001000
,
00000100
00000000
00000010
00000100
00000000
00000000
00001100
00000000
00000000
00011000
00000000
00000000
,
01010000
00000000
00000000
01001000
00000000
00000000
00010000
00100000
00010000
00100000
01000000
20000000
,
00000000
30000000
00000000
00000000
00000000
00000000
00000000
00000000
00000000
00000000
00000000
00000000
00000000
00000000
00000000
00000000
00000000
00000000
00000000
00000000
00000000
00000000
00000000
00000000
00000000
00000000
00000000
00000000
00000000
00000000
00000000
00000000
00000000
00000000
00000000
00000000
00000000
00000000
00000000
00000000
00000000
00000000
00000000
00000000
00000000
00000000
00000000
00000000
00010000
00000000
00000000
00000000
00000000
00000000
00000000
00000000
00000000
00000000
00000000
00000000
00000000
00000000
00000000
00000000
00000000
00000000
00000000
00000000
00000000
00000000
00000000
00000000
00000000
00000000
00000000
00000000
00000000
00000000
00000000
00000000
00010000
00000000
00000000
00000000
00000000
00000000
00000000
00000000
00000000
00000000
00000000
00000000
00000000
00000000
00000000
00000000
02000000
00000000
00000000
00000000
00000000
00000000
00000000
00000000
00000000
00000000
00000000
00000000
00000000
00000000
00000000
00000000
00000000
00000000
00000000
00000000
00000000
00000000
00000000
00000000
00000000
00000000
00000000
00000000
00000000
00000000
00000000
00000000
00000000
00000000
00000000
00000000
00000000
00000000
00000000
00000000
00000000
00000000
00000000
00000000
00000000
00000000
00000000
00000000
03100000
00000000
00000000
00000000
00000000
00000000
00000000
00000000
10000000
00000000
00000000
00000000
00000000
00000000
00000000
00000000
00100000
00000000
00000000
00000000
00000000
00000000
00000000
00000000
00000000
00000000
00000000
00000000
00000000
00000000
00000000
00000000
01000000
00000000
00000000
00000000
00000000
00000000
00000000
00000000
00000000
00000000
00000000
00000000
00000000
00000000
00000000
00000000
,
00100000
00010000
00001000
00000100
00000010
00000100
00001000
00000100
00000001
00000100
00000000
00000000
,
00001010
00000000
00000000
00000000
00000000
00000000
00000100
00000000
00000000
00000000
00000100
00000000
00020000
00000000
00000000
00000000
00000000
00000000
00031000
00010000
00001000
00000000
00100000
00000000
,
00010000
01000000
10000000
01000000
00010000
00100000
00001000
00100000
00001000
00010000
00000000
00010100
,
00000000
00000000
00000100
00000000
00000000
00000000
00000110
00000000
00000000
00000000
00000010
00000000
00000002
00000000
00000000
00000000
00000000
00000000
00001003
00000000
00000100
00001000
00000100
00000000
,
00010000
00001000
00010000
00100000
01000000
10000000
00100000
00010000
00100000
10000000
00000000
10010000
,
00000000
00000000
00010000
00000000
00000000
00000000
00110000
00000000
00000000
00000000
00100000
00000000
00002000
00000000
00000000
00000000
00000000
00000000
00013000
00000100
00010000
00000100
00010000
00000000
,
00000010
00001000
00000100
00000010
00000001
00000100
00000010
00001000
00000100
00010000
00001000
00100000
,
01000000
10000000
01000000
00000000
00000000
00000000
00000000
00000000
00000000
00000000
00000000
00000000
;
