#TITLE:I Was Made For Lovin You;
#SUBTITLE:;
#ARTIST:寺田創一;
#TITLETRANSLIT:;
#SUBTITLETRANSLIT:;
#ARTISTTRANSLIT:Soichi Terada;
#GENRE:TECHNO HOUSE;
#CREDIT:YonabearCWY;
#BANNER:I Was Made For Lovin You.png;
#BACKGROUND:I Was Made For Lovin You-bg.png;
#LYRICSPATH:;
#CDTITLE:cdtitle.png;
#MUSIC:I Was Made For Lovin You.ogg;
#OFFSET:-5.760000;
#SAMPLESTART:60.131893;
#SAMPLELENGTH:15.000000;
#SELECTABLE:YES;
#BPMS:0.000000=127.969994
;
#STOPS:82.500000=0.466000
;
#BGCHANGES:0.000=circle2.mp4=1.000=1=0=1===CrossFade==,
8.000=blackhole1.mp4=1.000=0=0=1=====,
20.000=cone1.mp4=1.000=0=0=1=====,
28.000=cyber2.mp4=1.000=0=0=1=====,
36.000=bubble2.mp4=1.000=0=0=1=====,
44.000=dance10.mp4=1.000=0=0=1=====,
52.000=square4.mp4=1.000=0=0=1=====,
68.000=cone1.mp4=1.000=0=1=1=StretchRewind====,
82.500=cone1.mp4=0.100=0=0=1=====,
83.000=circle3.mp4=1.000=0=0=1=====,
91.000=heart10.mp4=1.000=0=0=1=====,
99.000=heart9.mp4=1.000=0=0=1=====,
111.000=blackhole1.mp4=1.000=0=1=1=StretchRewind====,
115.000=disco5.mp4=1.000=0=0=1=====,
131.000=disco3.mp4=1.000=0=0=1=====,
147.000=blackhole1.mp4=1.000=0=1=1=StretchRewind====,
155.000=bubble2.mp4=1.000=0=1=1=StretchRewind====,
163.000=dance10.mp4=1.000=0=1=1=StretchRewind====,
171.000=cyber2.mp4=1.000=0=1=1=StretchRewind====,
175.000=blackhole1.mp4=1.000=0=1=1=StretchRewind====,
179.000=square4.mp4=0.700=0=1=1=StretchRewind====,
195.500=circle2.mp4=0.700=0=1=1=StretchRewind====,
211.000=I Was Made For Lovin You-bg.png=1.000=0=0=1=====,
99999=-nosongbg-=1.000=0=0=0 // don't automatically add -songbackground-
;
#KEYSOUNDS:;
#ATTACKS:;

//---------------dance-single - ----------------
#NOTES:
     dance-single:
     BEGINNER:
     Beginner:
     1:
     0.000000,0.000000,0.000000,0.000000,0.000000,0.000000,0.000000,0.000000,0.000000,0.000000,0.000000,0.000000,0.000000,0.000000,0.000000,0.000000,0.000000,0.000000,0.000000,0.000000,0.000000,0.000000:
0000
1000
0000
0000
,
0000
0001
0000
0000
,
0000
1000
0000
0000
,
0000
0001
0000
0000
,
1000
0000
0000
0000
,
0010
0000
0010
0000
,
0010
0000
0000
0000
,
0010
0000
0010
0000
,
0010
0000
0000
0000
,
0100
0000
0100
0000
,
0100
0000
0000
0000
,
0100
0000
0100
0000
,
0100
0000
0000
0000
,
0000
0001
0000
0001
,
0001
0000
0000
0000
,
0000
1000
1000
1000
,
0000
0000
0000
0000
,
0000
1000
0000
1000
,
1000
0000
0000
0000
,
0000
0001
0001
0001
,
0000
0100
0110
0000
,
0010
0000
0010
0000
,
0010
0000
0000
0000
,
0100
0000
0100
0000
,
0100
0000
0000
0000
,
0010
0000
0010
0000
,
0010
0000
0000
0000
,
0100
0000
0100
0110
,
0000
0000
0000
1000
,
0000
0000
0000
1000
,
0000
0000
0000
0001
,
0000
0000
0000
0001
,
0000
0000
0000
0100
,
0000
0000
0000
0100
,
0000
0000
0000
0010
,
0000
0000
0000
0010
,
0000
0000
0000
1000
,
1000
1000
0000
0000
,
0000
0000
0000
1000
,
1000
1000
0000
0000
,
0000
0000
0000
0001
,
0001
0001
0000
0000
,
0000
0000
0000
0001
,
0001
0001
0000
0000
,
0000
0000
0000
0110
,
0000
0000
0000
0000
,
0000
0000
0000
0000
0000
0000
0000
1000
,
0000
0000
0000
0000
0000
0000
0000
0001
,
0000
0000
0000
0000
0000
0000
0000
0100
,
0000
0000
0000
0000
0000
0000
0000
0010
,
0000
0000
0000
0000
0000
0000
0000
1000
,
0000
0000
0000
0000
0000
0000
0000
0001
;

//---------------dance-single - ----------------
#NOTES:
     dance-single:
     BASIC:
     Easy:
     4:
     0.000000,0.000000,0.000000,0.000000,0.000000,0.000000,0.000000,0.000000,0.000000,0.000000,0.000000,0.000000,0.000000,0.000000,0.000000,0.000000,0.000000,0.000000,0.000000,0.000000,0.000000,0.000000:
0000
1000
0000
1000
,
0000
0001
0000
0001
,
0000
1000
0000
1000
,
0000
0001
0000
0001
,
0220
0000
0000
0330
,
1000
1000
1000
0000
,
1000
0000
1000
0000
,
0001
0001
0001
0000
,
0001
0000
0000
0000
,
0100
0100
0100
0000
,
0100
0000
0100
0000
,
0010
0010
0010
0000
,
2002
0000
0000
3003
,
0000
0010
0000
0010
,
0000
0010
0000
0000
,
0000
0100
0000
0100
,
0000
0100
0000
0000
,
0000
0001
0000
0001
,
0000
0001
0000
0000
,
0000
1000
0000
1000
,
0000
0000
2002
0000
0000
3003
0000
0000
,
0010
0000
0010
0000
,
0100
0000
0000
0000
,
0100
0000
0100
0000
,
0010
0000
0000
0000
,
1000
0000
1000
0000
,
0001
0000
0000
0001
,
0000
0001
0000
2002
,
0000
0000
3003
0010
,
0010
0010
0010
0010
,
0000
0100
0001
1000
,
1000
1000
1000
0220
,
0000
0000
0330
0001
,
0001
0001
0001
0001
,
0000
1000
0010
0100
,
0100
0100
0100
2002
,
0000
0000
3003
0100
,
0000
0100
0000
0010
,
1000
0010
0000
0100
,
0000
0100
0000
0010
,
0001
0010
0000
1001
,
0000
0100
0100
0110
,
0000
0010
0010
1001
,
0000
1000
1000
0110
,
0000
0001
0001
0220
,
0000
0000
0000
0000
,
0000
0000
0000
0000
0000
0330
0000
1000
,
0000
0000
0000
0000
0000
0000
0000
0001
,
0000
0000
0000
0000
0000
0000
0000
0100
,
0000
0000
0000
0000
0000
0000
0000
0010
,
0000
0000
0000
0000
0000
0000
0000
0100
,
0000
0000
0000
0000
0000
0020
0000
0000
,
0000
0000
0000
0000
0000
0000
0000
0030
;

//---------------dance-single - ----------------
#NOTES:
     dance-single:
     DIFFICULT:
     Medium:
     6:
     0.000000,0.000000,0.000000,0.000000,0.000000,0.000000,0.000000,0.000000,0.000000,0.000000,0.000000,0.000000,0.000000,0.000000,0.000000,0.000000,0.000000,0.000000,0.000000,0.000000,0.000000,0.000000:
0000
1000
0000
1000
0000
1000
0000
0000
,
0000
0001
0000
0001
0000
0001
0000
0000
,
0000
0100
0000
0100
0000
0100
0000
0000
,
0000
0010
0000
0010
0000
0010
0000
0000
,
2002
0000
0000
3003
,
0100
0000
0100
0000
,
0010
0010
1000
0100
,
0010
0000
0010
0000
,
0001
0001
1001
1001
,
0010
0000
0010
0000
,
0100
0100
1000
0001
,
0100
0000
0010
0000
,
1000
1000
1001
1001
,
0220
0000
0000
0330
,
1000
1000
0000
0000
1000
0000
1000
0000
,
2002
0000
3003
0000
,
0001
0001
0101
0000
,
0120
0000
0000
1000
1030
0000
0010
0000
,
0210
0000
0000
0001
0301
0000
0100
0000
,
2002
0000
0000
3003
,
0100
0100
0010
0000
0220
0330
1000
0000
,
0000
1000
0100
0010
,
0000
0010
0001
0100
,
0000
0010
0100
1000
,
0000
0100
0001
0010
,
0000
0010
0010
0110
,
0000
0100
0100
0110
,
0000
0001
1000
2002
,
0000
0000
3003
1000
,
1000
1000
1000
0100
,
0000
0100
0000
0010
,
0010
0010
0010
0001
,
0000
1001
1001
0010
,
0010
0010
0010
0100
,
0000
0100
0000
1000
,
1000
1000
1000
0220
,
0000
0000
0330
0001
,
0000
0001
0000
0001
,
1000
0010
1000
0100
,
0000
0100
0000
0100
,
0000
1000
0100
0010
,
0000
0010
0000
0010
,
0100
1000
0100
0001
,
0000
0001
0000
0001
,
0100
1000
0010
2002
,
0000
0000
0000
0000
,
0000
0000
0000
0000
3003
0000
0000
0200
,
0000
0000
0000
0000
0000
0300
0000
0020
,
0000
0000
0230
0000
0000
0301
0000
2000
,
0000
0000
0000
0000
0000
3000
0000
0020
,
0000
0000
0000
0000
0000
0030
0000
0002
,
0000
0000
0000
0000
0000
0003
0000
0200
,
0000
0000
0000
0000
0000
0000
0010
0310
;

//---------------dance-single - ----------------
#NOTES:
     dance-single:
     EXPERT:
     Hard:
     9:
     0.000000,0.000000,0.000000,0.000000,0.000000,0.000000,0.000000,0.000000,0.000000,0.000000,0.000000,0.000000,0.000000,0.000000,0.000000,0.000000,0.000000,0.000000,0.000000,0.000000,0.000000,0.000000:
0000
1000
0000
1000
0000
0001
0000
0001
,
0000
0100
0000
0100
0000
0010
0000
0010
,
0000
0100
0000
0001
0000
0010
0000
0100
,
0000
1000
0000
0010
0000
1000
0000
0100
,
0020
0000
0000
0030
,
1001
0000
1010
0000
1100
0000
0001
0100
,
0001
0000
0010
0010
0010
0000
0100
0000
,
0011
0000
1001
0000
0101
0000
0010
1000
,
0000
0010
2000
0000
0000
0000
3000
0000
,
0110
0000
0011
0000
1010
0000
0001
1000
,
0001
0000
0100
0100
0100
0000
0001
0000
,
0110
0000
1100
0000
0101
0000
1000
0001
,
2000
0000
0000
3000
,
0001
0000
0100
0000
0001
0000
0000
0010
0000
0000
0001
0000
1000
0000
0000
0000
,
0100
1000
0100
0000
0010
0010
0010
0000
,
1001
0000
0200
0002
0000
0000
0303
0000
,
0001
0000
0010
0000
0100
0000
2000
0000
0000
0000
3010
0000
0000
1000
0000
0000
,
1001
0000
0100
0001
0010
0000
0100
0000
,
1001
0000
0000
0000
0010
0000
0100
0000
1000
0000
0000
0001
0000
0000
0100
0000
,
0010
0000
1000
0100
0010
0001
1000
0000
,
0001
0100
0001
2000
0000
3000
0001
0000
,
0100
0000
0000
0000
0001
0000
0000
0001
0000
0000
1000
0000
0010
0000
0000
0000
,
0100
0000
0000
0000
0001
0000
0000
0001
0000
0000
0010
0000
0100
0000
0000
0000
,
1000
0100
2001
0000
0000
0000
3010
0100
,
0001
0000
0000
0000
1000
0000
0000
1000
0000
0000
0001
0000
0100
0000
0000
0000
,
0010
0000
1000
0000
0210
0000
0000
0000
0000
0000
0000
0000
0301
0000
0000
0001
,
0000
0100
0001
1000
0100
0000
1001
0000
,
0010
0100
1000
0001
1000
0000
0220
0000
,
0000
0000
0330
2000
,
3200
0000
0320
0000
0031
1000
0100
0001
,
0100
1000
0001
0000
0110
0000
0002
0000
,
0023
0000
0230
0000
1300
0010
0001
0010
,
2000
0000
0001
0001
3001
0000
0020
0000
,
2030
0000
3200
0000
1300
0100
0010
0001
,
1000
0001
1000
1000
0001
0001
0200
0000
,
0302
0000
0023
0000
0130
1000
0000
0001
,
0200
0000
0010
0310
1001
0000
0100
0000
,
0001
0000
0010
0000
0001
0000
0000
1000
0000
0000
0010
0000
1000
0000
0000
0000
,
0100
0000
0010
0000
0100
0000
0000
0010
0000
0000
0001
0000
0100
0000
0001
0000
,
1000
0000
0110
0000
0001
1000
0000
0001
,
2000
0000
0000
0000
0100
0000
0100
0000
0000
3010
0000
0000
1001
0000
0000
0000
,
0100
0000
1000
0000
0100
0000
0000
1000
0000
0000
0010
0000
0100
0000
0000
0000
,
0001
0000
0010
0000
0001
0000
0000
1000
0000
0000
0010
0000
0100
0000
0001
0000
,
0100
0000
1001
0000
0010
0100
0000
0010
,
0200
0000
0000
0000
0300
0000
1002
0100
,
0000
0010
0000
0000
0100
0000
0000
0010
0003
0000
0001
0000
1000
0000
0010
0000
,
0200
0000
1000
0000
0310
0000
2001
0010
,
0000
0100
0000
0000
0010
0000
0000
0100
3000
0000
1000
0000
0001
0000
0010
0000
,
0002
0000
0000
0000
0103
0000
0000
0010
0000
0000
1000
0000
0002
0000
0010
0000
,
0000
0010
0000
0000
0010
0000
0000
0023
0000
0000
0130
0000
2000
0000
0100
0000
,
0000
0100
0000
0000
0100
0000
0000
3200
0000
0000
0310
0000
0001
0000
1000
0000
,
0000
0010
0000
0000
0100
0000
0000
0001
0000
0000
0010
0000
0001
0000
1000
0000
,
0000
0010
0000
0000
0001
0000
0000
0010
0000
0000
1000
0000
0001
0000
0220
0000
,
0000
0000
0000
0000
,
0000
0000
0000
0000
0000
0000
0000
0330
;

//---------------dance-single - ----------------
#NOTES:
     dance-single:
     CHALLENGE:
     Challenge:
     13:
     0.571323,0.651143,0.096685,0.237319,0.571323,455.000000,444.000000,11.000000,27.000000,0.000000,0.000000,0.571323,0.651143,0.096685,0.237319,0.571323,455.000000,444.000000,11.000000,27.000000,0.000000,0.000000:
// measure 0
0000
0000
1000
0010
0000
0000
0100
0000
0000
0000
0001
0100
0000
0001
1000
0000
,  // measure 1
0000
0000
0010
0100
0000
0000
0001
0000
0000
1000
0100
1000
0000
0001
0010
0000
,  // measure 2
0000
0000
0100
1000
0000
0000
0010
0000
0000
0000
0100
0001
0000
1000
0010
0000
,  // measure 3
0000
0000
0100
0010
0000
0000
1000
0000
0000
0001
0100
0001
0000
1000
0010
0000
,  // measure 4
0100
0010
0100
0010
0100
0010
0100
0010
1000
0001
1000
0001
1000
0001
1000
0000
,  // measure 5
0021
0000
0230
0000
2300
0000
3001
0100
,  // measure 6
1000
0001
0010
1000
0001
1000
1000
0001
,  // measure 7
0021
0000
0032
0000
2003
0000
3100
0010
,  // measure 8
0001
0000
1000
0000
2000
0000
0000
0000
3010
0000
0100
0001
0000
0100
0010
0000
,  // measure 9
1020
0000
0230
0000
0302
0000
0013
0100
,  // measure 10
1000
0001
0010
0100
0001
1000
0010
0100
,  // measure 11
2001
0000
3200
0000
0320
0000
0031
0100
,  // measure 12
0010
1000
0010
1000
0010
1000
0010
1000
0001
0100
0001
0100
0001
0100
0001
0000
,  // measure 13
0010
0000
0001
0000
1000
0000
0000
0100
0010
0000
0001
0000
0100
0000
0010
1000
,  // measure 14
0010
0000
1000
0000
1000
0000
0000
0001
0000
0100
0010
0000
1000
0000
0100
0000
,  // measure 15
0010
0000
0001
0000
0100
0000
0000
0001
1000
0000
0010
0000
1000
0000
0100
0010
,  // measure 16
0100
0000
0010
0000
0001
0000
0001
0100
0000
0000
1010
0000
0000
0101
0000
0000
,  // measure 17
2001
0000
3100
0010
0002
1000
1000
1003
,  // measure 18
0110
0000
0001
0000
0100
0000
0001
0010
0001
0000
1000
0000
0010
0000
0001
0000
,  // measure 19
0010
0000
1000
0010
1000
0000
0010
0000
0100
0000
0001
0000
0100
0000
0001
1000
,  // measure 20
0001
0000
0100
0000
0010
0000
0010
2000
0000
0000
3000
0000
0100
0000
0010
0000
,  // measure 21
0001
0010
0000
0001
0100
0000
0001
1000
0000
1000
0100
1000
0100
0000
0010
0000
,  // measure 22
0001
0100
0000
0001
0010
0000
0001
1000
0001
0000
0010
0000
0100
0000
1000
0000
,  // measure 23
0010
1000
0000
0100
1000
0000
0001
1000
0000
0100
0010
0100
0010
0000
0001
0000
,  // measure 24
0100
0001
0000
0100
0010
0000
1000
0010
1000
0000
0001
0000
0200
0000
0000
0000
,  // measure 25
0301
1000
0020
0100
0100
0130
1001
0010
,  // measure 26
0001
0000
0100
0001
0100
0000
0001
0010
0000
0001
1000
0000
0010
0000
1000
0000
,  // measure 27
0100
0000
1000
0010
1000
0000
0100
0010
0000
0010
0001
0000
1000
0001
1000
0001
,  // measure 28
1000
0001
1000
0001
0100
0010
0100
0010
0100
0010
0100
0000
0010
0000
0000
0010
,  // measure 29
0001
0000
0000
0001
1000
0000
0000
1000
0010
0000
1000
0000
0001
0000
0010
0000
,  // measure 30
1000
0000
0001
0000
0100
0000
1000
0000
0001
0000
0100
0000
0010
0000
0000
0010
,  // measure 31
0100
0000
0000
0100
0001
0000
0000
0001
0010
0000
0100
0000
1000
0000
0100
0000
,  // measure 32
0010
0000
0001
0000
1000
0000
0100
0000
0010
0000
1000
0000
0010
0000
0000
0010
,  // measure 33
0001
0000
0000
0001
0100
0000
0000
0100
1000
0000
0100
0000
0001
0000
1000
0000
,  // measure 34
0010
0000
0001
0000
1000
0000
0100
0000
0010
0000
0100
0000
0001
0000
0000
0001
,  // measure 35
1000
0000
0000
1000
0100
0000
0000
0100
0010
0000
0001
0000
1000
0000
0100
0000
,  // measure 36
0020
0000
0000
0000
0130
0000
1000
0001
0000
0001
0010
0001
0010
0000
0001
0000
,  // measure 37
0100
0001
0000
0001
0010
0000
0010
0100
0000
0100
1000
0000
0010
0000
1000
0000
,  // measure 38
0100
1000
0000
1000
0010
0000
0100
0001
0100
0000
0001
0000
0010
0000
0001
0000
,  // measure 39
1000
0100
0000
0100
0010
0000
0010
0001
0000
0001
2000
0000
0010
0000
0010
0000
,  // measure 40
3020
0000
0000
0000
1030
0000
0001
0100
0000
0010
1000
0000
0100
0000
0010
0000
,  // measure 41
0001
1000
0000
1000
0001
0000
0100
0010
0000
0010
0001
0000
0010
0000
0100
0000
,  // measure 42
0001
0100
0000
0100
1000
0000
0100
0010
0100
0000
0010
0000
1000
0000
0100
0000
,  // measure 43
0010
0100
0000
0100
0010
0000
0100
1000
0100
0000
1000
0000
0001
0010
0001
0010
,  // measure 44
0001
0010
0001
0010
0100
1000
0100
1000
0100
1000
0100
1000
0002
0000
0000
0000
,  // measure 45
0000
0000
0000
0000
0000
0000
0000
0020
,  // measure 46
0000
0000
0000
0000
0003
0000
0100
0200
,  // measure 47
0000
0000
0000
0030
0000
1000
1000
2000
,  // measure 48
0000
0300
0001
0000
3010
0100
0001
0010
,  // measure 49
0000
0001
0000
0000
1000
0000
0000
0010
0000
1000
0100
0000
0010
0000
0001
0000
,  // measure 50
0000
0100
0000
0000
0010
0000
0000
0100
0000
0001
1000
0000
0010
0000
0100
0000
,  // measure 51
0000
1000
0000
0000
0100
0000
0000
0010
0000
0100
0001
0000
0010
0000
0001
0000
,  // measure 52
1000
0010
0000
0010
0100
0000
0100
0001
0000
0001
1000
0000
0110
0000
2002
0000
,  // measure 53
0000
0000
0000
0000
,  // measure 54
0000
0000
0000
0000
0000
0000
0000
3003
;
