#VERSION:0.83;
#TITLE:Houston;
#SUBTITLE:;
#ARTIST:カタマリロボ;
#TITLETRANSLIT:;
#SUBTITLETRANSLIT:;
#ARTISTTRANSLIT:Katamarirobo;
#GENRE:SHIBUYA CHILL;
#ORIGIN:;
#TAGS:;
#CREDIT:YonabearCWY;
#BANNER:Houston.png;
#BACKGROUND:Houston-bg.png;
#PREVIEWVID:;
#JACKET:Houston-jacket.png;
#CDIMAGE:;
#DISCIMAGE:;
#LYRICSPATH:;
#CDTITLE:We Love Katamari.png;
#MUSIC:Houston.ogg;
#OFFSET:-10.280000;
#SAMPLESTART:59.245384;
#SAMPLELENGTH:16.750000;
#SELECTABLE:YES;
#BPMS:0.000000=96.010002
;
#STOPS:;
#DELAYS:;
#WARPS:;
#TIMESIGNATURES:0.000000=4=4
;
#TICKCOUNTS:0.000000=4
;
#COMBOS:0.000000=1
;
#SPEEDS:0.000000=1.000000=0.000000=0
;
#SCROLLS:0.000000=1.000000
;
#FAKES:;
#LABELS:0.000000=Song Start
;
#BGCHANGES:0.000=bubble4.mp4=1.000=1=0=1===CrossFade==,
8.000=water3.mp4=1.000=0=0=1=====,
15.000=bubble3.mp4=2.000=0=0=1=====,
16.000=text8.mp4=1.000=0=0=1=====,
24.000=rain1.mp4=1.000=0=0=1=====,
32.000=bubble4.mp4=1.000=0=1=1=StretchRewind====,
40.000=water3.mp4=1.000=0=1=1=StretchRewind====,
46.000=bubble3.mp4=1.600=0=1=1=StretchRewind====,
48.000=rain2.mp4=1.000=0=0=1=====,
56.000=tunnel10.mp4=1.000=0=0=1=====,
64.000=bubble4.mp4=1.000=0=1=1=StretchRewind====,
72.000=water3.mp4=1.000=0=1=1=StretchRewind====,
76.000=bubble3.mp4=1.600=0=1=1=StretchRewind====,
78.000=bluey2.mp4=2.000=0=0=1=====,
80.000=text5.mp4=1.000=0=0=1=====,
88.000=water1.mp4=1.000=0=0=1=====,
96.000=amoeba1.mp4=1.000=0=0=1=====,
102.000=bluey2.mp4=2.000=0=1=1=StretchRewind====,
104.000=wave2.mp4=1.000=0=0=1=====,
112.000=wave1.mp4=1.000=0=0=1=====,
120.000=water2.mp4=1.000=0=0=1=====,
124.000=bubble3.mp4=1.000=0=1=1=StretchRewind====,
126.000=bluey2.mp4=1.600=0=1=1=StretchRewind====,
128.000=bubble4.mp4=1.000=0=1=1=StretchRewind====,
136.000=water3.mp4=1.000=0=1=1=StretchRewind====,
142.000=bubble3.mp4=1.000=0=1=1=StretchRewind====,
144.000=text8.mp4=1.000=0=1=1=StretchRewind====,
160.000=water1.mp4=1.000=0=1=1=StretchRewind====,
168.000=bubble3.mp4=0.200=0=1=1=StretchRewind====,
169.000=bubble3.mp4=0.500=0=0=1=====,
170.000=bubble3.mp4=0.700=0=0=1=====,
171.000=bubble3.mp4=1.000=0=0=1=====,
172.000=bubble3.mp4=1.200=0=0=1=====,
172.500=bluey2.mp4=1.600=0=0=1=====,
175.500=Houston-bg.png=1.000=0=0=1=====,
99999=-nosongbg-=1.000=0=0=0 // don't automatically add -songbackground-
;
#KEYSOUNDS:;
#ATTACKS:
;

//---------------dance-single - ----------------
#NOTEDATA:;
#CHARTNAME:BEGINNER;
#CHARTHASH:1064438742;
#STEPSTYPE:dance-single;
#BANNER:;
#DESCRIPTION:;
#CHARTSTYLE:;
#DIFFICULTY:Beginner;
#METER:1;
#METERF:0.000000;
#LASTSECONDHINT:119.643608;
#RADARVALUES:0.090199,0.143499,0.024600,0.065600,0.000000,77.000000,74.000000,3.000000,8.000000,0.000000,0.000000,0.000000,0.000000,0.000000,0.090199,0.143499,0.024600,0.065600,0.000000,77.000000,74.000000,3.000000,8.000000,0.000000,0.000000,0.000000,0.000000,0.000000;
#CREDIT:YonabearCWY;
#NOTES:
1000
0000
0000
0000
,
1000
0000
0000
0000
,
0001
0000
0000
0000
,
0001
0000
0000
0000
,
0100
0000
0100
0000
,
0100
0000
0000
0000
,
0010
0000
0010
0000
,
0010
0000
0000
0000
,
0100
0000
0010
0000
,
0100
0000
0000
0000
,
0010
0000
0100
0000
,
0010
0000
0000
0000
,
1000
0000
0001
0000
,
1000
0000
0000
0000
,
0001
0000
1000
0000
,
0001
0000
0000
0000
,
1000
0000
0100
0000
,
0010
0000
0000
0000
,
0001
0000
0010
0000
,
0100
0000
0000
0000
,
1000
0000
1000
1000
,
1000
0000
0000
0000
,
0001
0000
0001
0001
,
0001
0000
0000
0000
,
0100
0000
0100
0000
,
0100
0100
0100
0000
,
0010
0000
0010
0000
,
0010
0010
0010
0000
,
1000
0000
1000
0000
,
1000
1000
1000
0000
,
0001
0000
0001
0000
,
1001
0000
0000
0000
,
0010
0010
0010
0000
,
0010
0010
0010
0000
,
0100
0100
0100
0000
,
0100
0110
0000
0000
,
2000
0000
3000
0000
,
2000
0000
3000
0000
,
0002
0000
0003
0000
,
0002
0000
0003
0000
,
0200
0000
0300
0000
,
0020
0000
0030
0000
,
0020
0000
0030
0000
,
0200
0000
0300
1001
;

//---------------dance-single - ----------------
#NOTEDATA:;
#CHARTNAME:BASIC;
#CHARTHASH:2147483647;
#STEPSTYPE:dance-single;
#BANNER:;
#DESCRIPTION:;
#CHARTSTYLE:;
#DIFFICULTY:Easy;
#METER:4;
#METERF:4.000000;
#LASTSECONDHINT:119.643608;
#RADARVALUES:0.154628,0.179374,0.081999,0.139399,0.000000,132.000000,122.000000,10.000000,17.000000,0.000000,0.000000,0.000000,0.000000,0.000000,0.154628,0.179374,0.081999,0.139399,0.000000,132.000000,122.000000,10.000000,17.000000,0.000000,0.000000,0.000000,0.000000,0.000000;
#CREDIT:YonabearCWY;
#NOTES:
1000
1000
1000
0000
,
1000
1000
1000
0000
,
0001
0001
0001
0000
,
0001
0001
0001
1001
,
0100
0000
0100
0000
,
0100
0000
0000
0000
,
0010
0010
0010
0010
,
0010
0000
0000
0000
,
1000
0000
1000
0000
,
1000
0000
0000
0000
,
0001
0001
0001
0001
,
0001
0000
1000
0110
,
0001
0001
0001
0001
,
0001
0000
0000
0000
,
0001
0001
0001
0001
,
0001
0000
0000
0000
,
1000
1000
1000
1000
,
1000
0000
0000
0000
,
1000
1000
1000
1000
,
1000
0000
0110
0000
,
0001
0001
0001
0001
,
0001
1000
0010
0100
,
0010
0010
0010
0010
,
0010
0100
0001
0010
,
0200
0000
0300
1000
,
0020
0000
0030
0000
,
0100
0100
0100
0100
,
0100
0001
0010
0100
,
1000
1000
1000
1000
,
1000
0010
0100
0001
,
0020
0000
0000
0030
,
2002
0000
3003
0000
,
1000
1000
1000
1000
,
0001
0001
0001
0001
,
0100
0100
0100
0100
,
0010
1000
1001
0000
,
0220
0000
0000
0330
,
2020
0000
0000
3030
,
0202
0000
0000
0303
,
0022
0000
0000
0033
,
2000
0001
0000
0001
,
3002
1000
0000
1000
,
2003
0010
0100
0010
,
3002
0100
0013
1001
;

//---------------dance-single - ----------------
#NOTEDATA:;
#CHARTNAME:DIFFICULT;
#CHARTHASH:557083575;
#STEPSTYPE:dance-single;
#BANNER:;
#DESCRIPTION:;
#CHARTSTYLE:;
#DIFFICULTY:Medium;
#METER:8;
#METERF:8.000000;
#LASTSECONDHINT:119.956070;
#RADARVALUES:0.260055,0.287818,0.131199,0.303398,0.000000,222.000000,206.000000,16.000000,37.000000,0.000000,0.000000,0.000000,0.000000,0.000000,0.260055,0.287818,0.131199,0.303398,0.000000,222.000000,206.000000,16.000000,37.000000,0.000000,0.000000,0.000000,0.000000,0.000000;
#CREDIT:YonabearCWY;
#NOTES:
1000
0000
0010
0000
0100
0000
1000
0100
,
1000
0000
0100
0000
0010
0000
0100
0001
,
0100
0000
0010
0000
1000
0000
0010
1000
,
0100
0000
0010
0000
0001
0100
1001
0000
,
0021
0000
0000
0100
0100
0000
0000
0001
,
0032
0000
1000
0000
0010
0000
0103
0001
,
1020
0000
0001
0001
0001
0000
1000
1000
,
2030
0001
0000
0001
0000
0001
0000
3001
,
0200
0000
0000
1000
1000
0000
0010
0010
,
0310
0100
0002
0000
1000
0000
0010
0000
,
2003
0100
0000
0100
0000
0100
0000
3100
,
0020
0001
0000
0001
0000
0031
1001
0000
,
0010
0100
0001
0100
0010
0100
0001
0010
,
0001
0100
0001
1000
,
0100
1000
0010
1000
0100
1000
0010
0100
,
1000
0100
0001
1000
,
0100
0010
0001
0010
0100
0000
1000
0001
,
0010
0100
0001
0100
,
0010
0001
0010
0100
0010
0000
0001
1000
,
0100
0000
0010
0000
2002
0000
0000
3003
,
0020
0001
0000
0100
0000
0001
0000
1000
,
0032
0100
0000
1000
0000
0010
0203
0000
,
0320
1000
0001
1000
,
0230
0001
1000
0001
,
0310
0100
1000
0100
0010
0100
0001
1000
,
1002
0010
0000
0103
2002
0000
0000
3003
,
0200
1000
0000
0010
0000
0001
0000
1000
,
0320
0001
0000
1000
0000
0001
0130
0010
,
0001
1000
0020
0000
0130
0001
0010
0100
,
2000
0001
0100
0001
,
3010
0000
1000
0100
0010
0001
0100
1000
,
2002
0000
3003
0000
,
0010
0100
0000
0100
0000
0100
0000
0100
,
0010
0001
0000
0001
0000
0001
0000
0001
,
0010
0100
0000
0010
0000
1000
0000
0001
,
1000
0100
0000
0010
0110
0000
0000
0000
,
0202
0000
0000
0303
,
2000
0000
0000
0000
0000
0000
3000
0010
,
0220
0000
0000
0330
,
0002
0000
0000
0000
0000
0000
0003
1000
,
0120
0000
0000
1000
2000
0000
3030
0000
,
0210
0000
0000
0001
0302
0000
1000
1003
,
0201
0000
0000
0010
0020
0000
0330
0000
,
2001
0000
0010
0000
0001
0000
3100
1001
;

//---------------dance-single - ----------------
#NOTEDATA:;
#CHARTNAME:EXPERT;
#CHARTHASH:1102608862;
#STEPSTYPE:dance-single;
#BANNER:;
#DESCRIPTION:;
#CHARTSTYLE:;
#DIFFICULTY:Hard;
#METER:10;
#METERF:10.000000;
#LASTSECONDHINT:119.956070;
#RADARVALUES:0.347912,0.341784,0.073800,0.237798,0.250098,297.000000,288.000000,9.000000,29.000000,0.000000,0.000000,0.000000,0.000000,0.000000,0.347912,0.341784,0.073800,0.237798,0.250098,297.000000,288.000000,9.000000,29.000000,0.000000,0.000000,0.000000,0.000000,0.000000;
#CREDIT:YonabearCWY;
#NOTES:
1000
0010
1000
0100
1000
0010
1000
0001
,
0010
0001
0100
0001
0010
0001
1000
0110
,
0001
1000
0001
0100
0001
0010
0001
1000
,
0010
0100
0010
1000
0010
0100
1001
0000
,
0100
0000
0000
0010
0100
0000
0000
0001
1000
0000
0000
0100
0010
0000
0100
0000
,
0001
0000
0000
0100
1000
0000
0000
0010
0100
0000
0000
0001
0010
0000
0001
0000
,
1000
0000
0001
0020
1000
0000
1030
0010
,
0001
0000
1000
0100
0010
0001
0100
0010
,
1000
0000
0000
0100
0010
0000
0000
0010
0001
0000
0000
1000
0010
0000
0100
0000
,
0001
0000
0000
0010
0100
0000
0000
0100
1000
0000
0000
0001
0100
0000
1000
0000
,
0100
0000
0000
0000
0010
0000
0001
0000
0010
0000
0100
0000
0000
0001
0000
0000
,
0010
0000
0100
0000
0010
0000
0100
0000
1000
0000
0001
0000
0100
0010
0000
0000
,
1000
0000
0000
0001
0100
0000
0000
0001
1000
0000
0000
0001
0010
0000
0001
0000
,
0100
0000
0000
0001
0100
0000
0000
0001
1000
0000
0000
0010
1000
0000
0001
0000
,
0010
0000
0001
0200
1000
0000
1300
0100
,
0001
0000
1000
0010
0100
0010
1000
0001
,
0010
0000
0000
0100
1000
0000
0000
0010
0100
0000
0000
0001
0010
0000
0100
0000
,
1000
0000
0000
0100
0010
0000
0000
1000
0010
0000
0000
0001
0010
0000
0100
0000
,
0010
0000
0001
0000
1000
0000
0010
0000
0100
0000
0001
0000
0000
0010
0000
0001
,
0100
0010
1000
0010
0220
0000
0000
0330
,
1000
0010
0000
0010
0100
0000
0000
0000
0001
1000
0000
1000
0010
0000
0000
0000
,
0100
0010
0000
0010
0001
0000
0000
0000
0010
0100
0000
0100
1000
0200
0000
0000
,
0301
0100
1000
0100
0001
0100
0010
1000
,
0010
0000
1000
0100
2000
0000
0000
0000
0001
0000
0000
0000
0100
0000
0000
0000
,
3001
0000
0010
0000
0100
0000
1000
0000
0001
0000
1000
0010
0000
0100
0000
0001
,
0100
0010
1000
0010
0220
0000
0000
0330
,
0001
0010
0000
0010
1000
0000
0000
0000
1000
0010
0000
0010
0001
0000
0000
0000
,
0001
0100
0000
0100
1000
0000
0000
0000
1000
0100
0000
0100
0001
0200
0000
0000
,
0310
1000
0100
0010
0001
0100
0010
1000
,
0110
0000
0001
1000
0002
0000
0000
0000
0010
0000
0000
0000
0100
0000
0000
0000
,
1003
0000
0001
0000
0010
0000
0001
0000
0100
0000
0010
1000
0000
0100
0000
2000
,
0002
0000
3003
0000
,
0010
0000
0100
0000
0000
0010
1000
0000
0000
0001
0100
0000
0000
0000
0001
0000
,
0010
0000
0001
0000
0000
1000
0010
0000
0000
0100
0001
0000
0100
0000
1000
0000
,
0100
0000
0010
0000
0000
1000
0001
0000
0000
0001
1000
0000
0010
0000
1000
0000
,
0100
0010
0001
1000
0200
0000
0001
0300
,
2200
0000
0000
3000
,
0002
0003
0001
0010
,
2300
0010
0010
0001
,
3002
0000
0010
0000
0010
0000
0103
0002
,
0020
0000
0000
0000
0003
0000
0000
0032
2000
0000
0000
0000
0000
0000
3003
0000
,
1200
0000
0000
2300
0020
0000
0000
3030
,
0201
0000
0000
1000
2000
0000
0000
3300
,
1020
0000
0000
0001
0002
0000
0000
0033
;

//---------------dance-single - ----------------
#NOTEDATA:;
#CHARTNAME:CHALLENGE;
#CHARTHASH:2147483647;
#STEPSTYPE:dance-single;
#BANNER:;
#DESCRIPTION:;
#CHARTSTYLE:;
#DIFFICULTY:Challenge;
#METER:12;
#METERF:12.000000;
#LASTSECONDHINT:119.956070;
#RADARVALUES:0.463883,0.449716,0.057400,0.122999,0.586296,396.000000,389.000000,7.000000,15.000000,0.000000,0.000000,0.000000,0.000000,0.000000,0.463883,0.449716,0.057400,0.122999,0.586296,396.000000,389.000000,7.000000,15.000000,0.000000,0.000000,0.000000,0.000000,0.000000;
#CREDIT:YonabearCWY;
#NOTES:
// measure 0
1000
0000
0001
0100
0000
0010
0000
1000
0000
0100
1000
0000
0100
0000
0010
0000
,  // measure 1
0001
0000
1000
0010
0000
0100
0010
0100
0000
0001
0010
0000
0100
0000
1001
0000
,  // measure 2
0010
0000
1000
0100
0000
1000
0000
0001
0000
0100
0001
0000
0010
0000
0001
0000
,  // measure 3
0100
0000
0010
0001
0000
0010
0100
0010
0000
1000
0100
0010
0001
2000
0000
0000
,  // measure 4
3010
0000
0000
1000
0100
0000
0000
0010
0001
0000
0000
0100
0010
0000
1000
0000
,  // measure 5
0010
0000
0000
0010
0100
0000
0000
0001
0010
0000
0000
0100
1000
0000
0100
0000
,  // measure 6
0010
0000
0000
0001
0100
0000
1000
0000
0100
0000
0000
0010
0001
0000
0010
0000
,  // measure 7
0100
0000
0000
0001
1000
0000
0100
0000
1000
0000
0000
0100
0010
0100
0000
0010
,  // measure 8
0001
0000
0000
1000
0010
0000
0000
0100
0001
0000
0000
0010
0100
0000
1000
0000
,  // measure 9
0001
0000
0000
0001
0010
0000
0000
0100
1000
0000
0000
0001
0100
0000
0010
0000
,  // measure 10
0100
0000
0000
0001
1000
0000
0100
0000
0010
0000
0000
0100
0010
0000
0001
0000
,  // measure 11
0100
0000
0000
0010
1000
0000
0001
0000
0100
0000
0010
1000
0001
2000
0000
0000
,  // measure 12
3100
0000
0000
1000
0010
0000
0100
0000
0001
0000
0000
0010
0100
0000
0010
0000
,  // measure 13
0100
0000
0000
1000
0001
0000
0000
0100
0010
0100
0000
0001
0010
0000
0100
0000
,  // measure 14
0000
1000
0010
0000
0100
0000
0001
0000
0010
0000
0000
0100
1000
0000
0010
0000
,  // measure 15
0100
0000
0001
0000
0000
1000
0100
0000
1000
0000
0001
0000
0010
0000
0100
1000
,  // measure 16
0100
0000
0000
0010
0001
0000
0100
0000
0010
0000
0000
0100
1000
0000
0100
0000
,  // measure 17
0010
0000
0100
0000
0000
0010
0001
0000
0010
0000
0100
0000
0010
0000
0001
0000
,  // measure 18
0000
0010
1000
0000
0100
0000
0001
0000
0100
0000
0000
1000
0001
0000
0010
0000
,  // measure 19
1000
0000
0010
0100
0010
0000
1001
0000
0110
0000
1000
0010
0100
0002
0000
0010
,  // measure 20
0013
0001
0000
0001
0100
0000
0010
0000
1000
0100
0000
0100
0010
0000
0001
0000
,  // measure 21
1000
0010
0000
0010
0100
0000
0001
0000
0010
0100
0000
1000
0002
0100
0000
0100
,  // measure 22
0103
0000
0010
1000
0000
1000
0100
0000
0010
0000
0100
0010
0000
0010
0001
0000
,  // measure 23
0010
0000
0100
1000
0000
1000
0001
0000
0100
0000
0010
1000
0000
1000
0100
0010
,  // measure 24
0100
0000
1000
0001
1000
0000
0010
0000
0100
0000
0001
0010
0001
0000
0100
0000
,  // measure 25
0010
0000
1000
0100
1000
0100
1000
0000
0101
0000
0010
0001
0010
0200
0000
1000
,  // measure 26
1300
0010
0000
0010
0100
0000
0001
0000
1000
0100
0000
0100
0010
0000
0001
0000
,  // measure 27
0010
0100
0000
0100
1000
0000
0100
0000
0010
0001
0000
0001
1000
0001
0000
0100
,  // measure 28
0001
0000
0001
0010
0000
0010
0100
0000
1000
0000
0010
0100
0000
0100
0001
0000
,  // measure 29
1000
0000
0010
1000
0000
1000
0100
0000
0010
0000
0001
1000
0001
1000
0001
0000
,  // measure 30
0100
0000
0010
0001
0010
0000
0100
0000
0010
0000
1000
0001
1000
0000
0010
0000
,  // measure 31
0200
0000
0000
0000
0000
0000
0301
0100
0000
0010
0000
1000
0010
0100
0001
0100
,  // measure 32
0001
0000
0000
0010
0100
0000
0010
0000
0000
0001
1000
0000
0000
0001
0100
0000
,  // measure 33
0010
0000
0000
0100
0010
0000
1000
0000
0000
0100
0001
0100
0000
1000
0010
1000
,  // measure 34
0100
0000
0000
0100
0010
0000
0001
0000
0100
0001
0100
0000
0001
0010
0001
0000
,  // measure 35
1000
0000
0000
0010
0100
0000
1000
0000
0100
0010
0001
0010
0100
0010
0100
0000
,  // measure 36
2002
0000
0000
3000
,  // measure 37
0200
0000
0000
0000
0000
0300
0000
0010
,  // measure 38
2003
0000
0100
0000
0010
0001
0010
0000
,  // measure 39
3200
0000
1000
0000
0001
0010
0001
0010
,  // measure 40
2300
0000
0001
0001
0000
0100
0000
0001
0000
0100
0100
0000
0001
0000
0010
0000
,  // measure 41
3002
0000
1000
1000
0000
0010
0000
1000
0000
0010
0010
0000
0103
0000
1001
0000
,  // measure 42
0020
0000
0001
0001
0000
1000
0000
0001
0000
1000
1000
0000
0100
0000
0001
0000
,  // measure 43
0230
0000
0010
0010
0000
0001
0000
0010
0000
1300
0100
0010
0001
0000
1001
0000
;
