#VERSION:0.83;
#TITLE:Houston;
#SUBTITLE:(KIRINJI Re-Arranged ver);
#ARTIST:KIRINJI;
#TITLETRANSLIT:;
#SUBTITLETRANSLIT:;
#ARTISTTRANSLIT:;
#GENRE:SHIBUYA CHILL;
#ORIGIN:;
#TAGS:;
#CREDIT:YonabearCWY;
#BANNER:Houston (KIRINJI Re-Arranged ver).png;
#BACKGROUND:Houston (KIRINJI Re-Arranged ver)-bg.png;
#PREVIEWVID:;
#JACKET:Houston (KIRINJI Re-Arranged ver)-jacket.png;
#CDIMAGE:;
#DISCIMAGE:;
#LYRICSPATH:;
#CDTITLE:Katamari Forever.png;
#MUSIC:Houston (KIRINJI Re-Arranged ver).ogg;
#OFFSET:-12.150000;
#SAMPLESTART:67.456818;
#SAMPLELENGTH:15.000000;
#SELECTABLE:YES;
#BPMS:0.000000=170.000000
,318.000000=160.000000
,318.500000=155.000000
,319.000000=150.000000
,319.500000=145.000000
;
#STOPS:;
#DELAYS:;
#WARPS:;
#TIMESIGNATURES:0.000000=4=4
;
#TICKCOUNTS:0.000000=4
;
#COMBOS:0.000000=1
;
#SPEEDS:0.000000=1.000000=0.000000=0
;
#SCROLLS:0.000000=1.000000
;
#FAKES:;
#LABELS:0.000000=Song Start
;
#BGCHANGES:0.000=water3.mp4=1.000=1=0=1===CrossFade==,
16.000=text8.mp4=1.000=0=0=1=====,
32.000=amoeba1.mp4=1.000=0=0=1=====,
48.000=bluey2.mp4=1.000=0=0=1=====,
56.000=water1.mp4=1.000=0=0=1=====,
64.000=rain2.mp4=1.000=0=0=1=====,
80.000=ring3.mp4=1.000=0=0=1=====,
88.000=water1r.mp4=1.000=0=0=1=====,
96.000=water3.mp4=1.000=0=1=1=StretchRewind====,
112.000=text8.mp4=1.000=0=1=1=StretchRewind====,
120.000=water1.mp4=1.000=0=1=1=StretchRewind====,
128.000=fish1.mp4=1.000=0=0=1=====,
144.000=fish2.mp4=1.000=0=0=1=====,
152.000=water1r.mp4=1.000=0=1=1=StretchRewind====,
159.500=ring6.mp4=1.000=0=0=1=====,
168.000=water2.mp4=1.000=0=0=1=====,
176.000=bubble2.mp4=1.000=0=0=1=====,
192.000=water1.mp4=1.000=0=1=1=StretchRewind====,
200.000=water1r.mp4=1.000=0=1=1=StretchRewind====,
208.000=amoeba1.mp4=1.000=0=1=1=StretchRewind====,
216.000=bluey2.mp4=1.000=0=1=1=StretchRewind====,
224.000=fish1.mp4=1.000=0=1=1=StretchRewind====,
240.000=fish2.mp4=1.000=0=1=1=StretchRewind====,
256.000=water3.mp4=1.000=0=1=1=StretchRewind====,
272.000=text8.mp4=1.000=0=1=1=StretchRewind====,
288.000=water1.mp4=1.000=0=1=1=StretchRewind====,
296.000=water1r.mp4=1.000=0=1=1=StretchRewind====,
304.000=ring3.mp4=1.000=0=1=1=StretchRewind====,
312.000=ring6.mp4=1.000=0=1=1=StretchRewind====,
314.000=rain2.mp4=1.000=0=1=1=StretchRewind====,
316.000=bubble2.mp4=1.000=0=1=1=StretchRewind====,
318.000=bluey2.mp4=1.000=0=1=1=StretchRewind====,
320.000=Houston (KIRINJI Re-Arranged ver)-bg.png=1.000=0=0=1=====,
99999=-nosongbg-=1.000=0=0=0 // don't automatically add -songbackground-
;
#KEYSOUNDS:;
#ATTACKS:
;

//---------------dance-single - ----------------
#NOTEDATA:;
#CHARTNAME:CHALLENGE;
#CHARTHASH:991673589;
#STEPSTYPE:dance-single;
#BANNER:;
#DESCRIPTION:;
#CHARTSTYLE:;
#DIFFICULTY:Challenge;
#METER:12;
#METERF:12.000000;
#LASTSECONDHINT:127.655998;
#RADARVALUES:0.599439,0.695339,0.496393,0.356783,0.065927,541.000000,477.000000,64.000000,46.000000,0.000000,0.000000,0.000000,0.000000,0.000000,0.599439,0.695339,0.496393,0.356783,0.065927,541.000000,477.000000,64.000000,46.000000,0.000000,0.000000,0.000000,0.000000,0.000000;
#CREDIT:YonabearCWY;
#NOTES:
// measure 0
1002
0000
0013
0001
0100
0010
1000
0000
,  // measure 1
1200
0000
0310
0100
1000
0100
0001
0000
,  // measure 2
1020
0000
0130
0001
0010
0100
0010
0000
,  // measure 3
0102
0000
1003
0010
0001
0010
0100
0000
,  // measure 4
0210
0000
0000
0000
0301
0000
0100
0000
0010
0000
0100
0000
0001
0100
0000
0000
,  // measure 5
0010
0000
1000
0000
0100
0000
0010
0000
0001
0000
1000
0000
0010
1000
0000
0000
,  // measure 6
0001
0100
0010
1000
0100
0010
0001
0100
,  // measure 7
0010
0000
1000
0000
0001
0000
0010
0000
0100
0000
1000
0000
0001
0010
0001
0000
,  // measure 8
1020
0000
0000
0100
0100
0000
0000
0000
,  // measure 9
1000
0000
0000
0100
0130
0000
0110
0000
,  // measure 10
2001
0000
0000
0010
0010
0000
0000
0000
,  // measure 11
0001
0000
0000
0010
3010
0000
0100
1000
,  // measure 12
0002
0000
0000
1000
1000
0000
0010
0000
,  // measure 13
1000
0000
0000
0010
0013
0000
1001
0000
,  // measure 14
0210
0000
0000
1300
0102
0000
0000
0013
,  // measure 15
2100
0000
0000
3010
1001
0100
0010
0001
,  // measure 16
2010
0000
0100
0100
0100
0000
0001
0000
,  // measure 17
0100
0000
0000
0001
3001
1000
0000
0100
,  // measure 18
0021
0000
1000
1000
1000
0000
0000
0001
,  // measure 19
0001
0000
0100
0000
0031
0100
0110
0000
,  // measure 20
2010
0000
0001
0001
0000
0100
0000
0001
,  // measure 21
3001
0000
0100
0010
1000
0100
0010
0000
,  // measure 22
0012
0000
0000
0013
0101
0000
1010
0000
,  // measure 23
1200
0000
0000
1300
0011
0000
0100
0010
,  // measure 24
1000
0001
0010
0200
0000
0320
0100
0000
,  // measure 25
0031
0000
0010
0100
1000
0000
0011
0000
,  // measure 26
2001
0000
0000
3200
0001
0000
0000
0320
,  // measure 27
0100
0000
0000
1030
0010
0001
0000
0001
,  // measure 28
0100
0010
1000
0010
0010
0000
0101
0000
,  // measure 29
0010
0100
1000
0001
0001
1000
0010
0000
,  // measure 30
2100
0000
0000
3001
0120
0000
0000
1030
,  // measure 31
0201
0000
0000
0310
1100
0001
0100
0010
,  // measure 32
2000
0000
0010
3010
0100
0000
0011
0000
,  // measure 33
2000
0010
0000
3010
0100
0100
0001
0000
,  // measure 34
0012
0000
1000
1003
0001
0000
1100
0000
,  // measure 35
0102
0000
0010
0013
0100
1000
0100
0000
,  // measure 36
1000
0100
0010
0100
0000
0010
0001
0100
,  // measure 37
0000
1000
0100
0000
0010
0001
0000
0010
,  // measure 38
0100
0001
0101
0000
1000
0010
1010
0000
,  // measure 39
0001
0010
0100
1000
0010
0100
0001
2001
,  // measure 40
0000
0010
0010
0000
0000
0010
0000
0010
,  // measure 41
3010
1001
0011
1100
,  // measure 42
0102
1000
1000
0000
0000
1000
1000
0000
,  // measure 43
1003
0010
0110
0000
0001
1000
1010
0000
,  // measure 44
0010
0100
0001
0100
0001
0010
0001
0010
,  // measure 45
0100
0000
1000
0100
0010
0100
0010
0001
,  // measure 46
1000
0000
0010
0100
0001
0000
0010
0001
,  // measure 47
1000
0000
0010
1000
0100
0010
0001
0000
,  // measure 48
0100
0000
0100
0000
0001
0000
0010
0000
0010
0000
0001
0000
1000
0000
0001
0100
,  // measure 49
0020
0000
0000
0000
1000
0000
1000
0000
0000
0000
0001
0000
0000
0000
1030
0010
,  // measure 50
0200
0000
0000
0001
0001
0000
0000
1000
,  // measure 51
1300
0000
0100
0010
0100
0001
1000
0001
,  // measure 52
1002
0100
0100
0000
0000
0100
0000
0100
,  // measure 53
0103
0110
0011
1010
,  // measure 54
2100
0001
0001
0000
0000
0001
0001
0000
,  // measure 55
3001
1000
0100
0010
0011
0000
0001
1000
,  // measure 56
1010
0000
0000
0000
0010
0000
0001
0000
0100
0000
0001
0000
1000
0000
0010
1000
,  // measure 57
0010
0000
0000
0000
0100
0000
0001
0000
0010
0000
0001
0100
0001
0000
1000
0000
,  // measure 58
0010
0000
0000
0000
1000
0100
1000
0000
0010
0000
0100
0000
0001
0000
0010
0000
,  // measure 59
0100
0000
0000
0000
1000
0000
0100
0000
0010
0000
0001
0000
0100
0001
0100
0000
,  // measure 60
0001
0000
0010
0000
0100
0000
1000
0000
0010
0000
0100
0000
0001
0000
0100
0010
,  // measure 61
2000
0000
0000
0000
0001
0000
0001
0000
0000
0000
0100
0000
0000
0000
3010
1000
,  // measure 62
0002
0000
0010
0010
2003
0000
0100
3100
,  // measure 63
1002
0000
0000
0103
0010
0100
0100
0000
,  // measure 64
1001
0010
0001
0200
0000
0010
0310
0000
,  // measure 65
1002
0000
0000
0100
0100
0000
0000
1000
,  // measure 66
1003
0010
0100
0100
0001
0001
0010
0010
,  // measure 67
1100
0011
0101
1010
,  // measure 68
1000
0000
0100
0010
0100
0000
1000
0000
0001
0000
0000
0000
1010
0000
0000
0000
,  // measure 69
0100
0000
0010
0001
0010
0000
0100
0000
1000
0000
0000
0000
0110
0000
0000
0000
,  // measure 70
0001
0000
0010
0000
1000
0010
1000
0000
0010
0000
0001
0000
0100
0010
0100
0000
,  // measure 71
0001
0000
0010
0000
0100
0000
1000
0001
1000
0000
0001
0100
0001
0000
1000
0000
,  // measure 72
0120
0000
1000
1030
0001
0100
0010
0000
,  // measure 73
0201
0000
0000
0010
0000
0000
1300
0000
,  // measure 74
2010
0000
0001
3001
0100
0010
1000
0000
,  // measure 75
0102
0000
0000
1000
0000
0010
0013
0000
,  // measure 76
0100
0001
0010
0001
1000
0001
0001
0000
,  // measure 77
0010
0100
1000
0100
0001
0100
0100
0000
,  // measure 78
1100
1000
0001
0100
0001
0010
0100
1000
,  // measure 79
0010
0100
0001
1000
0100
0010
0001
1000
,  // measure 80
0220
0000
0000
0000
,  // measure 81
0000
0000
0330
0000
;
