#VERSION:0.83;
#TITLE:Heavy Machinery;
#SUBTITLE:;
#ARTIST:Josh Mancell;
#TITLETRANSLIT:;
#SUBTITLETRANSLIT:;
#ARTISTTRANSLIT:;
#GENRE:CORTEX TECHNO;
#ORIGIN:;
#TAGS:;
#CREDIT:YonabearCWY;
#BANNER:Heavy Machinery.png;
#BACKGROUND:Heavy Machinery-bg.png;
#PREVIEWVID:;
#JACKET:Heavy Machinery-jacket.png;
#CDIMAGE:;
#DISCIMAGE:;
#LYRICSPATH:;
#CDTITLE:cdtitle.png;
#MUSIC:Heavy Machinery.ogg;
#OFFSET:-3.310000;
#SAMPLESTART:26.490412;
#SAMPLELENGTH:15.000000;
#SELECTABLE:YES;
#BPMS:0.000000=145.000000
;
#STOPS:;
#DELAYS:;
#WARPS:;
#TIMESIGNATURES:0.000000=4=4
;
#TICKCOUNTS:0.000000=4
;
#COMBOS:0.000000=1
;
#SPEEDS:0.000000=1.000000=0.000000=0
;
#SCROLLS:0.000000=1.000000
;
#FAKES:;
#LABELS:0.000000=Song Start
;
#BGCHANGES:0.000=spikes1.mp4=1.000=1=0=1===CrossFade==,
8.000=spikes2.mp4=1.000=0=0=1=====,
16.000=vortex1.mp4=1.000=0=0=1=====,
24.000=tunnel3.mp4=1.000=0=0=1=====,
32.000=blackhole1.mp4=1.000=0=0=1=====,
40.000=aliens1.mp4=1.000=0=0=1=====,
44.000=aliens2.mp4=1.000=0=0=1=====,
52.000=circle9.mp4=1.000=0=0=1=====,
56.000=bluey1.mp4=1.700=0=0=1=====,
64.000=blizzard4.mp4=1.000=0=0=1=====,
72.000=blizzard5.mp4=1.000=0=0=1=====,
80.000=circle10.mp4=1.000=0=0=1=====,
88.000=wheel4.mp4=1.000=0=0=1=====,
96.000=wheel5.mp4=1.000=0=0=1=====,
104.000=wheel2.mp4=1.300=0=0=1=====,
112.000=spikes1.mp4=1.000=0=1=1=StretchRewind====,
120.000=spikes2.mp4=1.000=0=1=1=StretchRewind====,
128.000=aliens1.mp4=1.000=0=1=1=StretchRewind====,
136.000=aliens2.mp4=1.000=0=1=1=StretchRewind====,
144.000=wheel4.mp4=1.000=0=1=1=StretchRewind====,
152.000=wheel5.mp4=1.000=0=1=1=StretchRewind====,
160.000=Heavy Machinery-bg.png=1.000=0=0=1=====,
99999=-nosongbg-=1.000=0=0=0 // don't automatically add -songbackground-
;
#KEYSOUNDS:;
#ATTACKS:
;

//---------------dance-single - ----------------
#NOTEDATA:;
#CHARTNAME:LIGHT;
#CHARTHASH:1895353930;
#STEPSTYPE:dance-single;
#BANNER:;
#DESCRIPTION:;
#CHARTSTYLE:;
#DIFFICULTY:Easy;
#METER:4;
#METERF:4.000000;
#LASTSECONDHINT:71.172066;
#RADARVALUES:0.219643,0.281875,0.175000,0.325000,0.000000,123.000000,109.000000,14.000000,26.000000,0.000000,0.000000,0.000000,0.000000,0.000000,0.219643,0.281875,0.175000,0.325000,0.000000,123.000000,109.000000,14.000000,26.000000,0.000000,0.000000,0.000000,0.000000,0.000000;
#CREDIT:YonabearCWY;
#NOTES:
1000
0000
1000
1000
,
0001
0000
0001
0001
,
1000
0000
0100
0100
,
0010
0000
0010
0010
,
0100
0000
1000
0001
,
1001
1001
2002
0000
,
3003
0010
0000
0010
,
0100
0000
0100
0001
,
1001
1000
0000
0001
,
1000
0010
0000
0100
,
0110
0001
0000
0001
,
0200
0000
0000
0300
,
0020
0000
0000
0030
,
2002
0000
0000
0000
,
3003
1000
0000
1000
,
0001
0010
1000
0010
,
0001
0100
0000
0100
,
0010
1000
0001
0010
,
0100
0010
0000
0010
,
0002
0000
0000
0003
,
2000
0000
0000
3000
,
0220
0000
0000
0000
,
0330
1000
0001
1000
,
0010
0100
0220
0330
,
0010
0001
1000
0001
,
0100
0010
2002
3003
,
0100
1000
0010
0100
,
0001
0100
0220
0330
,
2000
0010
0010
0010
,
3002
0100
0100
0100
,
1003
0000
1000
0001
,
0010
0000
0100
0010
,
1001
0000
0100
1000
,
0010
0000
0100
0010
,
0001
0000
0010
1000
,
0100
0010
0001
0000
,
2000
0000
3010
0010
,
0200
0000
0301
1000
,
2002
0000
0000
3003
,
0220
0000
0000
0330
,
2002
0000
0000
0000
,
3003
0000
0000
0000
;

//---------------dance-single - ----------------
#NOTEDATA:;
#CHARTNAME:STANDARD;
#CHARTHASH:2744693559;
#STEPSTYPE:dance-single;
#BANNER:;
#DESCRIPTION:;
#CHARTSTYLE:;
#DIFFICULTY:Medium;
#METER:8;
#METERF:8.000000;
#LASTSECONDHINT:71.172066;
#RADARVALUES:0.366071,0.410000,0.212500,0.275000,0.000000,205.000000,188.000000,17.000000,22.000000,0.000000,0.000000,0.000000,0.000000,0.000000,0.366071,0.410000,0.212500,0.275000,0.000000,205.000000,188.000000,17.000000,22.000000,0.000000,0.000000,0.000000,0.000000,0.000000;
#CREDIT:YonabearCWY;
#NOTES:
0100
0000
0100
0010
0001
0000
0010
0000
,
0100
0000
0001
1000
0010
0000
0010
0000
,
1000
0000
0100
1000
0001
0000
0001
0000
,
0200
0000
0000
0301
1000
0010
1000
0000
,
0020
0000
0000
1030
0001
0010
0001
0000
,
0110
1001
0220
0330
,
0001
0000
0100
0010
0000
0100
0010
0000
,
1000
0000
0001
0010
1000
0000
0010
0000
,
1001
0000
0010
0100
0000
0010
0100
0000
,
1000
0000
0010
0100
0001
0000
1000
0000
,
0110
0000
0001
0100
0000
0010
1000
0000
,
0210
0000
0000
0000
,
0020
0000
0000
0300
,
2000
0000
0030
3001
,
1001
0000
0010
0001
0100
0000
0010
0000
,
1000
0010
0001
0010
1000
0000
0010
0000
,
0110
0000
1000
0100
0010
0000
0100
0000
,
0010
0001
1000
0001
0100
0000
0010
0000
,
1001
0000
0010
0100
0001
0000
0010
0000
,
1200
0000
0000
0000
,
0020
0000
0000
0300
,
0002
0000
0030
1003
,
0010
0100
0001
0100
0010
0100
0001
0000
,
0010
0000
0100
1000
0001
0000
0100
0000
,
0010
1000
0100
1000
0001
1000
0100
0000
,
1000
0000
0100
0010
0001
0000
0110
0000
,
0001
0010
1000
0010
0001
0010
0100
0000
,
0010
0000
0100
1000
0001
0000
1001
0000
,
0120
1000
0001
1000
,
0230
0010
0001
0310
,
1002
0000
0000
0013
0001
0100
0001
0000
,
2000
0010
3002
0100
,
1003
0000
0100
0010
0100
0000
0010
0000
,
0001
0010
0100
0010
0100
1000
0001
0000
,
0120
0000
0000
1030
0010
0100
0010
0000
,
0200
0001
0320
1000
,
0230
0000
0001
0000
0310
0100
2000
0000
,
3100
0000
0010
1000
0001
0010
0010
0010
,
1001
0000
0010
0001
0100
1000
0100
0000
,
0010
1000
0100
0001
0100
0000
1000
0001
,
2002
0000
0000
0000
,
3003
0000
0000
0000
;

//---------------dance-single - ----------------
#NOTEDATA:;
#CHARTNAME:HEAVY;
#CHARTHASH:176339604;
#STEPSTYPE:dance-single;
#BANNER:;
#DESCRIPTION:;
#CHARTSTYLE:;
#DIFFICULTY:Hard;
#METER:13;
#METERF:13.000000;
#LASTSECONDHINT:71.172066;
#RADARVALUES:0.607143,0.589375,0.150000,0.300000,0.331250,340.000000,328.000000,12.000000,24.000000,0.000000,0.000000,0.000000,0.000000,0.000000,0.607143,0.589375,0.150000,0.300000,0.331250,340.000000,328.000000,12.000000,24.000000,0.000000,0.000000,0.000000,0.000000,0.000000;
#CREDIT:YonabearCWY;
#NOTES:
// measure 0
0200
0000
0301
1000
1000
0100
0110
0000
,  // measure 1
0020
0000
0031
0010
1000
0010
0010
0100
,  // measure 2
0002
0000
0103
0010
0010
1000
0101
0000
,  // measure 3
2000
0000
0000
0010
3010
1000
0001
0000
,  // measure 4
0020
0000
0000
0100
0130
0010
1000
0010
,  // measure 5
0011
0000
0000
0000
1100
0000
0000
0000
0101
0000
0000
0000
1000
0100
0001
0100
,  // measure 6
2000
0000
0000
3001
0010
0100
1000
0010
,  // measure 7
0001
0000
0010
0000
1000
0000
0001
0000
0200
0000
0000
0000
0301
0010
1000
0010
,  // measure 8
0002
0000
0000
1003
0100
0010
1000
0001
,  // measure 9
0100
0000
1000
0000
0001
0000
0100
0000
0020
0000
0000
0000
1030
0010
0001
0010
,  // measure 10
2000
0000
0000
3001
0100
0010
0001
1000
,  // measure 11
0100
0001
0001
1000
0010
0001
1000
1000
,  // measure 12
0100
0001
0001
1000
0010
0001
1000
1000
,  // measure 13
0100
0000
0200
0000
0000
0000
0310
0000
1000
0000
0100
0000
0001
0100
1000
0100
,  // measure 14
0002
0000
0000
0103
0001
0010
0110
0000
,  // measure 15
0001
1000
0100
0010
0100
0000
0100
0000
0010
0000
0001
0000
1000
0000
0010
0000
,  // measure 16
0021
0000
0000
0000
0000
0000
0130
0000
0010
0000
1000
0000
0100
1000
0000
1000
,  // measure 17
0100
0010
0100
1000
0001
0000
0001
0000
0100
0000
0010
0000
0001
0000
0010
0000
,  // measure 18
2010
0000
0000
3100
0010
0001
1000
0010
,  // measure 19
0001
0000
0010
0000
0100
0010
0100
0000
0001
0000
1000
0000
0010
0100
0010
0000
,  // measure 20
1000
0100
0001
1000
0010
0001
1000
0100
,  // measure 21
0001
0100
0001
0000
0100
1000
0100
0000
1000
0001
1000
0000
0010
0100
0001
1000
,  // measure 22
0002
0010
0013
0001
1000
0010
0001
0010
,  // measure 23
0100
0010
0100
1000
0100
0000
0010
0000
1001
0000
0000
0100
0010
0000
0000
0000
,  // measure 24
0201
0001
0301
0010
1000
0100
0010
0001
,  // measure 25
1000
0001
0100
0010
0100
0000
0001
0000
0010
0000
0100
1000
0001
0000
0000
0000
,  // measure 26
0120
1000
1030
0010
0100
0001
0010
0100
,  // measure 27
1000
0100
0010
0100
0001
0000
0100
0000
1000
0010
0000
0000
0100
0001
0100
0010
,  // measure 28
2000
0000
0100
0000
0001
0001
0001
0000
,  // measure 29
3020
0000
0000
0000
0001
0000
0000
0000
0100
0000
0100
0000
0130
0010
1000
0001
,  // measure 30
0010
0001
0100
1000
0100
0001
1000
0100
,  // measure 31
0010
0100
1000
0100
0001
0000
0100
0000
0010
0001
0010
0100
1000
0000
1000
0000
,  // measure 32
0100
1000
0010
0001
0010
0100
0001
0010
,  // measure 33
0100
1000
0100
0010
0100
0000
0010
0000
0001
1000
0001
0010
0002
0000
0000
0000
,  // measure 34
0103
0010
1000
0010
0100
0001
0010
1000
,  // measure 35
0010
0001
0010
0002
0000
0000
0000
0000
1003
0010
1000
0020
0000
0000
0000
0000
,  // measure 36
0130
0010
0001
0000
0010
0100
0010
0000
1000
0000
0001
0000
0100
0000
1000
0000
,  // measure 37
0100
0000
0001
0010
0001
0000
1000
0000
0100
1000
0000
1000
0100
0010
0100
0010
,  // measure 38
0001
0010
0010
1000
0001
0100
0100
0000
,  // measure 39
1000
0100
0100
0001
1000
0010
0010
0001
,  // measure 40
2002
0000
0000
0000
,  // measure 41
3003
0000
0000
0000
;

//---------------dance-single - ----------------
#NOTEDATA:;
#CHARTNAME:BEGINNER;
#CHARTHASH:1039939452;
#STEPSTYPE:dance-single;
#BANNER:;
#DESCRIPTION:;
#CHARTSTYLE:;
#DIFFICULTY:Beginner;
#METER:3;
#METERF:3.000000;
#LASTSECONDHINT:71.172066;
#RADARVALUES:0.162500,0.205000,0.100000,0.200000,0.000000,91.000000,83.000000,8.000000,16.000000,0.000000,0.000000,0.000000,0.000000,0.000000,0.162500,0.205000,0.100000,0.200000,0.000000,91.000000,83.000000,8.000000,16.000000,0.000000,0.000000,0.000000,0.000000,0.000000;
#CREDIT:YonabearCWY;
#NOTES:
0000
1000
0000
1000
,
0000
0001
0000
0001
,
0000
0010
0000
0010
,
0000
0100
0000
0100
,
0000
0010
0000
0010
,
0100
0100
0100
0000
,
0000
0001
0000
0001
,
0000
0001
0000
0000
,
0000
1000
0000
1000
,
0000
1000
0000
0000
,
0000
0010
0000
0010
,
0220
0000
0000
0330
,
2002
0000
0000
3003
,
0000
0000
0000
0000
,
0000
0100
0000
0100
,
0100
0000
0010
0010
,
0000
0010
0000
0100
,
0100
0000
0100
0100
,
0000
1000
0000
0001
,
0220
0000
0000
0330
,
2002
0000
0000
3003
,
0000
0000
0000
0000
,
0000
0010
0010
0010
,
0010
0000
0010
0000
,
0000
0100
0100
0100
,
0100
0000
0100
0000
,
0000
0001
0001
0001
,
0001
0000
1001
0000
,
0100
0100
0100
0000
,
0010
0010
0010
0000
,
1000
0100
1000
0000
,
0001
0000
0001
0000
,
0001
0100
0001
0000
,
1000
0000
1000
0000
,
0010
1000
0010
0000
,
0100
0100
0100
0000
,
2002
0000
0000
3003
,
0010
0001
0100
1000
,
0220
0000
0000
0330
,
2000
3000
0002
0003
,
2002
0000
0000
0000
,
3003
0000
0000
0000
;

//---------------dance-double - ----------------
#NOTEDATA:;
#CHARTNAME:LIGHT;
#CHARTHASH:3144564707;
#STEPSTYPE:dance-double;
#BANNER:;
#DESCRIPTION:;
#CHARTSTYLE:;
#DIFFICULTY:Easy;
#METER:5;
#METERF:5.000000;
#LASTSECONDHINT:71.172066;
#RADARVALUES:0.241071,0.281875,0.187500,0.400000,0.000000,135.000000,120.000000,15.000000,32.000000,0.000000,0.000000,0.000000,0.000000,0.000000,0.241071,0.281875,0.187500,0.400000,0.000000,135.000000,120.000000,15.000000,32.000000,0.000000,0.000000,0.000000,0.000000,0.000000;
#CREDIT:YonabearCWY;
#NOTES:
00000000
00100000
00000000
00100000
,
00001000
00010000
00000100
00000010
,
00000000
00000100
00000000
00000100
,
00010000
00001000
00100000
01000000
,
00000000
10000000
00100000
01000000
,
00011000
00011000
00022000
00000000
,
00033000
00000100
00000010
00000001
,
00000000
00001000
00000010
00000100
,
00020200
00030300
00010000
00001000
,
00100000
00000000
01000000
10000000
,
02020000
03030000
00100000
00001000
,
00022000
00000000
00000000
00033000
,
00000220
00000000
00000000
00000330
,
00020200
00000000
00000000
00030300
,
00010000
00001000
00010000
00100000
,
01000000
00010000
10000000
00100000
,
01000000
00100000
00010000
00001000
,
00010000
00000100
00001000
00000010
,
00000100
00000001
00000010
00000100
,
00022000
00000000
00000000
00033000
,
02200000
00000000
00000000
03300000
,
00202000
00000000
00000000
00303000
,
00001000
00010000
00000100
00000010
,
00000100
00000000
00010000
00001000
,
00100000
01000000
00100000
00010000
,
01000000
00000000
00100000
01000000
,
00001000
00100000
00001000
00010000
,
00000100
00000000
00001000
00000100
,
00000010
00000010
00000001
00000001
,
00001000
00001000
00000010
00000010
,
00020200
00030300
00010000
00001000
,
00200000
00300000
02000000
03000000
,
22000000
33000000
00100000
00001000
,
00020000
00030000
00002000
00003000
,
00020020
00030030
00000100
00001000
,
00000020
00000030
00000200
00000300
,
00000010
00000010
00010000
00010000
,
00000100
00001000
00010000
00100000
,
01000000
01000000
00100000
00100000
,
00001000
00010000
00000100
00000100
,
00002002
00000000
00000000
00000000
,
00003003
00000000
00000000
00000000
;

//---------------dance-double - ----------------
#NOTEDATA:;
#CHARTNAME:STANDARD;
#CHARTHASH:2232838216;
#STEPSTYPE:dance-double;
#BANNER:;
#DESCRIPTION:;
#CHARTSTYLE:;
#DIFFICULTY:Medium;
#METER:9;
#METERF:9.000000;
#LASTSECONDHINT:71.172066;
#RADARVALUES:0.412500,0.410000,0.212500,0.312500,0.000000,231.000000,214.000000,17.000000,25.000000,0.000000,0.000000,0.000000,0.000000,0.000000,0.412500,0.410000,0.212500,0.312500,0.000000,231.000000,214.000000,17.000000,25.000000,0.000000,0.000000,0.000000,0.000000,0.000000;
#CREDIT:YonabearCWY;
#NOTES:
00010000
00000000
00001000
00100000
00010000
00000000
00100000
00000000
,
01000000
00000000
00100000
00001000
00010000
00001000
00000100
00000010
,
00000100
00000000
00000001
00001000
00000010
00000000
00000100
00000000
,
00000010
00000000
00001000
00000100
00010000
00001000
00100000
00010000
,
00100000
00000000
00010000
01000000
10000000
01000000
00100000
00000000
,
01100000
00110000
00022000
00000000
,
00033000
00000000
00001000
00000100
00000000
00001000
00000010
00000000
,
00000100
00000001
00000010
00000100
00001000
00000000
00000100
00000000
,
00011000
00000000
00100000
00010000
00000000
00100000
00010000
00000000
,
01000000
00100000
10000000
01000000
00100000
00000000
00001000
00000000
,
00011000
00000000
00000100
00001000
00000000
00000001
00000100
00000000
,
00000010
00001000
00000100
00001000
00000100
00010000
00000200
00000000
,
00010300
00001000
00010000
00100000
01000000
00100000
00020000
00000000
,
00130000
10000000
00000000
10000000
00100000
00000000
02200000
00000000
,
03300000
00000000
01000000
00010000
00100000
00010000
00001000
00000000
,
00000100
00000000
00001000
00000001
00000001
00001000
00000001
00000000
,
00000010
00000000
00000100
00001000
00000100
00010000
00000100
00000000
,
00001000
00000000
00010000
00100000
00100000
01000000
10000000
00000000
,
01010000
00000000
00100000
00010000
00001000
00010000
01000000
00010000
,
00001000
00000000
00000100
00001000
00000010
00000000
00000100
00000001
,
00000020
00002030
00003200
00020300
,
00032000
00100000
00010000
01003000
,
00110000
00000000
01000000
00100000
00000000
10000000
00100000
00000000
,
01000000
00000000
00010000
00100000
00001000
00000000
00011000
00000000
,
00001010
00000000
00000100
00000001
00000000
00001000
00000010
00000000
,
00000100
00000000
00001000
00010000
00100000
00000000
01100000
00000000
,
11000000
00000000
00100000
00010000
00000000
01000000
00010000
00000000
,
00100000
00001000
00010000
00000100
00000010
00000000
00000110
00000000
,
00000102
00001000
00000010
00001003
,
00000020
00010000
00000100
00020030
,
00031000
00100000
00010000
00000000
01000000
00010000
10000000
00000000
,
00200000
01300000
00020000
00130000
,
00001000
00010000
00000100
00000010
00000100
00000000
00001000
00000000
,
00000002
00001003
00000200
00000310
,
00000100
00010000
00001000
00010000
00100000
01000000
00010000
00000000
,
20000000
30100000
00020000
01030000
,
20020000
00000000
00000000
30030000
,
00100000
01000000
00010000
00100000
00010000
00001000
00000200
00000000
,
00001300
00000000
00000010
00000001
00000010
00000000
00001100
00000000
,
00010000
00001000
00010000
00100000
01000000
10000000
01000000
00010000
,
20020000
00000000
00000000
00000000
,
30030000
00000000
00000000
00000000
;

//---------------dance-double - ----------------
#NOTEDATA:;
#CHARTNAME:HEAVY;
#CHARTHASH:3033330632;
#STEPSTYPE:dance-double;
#BANNER:;
#DESCRIPTION:;
#CHARTSTYLE:;
#DIFFICULTY:Hard;
#METER:13;
#METERF:13.000000;
#LASTSECONDHINT:71.172066;
#RADARVALUES:0.642857,0.615000,0.312500,0.250000,0.325000,360.000000,335.000000,25.000000,20.000000,0.000000,0.000000,0.000000,0.000000,0.000000,0.642857,0.615000,0.312500,0.250000,0.325000,360.000000,335.000000,25.000000,20.000000,0.000000,0.000000,0.000000,0.000000,0.000000;
#CREDIT:YonabearCWY;
#NOTES:
00001000
00000100
00000000
00000100
00001000
00000000
00000010
00000000
00010000
00000000
00001000
00000000
00020000
00000000
00000000
00000000
,
00031000
00000000
00100000
00000000
00010000
01000000
00000000
01000000
00010000
00000000
00100000
00000000
01000000
00000000
00100000
00000000
,
00100000
00000000
00001000
00000000
00010000
00001000
00010000
00000000
00000100
00000000
00001000
00000000
00000020
00000000
00000000
00000000
,
00000130
00000000
00001000
00000000
00010000
00001000
00010000
00000000
00001000
00000000
00100000
00000000
00100000
00000000
00010000
00000000
,
01000000
00000000
00100000
00000000
10000000
01000000
00000000
01000000
00100000
00000000
00001000
00000000
00010000
00000000
00001000
00000000
,
00001100
00000000
00000000
00000000
00000110
00000000
00000000
00000000
00000001
00000010
00000001
00000000
00001000
00000100
00001000
00000100
,
00010000
00001000
00000100
00001000
00010000
00100000
01000000
00010000
,
10000000
00000000
00100000
00000000
00010000
00000000
00100000
00000000
02100000
00000000
00000000
00000000
03010000
01000000
10000000
01000000
,
00010000
00100000
00001000
00000100
00001000
00010000
00001000
00000100
,
00000010
00000000
00000001
00000000
00000010
00000000
00001000
00000000
00002001
00000000
00000000
00000000
00003001
00000010
00001000
00000010
,
00000001
00000100
00000010
00001000
00000100
00010000
00100000
01000000
,
00010000
10000000
10000000
01000000
00010000
00001000
00001000
00100000
,
00001000
00010000
00010000
00000100
00001000
00000010
00000010
00000100
,
00000002
00000000
00000010
00000000
00000000
00000000
00001000
00000000
00001000
00000000
00001003
00000000
00000100
00010000
00001000
00010000
,
00001000
00100000
00101000
00000000
00010000
01000000
11000000
00000000
,
00010000
00100000
10000000
00100000
00010000
00000000
01000000
00000000
00100000
00000000
00100000
00000000
00010000
00000000
00001000
00000000
,
00010000
00000010
00001010
00000000
00000010
00000100
00000101
00000000
,
00001000
00000100
00000001
00000100
00001000
00000000
00000010
00000000
00000100
00000000
00000100
00000000
00010000
00000000
00100000
00000000
,
01000000
10000000
10010000
00000000
01000000
00100000
00101000
00000000
,
00010000
00000100
00000100
00000010
00000001
00001000
00001000
00000010
,
00000100
00000100
00001000
00010000
00100000
00100000
01000000
00010000
,
00010000
00000000
10000000
00000000
00100000
00000000
01000000
00000000
01000000
00000000
00010000
00000000
00100000
00001000
00010000
00001000
,
00010000
00000100
00001100
00000010
00000100
00001000
00001002
00000000
,
00000103
00000010
00000001
00000010
00001000
00000000
00000010
00000000
00000100
00000000
00001000
00000000
00011000
00000000
00000000
00000000
,
00100000
00010000
10010000
00100000
01000000
10000000
10200000
00000000
,
01300000
00100000
10000000
00010000
00100000
00000000
00010000
00000000
01000000
00000000
00100000
00000000
00010000
00000000
00001000
00010000
,
00000100
00001000
00001010
00000100
00000010
00000001
00000201
00000000
,
00000310
00001000
00000100
00001000
00000001
00000000
00000100
00000000
00001000
00000000
00010000
00000000
00100000
00010000
00100000
01000000
,
20000000
00000000
00100000
00000000
01000000
01000000
32000000
00000000
,
03100000
00000000
00001000
00000000
00010000
00000000
00001000
00000000
00000100
00001000
00000000
00000100
00000000
00000010
00000100
00000000
,
00001002
00000000
00000013
00000001
00000100
00001000
00000120
00000000
,
00010030
00000100
00001000
00000100
00001000
00000000
00000100
00000000
00010000
00001000
00010000
00001000
00100000
00000000
00010000
00000000
,
01200000
00000000
10300000
01000000
00100000
00010000
02010000
00000000
,
03010000
01000000
00010000
01000000
00001000
00000000
00100000
00000000
00001000
00010000
00001000
00010000
00000010
00000000
00001000
00000000
,
00000100
00000000
00000010
00000000
00000011
00000000
00000001
00001000
00000100
00000000
00001000
00000000
00001200
00000000
00000000
00000000
,
00010300
00000100
00000000
00000100
00010000
00000000
00001000
00000000
00100000
00000000
00010000
00000000
01000000
00100000
10000000
01000000
,
00100000
00010000
01000000
00010000
00120000
00000000
00000000
00000000
,
00130000
00001000
00000000
00001000
00100000
00000000
00001000
00000000
00010000
00000000
00000100
00000000
00000010
00000100
00001000
00000100
,
00000020
00000000
00000031
00000010
00001000
00000010
00000200
00000000
,
00001300
00010000
00100000
01000000
00100000
00010000
10000000
00000000
,
02200000
00000000
00000000
00000000
,
03300000
00000000
00000000
00000000
;
