#VERSION:0.83;
#TITLE:ホノホノ;
#SUBTITLE:;
#ARTIST:YASHI♪GANI;
#TITLETRANSLIT:HONO HONO;
#SUBTITLETRANSLIT:;
#ARTISTTRANSLIT:YASHI GANI;
#GENRE:UKULELE;
#ORIGIN:;
#TAGS:;
#CREDIT:YonabearCWY;
#BANNER:HONO HONO.png;
#BACKGROUND:HONO HONO-bg.png;
#PREVIEWVID:;
#JACKET:HONO HONO-jacket.png;
#CDIMAGE:;
#DISCIMAGE:;
#LYRICSPATH:;
#CDTITLE:pop'n music.png;
#MUSIC:HONO HONO.ogg;
#OFFSET:-4.650000;
#SAMPLESTART:45.780857;
#SAMPLELENGTH:15.000000;
#SELECTABLE:YES;
#BPMS:0.000000=210.000000
;
#STOPS:;
#DELAYS:;
#WARPS:;
#TIMESIGNATURES:0.000000=4=4
;
#TICKCOUNTS:0.000000=4
;
#COMBOS:0.000000=1
;
#SPEEDS:0.000000=1.000000=0.000000=0
;
#SCROLLS:0.000000=1.000000
;
#FAKES:;
#LABELS:0.000000=Song Start
;
#BGCHANGES:0.000=water3.mp4=1.000=1=0=1===CrossFade==,
16.000=text8.mp4=1.000=0=0=1=====,
24.000=room1.mp4=1.000=0=0=1=====,
32.000=water3.mp4=1.000=0=1=1=StretchRewind====,
48.000=fish1.mp4=1.000=0=0=1=====,
56.000=water2.mp4=1.000=0=0=1=====,
64.000=rotation5.mp4=1.000=0=0=1=====,
80.000=fish2.mp4=1.000=0=0=1=====,
96.000=seaweed1.mp4=1.400=0=0=1=====,
112.000=wave2.mp4=1.000=0=0=1=====,
128.000=rotation5.mp4=1.000=0=1=1=StretchRewind====,
136.000=fish1.mp4=1.000=0=1=1=StretchRewind====,
137.500=fish2.mp4=1.000=0=1=1=StretchRewind====,
139.000=tropical1.mp4=2.000=0=0=1=====,
144.000=water1.mp4=1.000=0=0=1=====,
160.000=text8.mp4=1.000=0=1=1=StretchRewind====,
168.000=room1.mp4=1.000=0=1=1=StretchRewind====,
176.000=water1.mp4=1.000=0=1=1=StretchRewind====,
192.000=fish1.mp4=1.000=0=1=1=StretchRewind====,
200.000=water2.mp4=1.000=0=1=1=StretchRewind====,
208.000=tropical1.mp4=0.500=0=1=1=StretchRewind====,
224.000=fish1.mp4=1.000=0=1=1=StretchRewind====,
240.000=fish2.mp4=1.000=0=1=1=StretchRewind====,
256.000=wave2.mp4=1.000=0=1=1=StretchRewind====,
264.000=seaweed1.mp4=1.400=0=1=1=StretchRewind====,
280.000=pills3.mp4=1.000=0=0=1=====,
296.000=ring13.mp4=1.000=0=0=1=====,
312.000=pills3.mp4=1.000=0=1=1=StretchRewind====,
328.000=ring6.mp4=1.000=0=0=1=====,
344.000=water2.mp4=1.000=0=1=1=StretchRewind====,
356.000=tropical1.mp4=1.600=0=1=1=StretchRewind====,
360.000=water1.mp4=1.000=0=1=1=StretchRewind====,
368.000=fish1.mp4=1.000=0=1=1=StretchRewind====,
369.500=fish2.mp4=1.000=0=1=1=StretchRewind====,
371.000=tropical1.mp4=2.000=0=1=1=StretchRewind====,
375.000=tropical2.mp4=1.000=0=0=1=====,
384.000=HONO HONO-bg.png=1.000=0=0=1=====,
99999=-nosongbg-=1.000=0=0=0 // don't automatically add -songbackground-
;
#KEYSOUNDS:;
#ATTACKS:
;

//---------------dance-single - ----------------
#NOTEDATA:;
#CHARTNAME:BASIC;
#CHARTHASH:2324877875;
#STEPSTYPE:dance-single;
#BANNER:;
#DESCRIPTION:;
#CHARTSTYLE:;
#DIFFICULTY:Easy;
#METER:7;
#METERF:7.000000;
#LASTSECONDHINT:114.364288;
#RADARVALUES:0.000000,0.000000,0.000000,0.000000,0.000000,0.000000,0.000000,0.000000,0.000000,0.000000,0.000000,0.000000,0.000000,0.000000,0.000000,0.000000,0.000000,0.000000,0.000000,0.000000,0.000000,0.000000,0.000000,0.000000,0.000000,0.000000,0.000000,0.000000;
#CREDIT:YonabearCWY;
#NOTES:
1000
0000
1000
0000
,
1000
0000
0001
0100
,
0001
0000
0001
0000
,
0001
0000
1000
0010
,
1000
0000
0000
0000
,
1000
0000
0000
0000
,
0001
0000
0000
0000
,
0001
0000
0000
0000
,
0100
0000
0100
0000
,
0010
0100
0001
0000
,
0010
0000
0010
0000
,
0100
1000
0001
0000
,
0100
0000
0000
0000
,
0100
0000
0000
0000
,
0010
0000
0000
0000
,
0010
0000
0000
0000
,
1000
0000
1000
0000
,
1000
0000
1000
0100
,
0010
0000
0010
0000
,
0010
0000
0010
0001
,
1000
0000
1000
0000
,
1000
0000
1000
0001
,
0100
0000
0100
0000
,
0100
0000
0100
0001
,
0010
0000
0010
0000
,
0010
0000
0010
0001
,
1000
0000
1000
0000
,
1000
0000
1000
0001
,
0100
0000
0110
0000
,
0100
0010
1000
0001
,
1000
0000
1001
0000
,
0001
1000
0001
0100
,
0010
0000
0110
0000
,
0100
0000
0110
0000
,
0001
0000
0000
1000
0000
0000
0001
0000
,
0000
1000
0000
0000
0001
0000
0100
0000
,
0110
0000
0010
0000
,
0010
1000
0010
0000
,
0110
0000
0100
0000
,
0100
0001
0100
0000
,
2002
0000
3003
0000
,
0220
0000
0330
0000
,
2010
0000
0010
0000
,
0010
0000
3010
0000
,
1001
0000
0001
0000
,
0001
0010
0001
0000
,
1100
0000
1000
0000
,
1000
0010
1000
0000
,
0220
0000
0330
0000
,
0022
0000
0033
0000
,
2200
0000
3300
0000
,
0101
0000
1001
0000
,
0210
0000
0010
0000
,
0310
0000
0000
0000
,
0010
0100
0010
0100
,
2002
0000
3003
0000
,
0120
0000
0100
0000
,
0130
0000
0000
0000
,
1000
0000
0000
0001
0000
0000
1000
0000
,
2002
0000
3003
0000
,
0001
0100
0001
0000
,
0100
0001
0100
0000
,
0001
0000
0001
0000
,
0001
0000
0001
0000
,
1000
0010
1000
0000
,
0010
1000
0010
0000
,
1000
0000
1000
0000
,
1000
0000
1000
0000
,
0001
0000
0001
0000
,
0001
0000
0001
0000
,
1001
0000
0000
0000
,
0001
0100
0001
0000
,
1001
0000
0000
0000
,
1000
0010
1000
0000
,
0220
0000
0000
0330
,
2002
0000
0000
3003
,
0010
0000
0000
0000
,
0010
0000
0000
0000
,
0110
0000
1000
0010
,
1000
0000
0100
0010
,
0100
0000
0010
0001
,
0010
0000
0001
0100
,
0001
0000
0001
0000
,
0001
0000
0000
0000
,
0010
0000
0010
0000
,
0010
0000
0000
0000
,
0100
0000
0100
0000
,
0100
0000
0000
0000
,
1000
0000
1000
0000
,
1001
0000
0110
0000
,
2001
0000
0010
0000
,
0010
0000
3010
0000
,
1000
0000
0000
0001
0000
0000
1000
0000
,
0000
0001
0000
0000
1000
0000
2002
0000
,
0000
0000
0000
0000
,
0000
0000
0000
3000
,
1003
0000
0000
0000
;

//---------------dance-single - ----------------
#NOTEDATA:;
#CHARTNAME:DIFFICULT;
#CHARTHASH:3361840113;
#STEPSTYPE:dance-single;
#BANNER:;
#DESCRIPTION:;
#CHARTSTYLE:;
#DIFFICULTY:Medium;
#METER:10;
#METERF:10.000000;
#LASTSECONDHINT:114.364288;
#RADARVALUES:0.000000,0.000000,0.000000,0.000000,0.000000,0.000000,0.000000,0.000000,0.000000,0.000000,0.000000,0.000000,0.000000,0.000000,0.000000,0.000000,0.000000,0.000000,0.000000,0.000000,0.000000,0.000000,0.000000,0.000000,0.000000,0.000000,0.000000,0.000000;
#CREDIT:YonabearCWY;
#NOTES:
1000
0010
1000
0010
,
0100
0000
0000
0001
0000
0000
0010
0000
,
0100
0010
0100
1000
,
0001
0000
0000
1000
0000
0000
0001
0000
,
0100
0000
0000
0010
0000
0000
1000
0000
,
0100
0010
0001
0000
,
0110
0000
0000
1001
0000
0000
0100
0000
,
0010
0100
0110
0000
,
0001
0010
0001
1000
,
0010
0000
0000
0100
0000
0000
0010
0000
,
1000
0100
1000
0001
,
0100
0000
0000
1000
0000
0000
0100
0000
,
0010
0000
0000
0100
0000
0000
0010
0000
,
0001
0000
0000
0010
0000
0000
0100
0000
,
1001
0000
0000
0110
0000
0000
1000
0000
,
0001
1000
1001
0000
,
0102
0000
0010
0000
,
0010
0000
0013
0000
,
2100
0000
0010
0000
,
0010
0000
3010
0000
,
1002
0100
0010
0000
,
0010
0100
0013
0000
,
2001
0100
0010
0000
,
0100
0010
3100
0000
,
0010
1000
0010
0000
,
0100
0001
0100
0000
,
0010
0001
0010
0000
,
0100
1000
0100
0000
,
0011
0000
0000
0001
0000
0000
0100
0000
,
0010
1000
1010
0000
,
1100
0000
0000
0010
0000
0000
0100
0000
,
0001
0010
0011
0000
,
2001
0000
0001
0000
,
0100
0000
3001
0000
,
0001
1000
0000
0001
1000
0000
0100
0010
,
0000
0100
0010
0000
0001
0000
0100
0000
,
1000
0100
0001
0000
,
0100
0010
0100
0010
,
1000
0010
0001
0000
,
0010
0100
0010
0100
,
0001
0000
0000
1000
0000
0000
0010
0000
,
1000
0000
0000
0100
0000
0000
0010
0000
,
0001
1000
0010
0001
,
0010
1000
0001
0100
,
0001
0010
0100
0000
,
1000
0000
0000
0100
0000
0000
0010
0000
,
0001
1000
0100
0000
,
0010
0000
0000
0001
0000
0000
0100
0000
,
1000
0100
0001
0100
,
0010
1000
0001
1000
,
0010
0000
0010
0000
,
0100
0000
0100
0000
,
2001
0000
0001
0000
,
0002
0000
3003
0000
,
1002
1000
0010
0010
,
2000
0000
3003
0000
,
0210
0000
1000
0000
,
0001
0000
1300
0000
,
0120
0000
0001
0000
,
1000
0000
0031
0000
,
1000
0100
1000
0000
,
0100
0010
0100
0000
,
0010
0001
0010
0000
,
0001
0100
0001
0000
,
0100
0010
0100
0010
,
1000
0001
1000
0001
,
0010
0000
0000
0010
0000
0000
0010
0000
,
0100
1000
0001
0100
,
1000
0000
0000
1000
0000
0000
1000
0000
,
0100
0010
1000
0001
,
0010
0000
0010
0000
,
0010
0000
0100
0000
,
0100
0000
0100
0000
,
0001
0000
0001
0000
,
0001
0000
1000
0000
,
1000
0000
1000
0000
,
0110
0000
0110
0000
,
1000
1000
0001
0001
,
0110
0000
0100
0000
,
0100
0000
0001
0000
,
0001
0000
0001
0000
,
0010
0000
0010
0000
,
0010
0000
1000
0000
,
1000
0000
1000
0000
,
0010
0010
1001
0000
,
0100
0010
0100
0000
,
0001
0001
0110
0000
,
1000
1000
0110
0000
,
0001
0000
0001
0000
,
1000
0000
0000
0010
0000
0000
0100
0000
,
0001
0010
0100
0000
,
1000
0100
0010
0000
,
0001
1000
0000
0001
1000
0000
0010
0100
,
0000
0010
0100
0000
0001
0000
2002
0000
,
0000
0000
0000
0000
,
0000
0000
0000
0003
,
3001
0000
0000
0000
;

//---------------dance-single - ----------------
#NOTEDATA:;
#CHARTNAME:EXPERT;
#CHARTHASH:721066009;
#STEPSTYPE:dance-single;
#BANNER:;
#DESCRIPTION:;
#CHARTSTYLE:;
#DIFFICULTY:Hard;
#METER:13;
#METERF:13.000000;
#LASTSECONDHINT:114.364288;
#RADARVALUES:0.601089,0.832849,0.563908,0.355696,0.004338,485.000000,420.000000,65.000000,41.000000,0.000000,0.000000,0.000000,0.000000,0.000000,0.601089,0.832849,0.563908,0.355696,0.004338,485.000000,420.000000,65.000000,41.000000,0.000000,0.000000,0.000000,0.000000,0.000000;
#CREDIT:YonabearCWY;
#NOTES:
// measure 0
1000
0000
0001
0100
0000
0001
0100
0000
,  // measure 1
0010
0000
1000
0100
0000
1000
0001
0000
,  // measure 2
0100
0000
0010
0100
0000
0010
0100
0000
,  // measure 3
0001
0000
0010
0001
0000
1000
0010
0000
,  // measure 4
2100
0000
0000
3001
0000
0100
0001
0000
,  // measure 5
0012
0000
0000
0103
0000
0010
1000
0000
,  // measure 6
0110
0000
1000
0001
0000
0010
0100
0000
,  // measure 7
0000
1000
0001
0000
0100
0000
0001
0000
,  // measure 8
0010
0000
0100
1000
0000
0100
1000
0000
,  // measure 9
0010
0000
0100
0001
0000
0010
0001
0000
,  // measure 10
0100
0000
0001
1000
0000
0001
1000
0000
,  // measure 11
0010
0000
1000
0100
0000
0010
0001
0000
,  // measure 12
0210
0000
0000
1300
0000
0010
0100
0000
,  // measure 13
0012
0000
0000
0103
0000
0010
0001
0000
,  // measure 14
1010
0000
0100
0001
0000
1000
0020
0000
,  // measure 15
0000
1030
0001
1000
0001
1000
0001
0100
,  // measure 16
0020
0000
0000
1000
1000
0000
0000
0001
,  // measure 17
0001
0000
0000
0100
0130
0000
0000
0000
,  // measure 18
2001
0000
0000
0100
0100
0000
0000
0010
,  // measure 19
0010
0000
0000
0001
3001
0000
0000
0000
,  // measure 20
0012
0000
0000
1000
1000
0000
0000
0010
,  // measure 21
0010
0000
0000
0100
0103
0000
0000
0000
,  // measure 22
1200
0000
0000
0010
0010
0000
0000
1000
,  // measure 23
1000
0000
0000
0001
0301
0000
0100
0000
,  // measure 24
1002
0000
0000
0103
0020
0000
0000
1030
,  // measure 25
0200
0000
0000
0310
0020
0000
0030
0000
,  // measure 26
2001
0000
0000
3100
0020
0000
0000
0031
,  // measure 27
0200
0000
0000
0010
0310
0000
1000
0000
,  // measure 28
0102
0000
0000
1000
0000
1003
0010
0000
,  // measure 29
0100
0000
0001
0010
0001
0000
0100
0000
,  // measure 30
2100
0000
0000
0010
0000
3010
0100
0000
,  // measure 31
1000
0000
0100
0001
0100
0000
1000
0000
,  // measure 32
0110
0000
1000
0000
0020
0000
0000
0100
,  // measure 33
0000
0130
0000
0001
0010
0000
0100
0000
,  // measure 34
1010
1010
0000
0101
0101
0000
0011
0011
,  // measure 35
0000
1100
1100
0000
0010
0000
0100
0000
,  // measure 36
1001
0010
0100
0010
,  // measure 37
0100
0000
0001
0010
0000
0001
0100
0000
,  // measure 38
0010
1000
0100
1000
,  // measure 39
0010
0000
0100
0001
0000
1000
0010
0000
,  // measure 40
0210
0000
0000
0301
0000
0010
0100
0000
,  // measure 41
1000
0000
0100
0010
0000
0001
0100
0000
,  // measure 42
0010
0000
1000
0100
0000
0010
0002
0000
,  // measure 43
0000
1003
0001
1000
0001
0000
0010
0000
,  // measure 44
0110
1000
0001
0010
,  // measure 45
0001
0000
0100
0010
0000
1000
0100
0000
,  // measure 46
0010
0001
1000
0010
,  // measure 47
0100
0000
0001
0010
0000
0100
0010
0000
,  // measure 48
2100
0000
0000
3001
0000
0010
0001
0000
,  // measure 49
0100
0000
0010
1000
0000
0001
0100
0000
,  // measure 50
0010
0000
1000
0100
0000
0010
0002
0000
,  // measure 51
0000
0103
0010
0100
0010
1000
0001
1000
,  // measure 52
0002
0000
0000
0010
0010
0000
0000
0000
,  // measure 53
1000
0000
0010
0010
,  // measure 54
0103
0100
0010
1000
,  // measure 55
0100
0010
1001
0000
,  // measure 56
2100
0000
0000
0010
0010
0000
0000
0100
,  // measure 57
3100
1000
0001
0100
,  // measure 58
0102
0000
0000
1000
0000
0000
0013
0000
,  // measure 59
2001
0000
3001
0100
,  // measure 60
0202
0303
2020
3030
,  // measure 61
0202
0000
0303
1000
0010
1000
0010
0000
,  // measure 62
0100
0100
0001
0001
,  // measure 63
0010
0010
0100
1000
,  // measure 64
2200
3300
0022
0033
,  // measure 65
2200
0000
3300
0001
0011
0000
0100
0000
,  // measure 66
1001
0000
0010
0100
0000
0010
0100
0000
,  // measure 67
0000
1000
0100
0010
0001
0000
0100
0000
,  // measure 68
0110
0000
1000
0001
0000
1000
0001
0000
,  // measure 69
0100
0001
0010
0001
,  // measure 70
0100
0101
0100
0110
,  // measure 71
0100
0000
0001
1000
0000
0001
1000
0000
,  // measure 72
0100
1100
0100
0110
,  // measure 73
0100
0000
1000
0001
0000
1000
0001
0000
,  // measure 74
0100
0000
0001
0010
0000
0010
0100
0000
,  // measure 75
1000
0000
0100
0010
0000
0010
1000
0000
,  // measure 76
0010
0001
0010
0001
1000
0010
1000
0010
,  // measure 77
0100
1001
1001
0010
,  // measure 78
1000
1010
1000
1001
,  // measure 79
1000
0000
0010
0100
0000
0100
0001
0000
,  // measure 80
0010
0011
0010
0110
,  // measure 81
0010
0000
0001
0100
0000
0100
0010
0000
,  // measure 82
1000
0000
0001
0100
0000
0010
1000
0000
,  // measure 83
0100
0000
0010
0001
0000
1000
0010
0000
,  // measure 84
0110
0000
0001
0010
0000
0010
0100
0000
,  // measure 85
1000
0000
0010
1000
0010
0000
1000
0000
,  // measure 86
1100
0000
1000
0100
0000
0100
0010
0000
,  // measure 87
0011
0000
1000
0001
1000
0000
0010
0000
,  // measure 88
0110
0000
1000
0001
0000
0010
0100
0000
,  // measure 89
1100
0000
0000
1001
0000
0000
0110
0000
,  // measure 90
0100
0000
0001
0010
0001
0000
1000
0000
,  // measure 91
0010
1000
0010
1000
0100
0000
1000
0000
,  // measure 92
0101
0101
0000
1010
1010
0000
0110
0110
,  // measure 93
0000
1001
1001
0000
0010
0000
0220
0000
,  // measure 94
0000
0000
0000
0000
,  // measure 95
0000
0000
0000
0000
0000
0000
0000
0000
0000
0000
0030
0000
0000
0000
0301
1000
,  // measure 96
0001
0000
0000
0000
;

//---------------dance-single - ----------------
#NOTEDATA:;
#CHARTNAME:BEGINNER;
#CHARTHASH:2367968651;
#STEPSTYPE:dance-single;
#BANNER:;
#DESCRIPTION:;
#CHARTSTYLE:;
#DIFFICULTY:Beginner;
#METER:4;
#METERF:4.000000;
#LASTSECONDHINT:114.364288;
#RADARVALUES:0.000000,0.000000,0.000000,0.000000,0.000000,0.000000,0.000000,0.000000,0.000000,0.000000,0.000000,0.000000,0.000000,0.000000,0.000000,0.000000,0.000000,0.000000,0.000000,0.000000,0.000000,0.000000,0.000000,0.000000,0.000000,0.000000,0.000000,0.000000;
#CREDIT:YonabearCWY;
#NOTES:
1000
0000
0000
0000
,
1000
0000
0000
0000
,
1000
0000
0000
0000
,
0001
0000
0000
0000
,
0001
0000
0000
0000
,
0001
0000
0000
0000
,
1001
0000
0000
0000
,
0000
0000
0000
0000
,
0100
0000
0000
0000
,
0100
0000
0000
0000
,
0100
0000
0000
0000
,
0010
0000
0000
0000
,
0010
0000
0000
0000
,
0010
0000
0000
0000
,
0110
0000
0000
0000
,
0000
0000
0000
0000
,
1000
0000
1000
0000
,
1000
0000
0000
0000
,
1000
0000
1000
0000
,
1000
0000
0000
0000
,
0001
0000
0001
0000
,
0001
0000
0000
0000
,
0001
0000
0001
0000
,
0001
0000
0000
0000
,
0100
0000
0100
0000
,
0100
0000
0000
0000
,
0100
0000
0100
0000
,
0100
0000
0000
0000
,
0010
0000
0010
0000
,
0010
0000
0000
0000
,
0010
0000
0010
0000
,
0010
0000
0000
0000
,
1000
0000
0001
0000
,
1000
0000
0000
0000
,
0001
0000
1000
0000
,
0001
0000
0000
0000
,
1000
0000
0000
0000
,
1000
0000
0000
0000
,
1000
0000
0000
0000
,
0001
0000
0000
0000
,
0001
0000
0000
0000
,
0001
0000
0000
0000
,
1001
0000
0000
0000
,
0000
0000
0000
0000
,
0100
0000
0000
0000
,
0100
0000
0000
0000
,
0100
0000
0000
0000
,
0010
0000
0000
0000
,
0010
0000
0000
0000
,
0010
0000
0000
0000
,
0110
0000
0000
0000
,
0000
0000
0000
0000
,
0001
0000
0001
0000
,
0001
0000
0000
0000
,
0001
0000
0001
0000
,
0001
0000
0000
0000
,
1000
0000
1000
0000
,
1000
0000
0000
0000
,
1000
0000
1000
0000
,
1000
0000
0000
0000
,
0010
0000
0010
0000
,
0010
0000
0000
0000
,
0010
0000
0010
0000
,
0010
0000
0000
0000
,
0100
0000
0100
0000
,
0100
0000
0000
0000
,
0100
0000
0100
0000
,
0100
0000
0000
0000
,
0001
0000
1000
0000
,
0001
0000
0000
0000
,
1000
0000
0000
0000
,
1000
0000
0000
0000
,
1000
0000
0000
0000
,
0100
0000
0000
0000
,
0100
0000
0100
0000
,
0100
0000
0100
0000
,
0110
0000
0000
0000
,
0000
0000
0000
0000
,
0001
0000
0000
0000
,
0001
0000
0000
0000
,
0001
0000
0000
0000
,
0010
0000
0000
0000
,
0010
0000
0010
0000
,
0010
0000
0010
0000
,
0110
0000
0000
0000
,
1000
0000
1000
0000
,
1001
0000
0000
0000
,
0001
0000
0001
0000
,
1001
0000
0000
0000
,
0100
0000
0100
0000
,
0110
0000
0000
0000
,
0010
0000
0000
0000
,
1000
0000
0001
0000
,
1000
0000
0000
2002
,
0000
0000
0000
0000
,
0000
0000
0000
0000
,
3003
0000
0000
0000
;

//---------------dance-double - ----------------
#NOTEDATA:;
#CHARTNAME:BASIC;
#CHARTHASH:1914708146;
#STEPSTYPE:dance-double;
#BANNER:;
#DESCRIPTION:;
#CHARTSTYLE:;
#DIFFICULTY:Easy;
#METER:7;
#METERF:7.000000;
#LASTSECONDHINT:114.364288;
#RADARVALUES:0.000000,0.000000,0.000000,0.000000,0.000000,0.000000,0.000000,0.000000,0.000000,0.000000,0.000000,0.000000,0.000000,0.000000,0.000000,0.000000,0.000000,0.000000,0.000000,0.000000,0.000000,0.000000,0.000000,0.000000,0.000000,0.000000,0.000000,0.000000;
#CREDIT:YonabearCWY;
#NOTES:
00010000
00000000
00010000
00000000
,
00010000
00000000
00000000
00000000
,
00001000
00000000
00001000
00000000
,
00001000
00000000
00000000
00000000
,
00100000
00000000
00010000
00000000
,
01000000
00000000
00100000
00000000
,
10000000
01000000
10000000
00000000
,
00010000
01000000
00001000
00000000
,
00010000
00000000
00010000
00000000
,
00010000
00000000
00000000
00000000
,
00001000
00000000
00001000
00000000
,
00001000
00000000
00000000
00000000
,
00010000
00000000
00000100
00000000
,
00000010
00000000
00000100
00000000
,
00001000
00000010
00001000
00000000
,
00000010
00010000
00001000
00000000
,
00011000
00000000
00010000
00000000
,
00010000
00000000
00010000
00000000
,
00011000
00000000
00001000
00000000
,
00001000
00000000
00001000
00000000
,
02002000
00000000
00000000
03003000
,
10000000
00100000
10000000
00000000
,
02200000
00000000
00000000
03300000
,
00100000
00001000
00100000
00000000
,
00011000
00000000
00010000
00000000
,
00010000
00000000
00010000
00000000
,
00011000
00000000
00001000
00000000
,
00001000
00000000
00001000
00000000
,
00020200
00000000
00000000
00030300
,
00000100
00000010
00000100
00000000
,
00000022
00000000
00000000
00000033
,
00001000
00000010
00001000
00000000
,
00010010
00000000
00010000
00000000
,
00011000
00000000
00001000
00000000
,
00001000
00000000
00000000
00100000
00000000
00000000
00001000
00000000
,
00000000
00100000
00000000
00000000
00010000
00000000
10000000
00000000
,
00010000
00000000
00010000
00000000
,
00010000
00000000
00000000
00000000
,
10000000
00000000
10000000
00000000
,
10000000
00000000
00000000
00000000
,
01000000
00000000
00100000
00000000
,
00001000
00000000
00010000
00000000
,
00000100
00000000
00000100
00000000
,
00000100
00000000
00000100
00000000
,
00000010
00000000
00000010
00000000
,
00000010
00000000
00000000
00000000
,
00000100
00000000
00000100
00000000
,
00000100
00000000
00000000
00000000
,
00010000
00000000
00001000
00000000
,
00010000
00000000
00100000
00000000
,
01000000
00000000
01000000
00000000
,
01000000
00000000
01000000
00000000
,
20020000
00000000
00000000
00000000
,
30030000
00000000
00000000
00000000
,
00022000
00000000
00000000
00000000
,
00033000
00000000
00000000
00000000
,
00002002
00000000
00000000
00000000
,
00003003
00000000
00000000
00000000
,
00022000
00000000
00000000
00000000
,
00033000
00000000
00000000
00000000
,
01000000
00000000
01000000
00000000
,
01000000
00100000
01000000
00000000
,
00001000
00000000
00001000
00000000
,
00001000
00010000
00001000
00000000
,
00000100
00000000
00000110
00000000
,
00000010
00000000
00000110
00000000
,
00010000
00000000
00010000
00000000
,
00001000
00010000
00001000
00000000
,
00010000
00000000
00010000
00000000
,
00001000
00100000
01000000
10000000
,
01000000
00000000
01000000
00000000
,
01000000
00000000
01000000
10000000
,
01000000
00000000
10000000
00000000
,
10000000
00000000
10000000
00010000
,
10000000
00000000
00010000
00000000
,
00010000
00000000
00010000
01000000
,
00010000
00000000
00010000
00000000
,
00010000
00000000
00100000
00001000
,
00100000
00000000
00100000
00000000
,
00100000
00000000
00001000
00100000
,
00001000
00000000
00001000
00000000
,
00001000
00000000
00010000
00001000
,
00010000
00000000
00010000
00000000
,
00010000
00000000
00001000
00000000
,
00000100
00000000
00000100
00000000
,
00000100
00000000
00000010
00000000
,
00001000
00000000
00001000
00000000
,
00001000
00000000
00000010
00000000
,
00000100
00000000
00000100
00000000
,
00000110
00000000
00000000
00000010
00000000
00000000
00010000
00000000
,
00001000
00000000
00001000
00000000
,
00010000
00000000
00001000
00000000
,
00010000
00000000
00000000
00000100
00000000
00000000
00010000
00000000
,
00000000
00000010
00000000
00000000
00000100
00000000
00022000
00000000
,
00000000
00000000
00000000
00000000
,
00000000
00000000
00000000
00003000
,
00031000
00000000
00000000
00000000
;

//---------------dance-double - ----------------
#NOTEDATA:;
#CHARTNAME:DIFFICULT;
#CHARTHASH:862106598;
#STEPSTYPE:dance-double;
#BANNER:;
#DESCRIPTION:;
#CHARTSTYLE:;
#DIFFICULTY:Medium;
#METER:10;
#METERF:10.000000;
#LASTSECONDHINT:114.364288;
#RADARVALUES:0.000000,0.000000,0.000000,0.000000,0.000000,0.000000,0.000000,0.000000,0.000000,0.000000,0.000000,0.000000,0.000000,0.000000,0.000000,0.000000,0.000000,0.000000,0.000000,0.000000,0.000000,0.000000,0.000000,0.000000,0.000000,0.000000,0.000000,0.000000;
#CREDIT:YonabearCWY;
#NOTES:
00000000
00001000
00000000
00001000
,
00010000
00001000
00100000
00001000
,
01000000
00100000
00000000
00100000
,
01000000
00010000
00100000
00010000
,
00001000
00000100
00000000
00001000
,
00000100
00000010
00000000
00000001
,
00000010
00000100
00000000
00001000
,
00010000
00100000
01000000
10000000
,
00010000
10000000
00000000
10000000
,
00000000
10000000
00100000
01000000
,
00001000
00010000
00000000
00010000
,
00001000
00010000
00000100
00000010
,
00000001
00000010
00000100
00000000
,
00001000
00000100
00010000
00000000
,
00001000
00100000
00010000
01000000
,
00100000
00000000
01100000
00000000
,
20010000
00000000
01000000
00000000
,
00100000
00000000
31000000
00000000
,
00102000
00000000
01000000
00000000
,
00010000
00000000
01003000
00000000
,
00021000
00000000
00000100
00000000
,
00000010
00000000
00030100
00000000
,
00001002
00000000
00000010
00000000
,
00001000
00000000
00000013
00000000
,
00020100
00001000
00001000
00000000
,
00000100
00001000
00030100
00000000
,
01002000
00100000
00010000
00000000
,
00010000
00100000
00013000
00000000
,
00010000
00001000
00010000
00001000
,
00100000
00010000
00100000
00000000
,
00001000
00010000
00001000
00010000
,
00000100
00001000
00000100
00000000
,
00001001
00000000
00001000
00000000
,
00000010
00000000
00010000
00000000
,
00001000
00010000
00000000
00001000
00010000
00000000
00100000
01000000
,
00000000
00100000
01000000
00000000
00010000
00000000
10000000
00000000
,
01000000
00100000
00010000
01000000
,
00010000
00000000
00100000
00000000
,
00001000
00010000
00001000
00000100
,
00000010
00000000
00000100
00000000
,
00001002
00000010
00000010
00000000
,
00000010
00000000
00000013
00000000
,
00002001
00000100
00000100
00000000
,
00000100
00000000
00003100
00000000
,
00001000
00000100
00000010
00000100
,
00010000
00000000
00001000
00000000
,
00010000
00100000
01000000
00100000
,
00001000
00000000
00100000
00000000
,
20010000
00100000
00100000
00000000
,
01000000
00000000
31000000
00000000
,
10020000
01000000
01000000
00000000
,
00100000
00000000
00130000
00000000
,
00012000
00000000
00010000
00000000
,
00020000
00000000
00033000
00000000
,
00010000
00000100
00000010
00000100
,
00010000
00000100
00010000
00000000
,
00021000
00000000
00001000
00000000
,
00002000
00000000
00033000
00000000
,
00001000
00100000
01000000
00100000
,
00001000
00010000
00001000
00010000
,
02100000
00000000
10000000
00000000
,
00010000
00000000
13000000
00000000
,
00100000
01000000
00001000
01000000
,
00001000
00010000
00001000
00010000
,
00000110
00000000
00001001
00000000
,
00001100
00000000
00010010
00000000
,
00011000
00000000
00000000
00001000
00000000
00000000
00001000
00000000
,
00010000
00100000
01000000
10000000
,
10010000
00000000
00000000
00010000
00000000
00000000
00010000
00000000
,
01000000
00001000
00010000
00000100
,
00001000
00000010
00001000
00000000
,
00000001
00000100
00000001
00000000
,
00000100
00000010
00000100
00000000
,
00000010
00010000
00000010
00000000
,
00010000
00000000
00010000
00000000
,
00001000
00000000
00001000
00000000
,
00010000
00100000
01000000
00010000
,
10000000
00010000
01000000
00100000
,
00010000
00001000
00010000
00000000
,
00001000
01000000
00001000
00000000
,
01000000
00100000
01000000
00000000
,
00010000
10000000
00010000
00000000
,
00100000
00000000
00100000
00000000
,
01000000
00000000
01000000
00000000
,
00101000
00000000
00001000
00000000
,
00011000
00000000
00010000
00000000
,
00010100
00000000
00010000
00000000
,
00010010
00000000
00000010
00000000
,
00000110
00001000
00000001
00000000
,
00000110
00000000
00000000
00000001
00000000
00000000
00001000
00000000
,
00000010
00010000
00000010
00010000
,
00001000
00100000
00010000
01000000
,
00010000
00100000
00000000
00010000
00100000
00000000
00001000
00010000
,
00000000
00001000
00010000
00000000
00001000
00000000
00022000
00000000
,
00000000
00000000
00000000
00000000
,
00000000
00000000
00000000
00003000
,
00031000
00000000
00000000
00000000
;

//---------------dance-double - ----------------
#NOTEDATA:;
#CHARTNAME:EXPERT;
#CHARTHASH:1152368885;
#STEPSTYPE:dance-double;
#BANNER:;
#DESCRIPTION:;
#CHARTSTYLE:;
#DIFFICULTY:Hard;
#METER:13;
#METERF:13.000000;
#LASTSECONDHINT:114.364288;
#RADARVALUES:0.000000,0.000000,0.000000,0.000000,0.000000,0.000000,0.000000,0.000000,0.000000,0.000000,0.000000,0.000000,0.000000,0.000000,0.000000,0.000000,0.000000,0.000000,0.000000,0.000000,0.000000,0.000000,0.000000,0.000000,0.000000,0.000000,0.000000,0.000000;
#CREDIT:YonabearCWY;
#NOTES:
00011000
00001000
00100000
00010000
,
00100000
00000000
00001000
00000000
00010000
00000100
00001000
00000000
,
00000100
00010000
00000100
00001000
,
00000010
00000000
00010000
00000000
00001000
00100000
00010000
00000000
,
10010000
00000000
01000000
00100000
00010000
00000000
00100000
00000000
,
01000000
00000000
10000000
01000000
00100000
00000000
01000000
00000000
,
00110000
00000000
00100000
01000000
00000000
01000000
00010000
00000000
,
00001000
00010000
00001000
00000000
00011000
00000000
00010000
00000000
,
00000100
00000010
00000100
00001000
,
00000100
00000000
00010000
00000000
00001000
00100000
01000000
00000000
,
00100000
00001000
00010000
00100000
,
01000000
00000000
00001000
00000000
00010000
00000100
00000010
00000000
,
00000110
00000000
00000001
00000010
00000100
00000000
00000010
00000000
,
00000001
00000000
00001000
00000100
00000010
00000000
00000100
00000000
,
00001100
00000000
00000100
00010000
00000000
00010000
00001000
00000000
,
00001000
00100000
00001000
00100000
00010000
01000000
00010000
01000000
,
00100000
00000000
00000000
00100000
10000000
00000000
00000000
00010000
,
01000000
00000000
00000000
00001000
00010000
00000000
00000100
00000000
,
00000010
00000000
00000000
00000010
00000001
00000000
00000000
00001000
,
00000010
00000000
00000000
00010000
00001000
00000000
00100000
00000000
,
01100000
00000000
10000000
01000000
00000000
01000000
10000000
00000000
,
00100000
00000000
01000000
00010000
01000000
00000000
00001000
00000000
,
00010000
00000000
00000100
00010000
00000100
00000000
00001000
00000010
,
00000000
00000100
00000000
00000001
00001000
00000000
00000010
00000000
,
00000110
00000000
00000001
00000010
00000000
00000010
00000001
00000000
,
00001000
00000000
00000010
00000100
00000010
00000000
00010000
00000000
,
00000100
00000000
00010000
00001000
00000000
00001000
00010000
00000000
,
00001000
00100000
00001000
00000000
00100000
00000000
00010000
00000000
,
01000000
00000000
10000000
01000000
10000000
00000000
01000000
00000000
,
00010000
00000000
00100000
00001000
00100000
00000000
00001000
00000000
,
00010000
00000000
00000100
00001000
00000100
00000000
00010000
00000000
,
00000010
00000000
00000100
00000010
00000100
00000000
00000000
00000001
,
00001000
00000000
00000000
00000100
00000010
00000000
00000000
00000100
,
00010000
00000000
00000000
00001000
00100000
00000000
00000000
00000000
,
01000000
11000000
00000000
01000000
01010000
00000000
00100000
00101000
,
00000000
00001000
00011000
00000000
00010100
00000000
00000110
00000000
,
00001002
00000100
00000010
00000100
,
00001003
00000000
00000001
00000010
00000000
00000010
00000100
00000000
,
00021000
00000100
00000010
00000100
,
00031000
00000000
00100000
00001000
00000000
00001000
00010000
00000000
,
01010000
00000000
00100000
10000000
00000000
00000000
10000000
00000000
,
01100000
00000000
00100000
00001000
00100000
00000000
00001000
00000000
,
00011000
00000000
00000100
00010000
00000100
00000000
00001000
00000000
,
00000010
00000001
00000010
00000000
00000100
00000000
00001000
00000000
,
00012000
00100000
00010000
01000000
,
00013000
00000000
00001000
00010000
00000000
00010000
01000000
00000000
,
02100000
00010000
10000000
00010000
,
03100000
00000000
00010000
10000000
00000000
10000000
00100000
00000000
,
01010000
00000000
00010000
00100000
00000000
00000000
00001000
00000000
,
00011000
00000000
00010000
00000100
00010000
00000100
00001000
00000000
,
00000010
00000000
00000100
00000001
00000100
00000000
00000001
00000000
,
00000010
00000100
00000010
00000000
00000100
00000000
00001000
00000000
,
00010000
00100000
01000000
10000000
,
00120000
00000000
10000000
00130000
,
10100000
10100000
01010000
01010000
,
00021000
00000000
00030100
00010000
,
00001000
00000100
00000010
00000100
,
00001000
00000100
00000001
00000100
,
00001100
00000000
00000000
00000100
00000000
00000000
00010000
00000000
,
00022000
00000000
00033000
00000000
,
00001000
00000000
00100000
00010000
00000000
00000000
01000000
00000000
,
10000000
00000000
01000000
00100000
00000000
00000000
01000000
00000000
,
00110000
00110000
00011000
00011000
,
00001100
00000010
00000001
00001000
,
00000210
00000000
00000000
00000301
00000020
00000000
00000000
00000130
,
00002000
00000000
00000000
00013000
02000000
00000000
00000000
03100000
,
00020000
00000000
00000000
10000000
00000000
00000000
10030000
00000000
,
00100000
10000000
00100000
10000000
01000000
00000000
00010000
00000000
,
00021000
00000000
00000000
00000100
00000000
00000000
00030100
00000000
,
00001100
00001100
00001001
00001001
,
00000010
00000001
00000100
00000001
,
00001000
00000000
00000010
00000000
00001000
00000100
00010000
00000100
,
00010000
00001000
00100000
01000000
,
00100000
00000000
01000000
00000000
10000000
00100000
01000000
00100000
,
01000000
00000000
00010000
01000000
00000000
01000000
00001000
00000000
,
00100000
00000000
00001000
00010000
00000000
00010000
00000100
00000000
,
00001000
00000010
00001000
00000010
00000100
00000010
00000000
00000100
,
00000000
00000001
00000000
00000010
00000100
00000000
00010000
00000000
,
00001000
00100000
00010000
01000000
,
10000000
00000000
01000000
00000000
00010000
00100000
00010000
00100000
,
00001000
00010000
00001000
00000100
,
00000010
00000000
00001000
00000000
00000001
00001000
00000001
00001000
,
00000010
00000000
00000100
00000001
00000000
00000001
00000010
00000000
,
00000100
00000000
00010000
00001000
00000000
00001000
00100000
00000000
,
00110000
00000000
00010000
10000000
00000000
10000000
01000000
00000000
,
01100000
00000000
00100000
00001000
00100000
00000000
00001000
00010000
,
00001000
00000000
00010000
00000100
00000000
00000100
00000010
00000000
,
00001001
00000000
00000010
00000100
00000020
00000000
00000000
00000000
,
00000130
00000010
00010000
00001000
,
00011000
00000000
00000000
00101000
00000000
00000000
10010000
00000000
,
01100000
00000000
10000000
00100000
00000000
00100000
01000000
00000000
,
01000000
00010000
01000000
00000000
00101000
00000000
00001000
00000000
,
00010000
00010100
00000000
00000100
00000110
00000000
00000010
00010010
,
00000000
00010000
00011000
00000000
00001000
00000000
00022000
00000000
,
00000000
00000000
00000000
00000000
,
00000000
00000000
00000000
00000000
00000000
00000000
00000000
00000000
00000000
00000000
00030000
00000000
00000000
00000000
00013000
00001000
,
00010000
00000000
00000000
00000000
;
