#TITLE:HELP ME DR. DICK;
#SUBTITLE:;
#ARTIST:E-ROTIC;
#TITLETRANSLIT:;
#SUBTITLETRANSLIT:;
#ARTISTTRANSLIT:;
#GENRE:EURODANCE;
#CREDIT:YonabearCWY;
#BANNER:HELP ME DR. DICK.png;
#BACKGROUND:HELP ME DR. DICK-bg.png;
#LYRICSPATH:;
#CDTITLE:Dance Mania 3.png;
#MUSIC:HELP ME DR. DICK.ogg;
#OFFSET:-0.450000;
#SAMPLESTART:39.031506;
#SAMPLELENGTH:19.650654;
#SELECTABLE:YES;
#BPMS:0.000000=103.050003
;
#STOPS:
;
#BGCHANGES:;
#KEYSOUNDS:;
#ATTACKS:;

//---------------dance-single - ----------------
#NOTES:
     dance-single:
     BASIC:
     Easy:
     3:
     0.000000,0.000000,0.000000,0.000000,0.000000,0.000000,0.000000,0.000000,0.000000,0.000000,0.000000,0.000000,0.000000,0.000000,0.000000,0.000000,0.000000,0.000000,0.000000,0.000000,0.000000,0.000000:
0000
0000
0000
0000
,
0000
0000
0000
0000
,
0000
0000
0000
0000
,
0000
0000
0000
0000
,
1000
0000
0000
0000
,
1000
0000
0000
0000
,
0001
0000
0000
0000
,
0001
0000
0000
0000
,
1000
1000
1000
0000
,
1000
1000
1000
0000
,
1000
0000
1000
0000
,
1001
0000
0000
0000
,
0001
0001
0001
0000
,
0001
0001
0001
0000
,
0001
0000
0001
0000
,
0001
0001
1001
0000
,
0110
0000
0000
0000
,
1000
1000
1000
0000
,
1000
0000
0000
0000
,
0001
0001
0001
0000
,
1001
1001
0110
0000
,
0100
0100
0100
0000
,
0100
0000
0000
0000
,
0010
0010
0010
0000
,
0110
0110
1001
0000
,
1000
0000
0000
0000
,
1000
0000
0000
0000
,
0001
0000
0000
0000
,
0001
0001
1000
1000
,
0010
0000
0000
0000
,
0010
0000
0000
0000
,
0100
0000
0000
0000
,
0100
0100
0010
0010
,
1001
0000
0000
0000
,
0010
0010
0010
0000
,
0110
0000
0000
0000
,
1000
1000
1000
0000
,
1001
0000
0000
0000
,
0010
0000
0000
0000
,
0100
0000
0000
0000
,
0010
0000
0000
0000
,
1001
0000
0000
0000
;

//---------------dance-single - ----------------
#NOTES:
     dance-single:
     DIFFICULT:
     Medium:
     7:
     0.000000,0.000000,0.000000,0.000000,0.000000,0.000000,0.000000,0.000000,0.000000,0.000000,0.000000,0.000000,0.000000,0.000000,0.000000,0.000000,0.000000,0.000000,0.000000,0.000000,0.000000,0.000000:
0000
0000
0000
0000
,
0000
0000
0000
0000
,
0000
0000
0000
0000
,
0000
0000
0000
0000
,
1000
0000
1000
0000
1000
0001
1000
0000
,
0001
0000
0001
0000
0001
1000
0001
0000
,
0100
0000
0100
0000
0100
0010
0100
0000
,
0011
1100
0101
1010
,
0010
0000
0010
0000
0010
0000
0100
0001
,
0100
0000
0100
0000
0100
0000
0010
1000
,
0010
0000
0010
0000
0010
0000
1000
0001
,
1000
0000
1000
0000
0001
1000
1001
0000
,
0010
0000
0010
0000
0010
0010
1001
0000
,
0100
0000
0100
0000
0100
0100
1001
0000
,
0100
0000
0010
0000
0100
0010
0110
0000
,
0010
0000
0100
0000
0010
0010
0100
0100
,
1001
0000
0000
0000
,
1000
0000
1000
0000
1000
0000
1000
0100
,
0001
0000
0001
0000
0001
0000
0001
0100
,
1000
0000
1000
0000
1000
0000
1000
0010
,
1010
1010
0101
0101
,
0010
0000
0010
0000
0010
0000
0010
1000
,
0100
0000
0100
0000
0100
0000
0100
1000
,
0010
0000
0010
0000
0010
0000
0010
0100
,
0101
0101
1010
1010
,
1000
0100
1000
0000
1000
1000
1000
0000
,
0001
0100
0001
0000
0001
0001
0001
0000
,
0010
0100
0010
0000
0010
0010
0010
0010
,
0110
1100
0101
0011
,
0100
0001
0100
0000
0100
0100
0100
0000
,
0010
1000
0010
0000
0010
0010
0010
0000
,
1000
0001
1000
0000
1000
1000
1000
1000
,
1010
0110
0101
0011
,
0010
0100
0010
0100
0000
1000
0000
1000
,
0000
0001
0000
0001
0000
0100
0001
0100
,
0010
0100
0000
0010
0000
1000
0000
0010
,
0000
0100
0000
0001
0000
0100
0001
1000
,
0110
0000
0000
0000
0000
0000
0000
1000
,
1010
0000
0000
0000
0000
0000
0000
0001
,
0011
0000
0000
0000
0000
0000
0000
0100
,
0110
0000
0000
0000
0000
0000
1000
0001
,
1001
0000
0000
0000
;

//---------------dance-single - ----------------
#NOTES:
     dance-single:
     EXPERT:
     Hard:
     13:
     0.000000,0.000000,0.000000,0.000000,0.000000,0.000000,0.000000,0.000000,0.000000,0.000000,0.000000,0.000000,0.000000,0.000000,0.000000,0.000000,0.000000,0.000000,0.000000,0.000000,0.000000,0.000000:
0000
0000
0000
0000
,
0000
0000
0000
0000
,
0000
0000
0000
0000
,
0000
0000
0000
0000
,
1000
0100
1000
0100
0010
0000
0001
0000
0010
0000
0100
0000
0001
0000
0100
0010
,
0001
1000
0001
1000
0010
0000
0100
0000
0010
0000
1000
0000
0100
0000
1000
0100
,
1000
0100
0010
0100
1000
0000
0001
0000
0100
0000
0001
0000
0100
0000
1000
0000
,
0100
1000
0100
0000
0010
0100
0010
0000
1000
0001
0000
0001
1000
0000
1010
0000
,
1100
0000
0000
0100
0100
0000
0000
0100
0100
0000
0000
1000
0001
0000
0100
0000
,
1000
0000
0000
1000
1000
0000
0000
1000
0100
0000
0001
0000
0100
0000
0010
0000
,
1000
0010
1000
0000
0001
0100
0001
0000
1000
0100
1000
0000
0001
0010
0001
0000
,
0001
0100
0001
1000
0010
1000
0100
0010
0001
0010
0100
0000
1100
0000
1000
0001
,
0100
0000
0000
0010
0010
0000
0000
0100
0100
0100
0010
0010
1000
0000
0001
1000
,
0010
0000
0100
0000
0010
0000
1000
0001
1000
0001
1000
0000
0101
0000
0001
1000
,
0010
0000
0000
0010
0010
0000
0000
0010
0010
0000
1000
0000
1100
0000
1000
0001
,
0100
0000
0000
0100
0100
0000
0000
0100
0100
0100
0001
0001
1000
0000
0010
0000
,
0110
0000
0000
0000
,
1001
0000
1000
0000
0010
0000
0000
1000
0001
0000
0000
0001
1000
0000
0100
0000
,
0001
0000
0100
0000
1000
0000
0010
1000
0000
0000
0000
1000
0100
0000
0000
0010
,
0100
0000
1000
0000
0100
0000
0010
0100
0000
0000
1000
0010
0100
0100
0001
0000
,
0101
0000
0000
0100
1000
0000
0000
1000
0010
0000
0000
0010
0100
0000
0100
0001
,
0000
0000
0001
0000
1000
0000
0000
1000
0001
0000
0000
0010
0100
0000
0010
0000
,
0100
0000
1000
0000
0001
0000
0100
0010
0000
0000
0010
0000
1000
0000
0001
0000
,
0100
0000
0100
0000
0010
0100
1001
0000
0000
0000
0001
1000
0100
0100
0010
0000
,
1010
0000
0000
1000
0100
0000
0000
0100
0001
0000
0000
0001
0100
0000
0000
0100
,
1000
0000
1000
0100
0000
0100
1000
0010
1000
0010
1000
0010
0100
0000
0100
0000
,
0001
0000
0001
0010
0000
0010
0001
1000
0001
1000
0001
0100
0001
0000
0001
0000
,
1000
0000
0001
1000
0000
1000
0001
0001
1000
1000
0010
0010
0100
0000
0101
0000
,
0001
1000
0001
0000
1000
0001
1000
0000
0001
0100
0001
0000
0100
0010
0100
0000
,
0010
0000
0010
1000
0000
1000
0100
0001
0100
1000
0100
0010
0100
0000
1000
0000
,
0100
0000
1000
0100
0000
0100
1000
0010
1000
0001
1000
0100
1000
0000
0010
0000
,
0100
0000
0001
0010
0000
0010
0001
0001
1000
1000
0010
0010
0100
0000
0110
0000
,
0010
1000
0010
0000
1000
0100
1000
0000
0001
1000
0000
0000
1000
0000
1010
0000
,
0010
0100
0010
1010
0000
1000
0000
0101
,
0000
0001
0000
1001
0000
1000
0100
0001
,
0100
1000
0010
0001
0000
0110
0000
0010
,
0000
0000
1010
0000
0000
0000
1000
0000
0001
0100
0000
0010
1000
0010
1000
0010
,
1000
0000
0010
0010
0000
0000
0010
0010
0000
0000
0010
0010
1000
0100
1000
0000
,
0001
0000
0100
0100
0000
0000
0100
0100
0000
0000
0100
0100
0001
1000
0001
0100
,
0001
0000
0010
0010
0000
0000
0010
0010
0000
0000
0010
0010
0001
0000
1000
0000
,
0100
0100
0000
0000
1001
0000
1000
1000
0010
0010
1000
1000
0001
0000
1001
0000
,
0110
0000
0000
0000
;

//---------------dance-single - ----------------
#NOTES:
     dance-single:
     BEGINNER:
     Beginner:
     1:
     0.000000,0.000000,0.000000,0.000000,0.000000,0.000000,0.000000,0.000000,0.000000,0.000000,0.000000,0.000000,0.000000,0.000000,0.000000,0.000000,0.000000,0.000000,0.000000,0.000000,0.000000,0.000000:
0000
0000
0000
0000
,
0000
0000
0000
0000
,
0000
0000
0000
0000
,
0000
0000
0000
0000
,
1000
0000
0000
0000
,
1000
0000
0000
0000
,
1000
0000
0000
0000
,
0000
0000
0000
0000
,
0001
0000
0001
0000
,
0001
0000
0000
0000
,
1000
0000
1000
0000
,
1000
0000
0000
0000
,
0001
0000
0001
0000
,
0001
0000
0000
0000
,
1000
0000
1000
0000
,
1000
0000
0000
0000
,
0010
0000
0000
0000
,
0100
0100
0100
0000
,
0000
0000
0000
0000
,
0100
0100
0100
0000
,
0000
0000
0000
0000
,
0010
0010
0010
0000
,
0000
0000
0000
0000
,
0010
0010
0010
0000
,
0000
0000
0000
0000
,
1000
0000
0000
0000
,
1000
0000
0000
0000
,
0001
0000
0000
0000
,
0001
0000
0000
0000
,
0100
0000
0000
0000
,
0100
0000
0000
0000
,
0010
0000
0000
0000
,
0010
0000
0000
0000
,
1000
1000
0000
0000
,
1000
1000
0000
0000
,
0001
0001
0000
0000
,
0001
0001
0000
0000
,
1000
0000
0000
0000
,
1000
0000
0000
0000
,
0001
0000
0000
0000
,
0001
0000
0000
0000
,
0100
0000
0000
0000
;

//---------------dance-double - ----------------
#NOTES:
     dance-double:
     DIFFICULT:
     Medium:
     8:
     0.000000,0.000000,0.000000,0.000000,0.000000,0.000000,0.000000,0.000000,0.000000,0.000000,0.000000,0.000000,0.000000,0.000000,0.000000,0.000000,0.000000,0.000000,0.000000,0.000000,0.000000,0.000000:
00000000
00000000
00000000
00000000
,
00000000
00000000
00000000
00000000
,
00000000
00000000
00000000
00000000
,
00000000
00000000
00000000
00000000
,
00010000
00000000
00100000
00000000
01000000
00100000
00001000
00000000
,
00010000
00000000
00000100
00000000
00000010
00000100
00001000
00000000
,
00000010
00000000
00001000
00000000
00000100
00010000
00001000
00000000
,
00011000
00101000
00110000
01100000
,
01000000
00010000
01000000
00000000
00001000
00100000
00001000
00000000
,
00000000
00010000
00000000
00010000
00000000
00001000
00000000
00001000
,
00010000
00000100
00010000
00000000
00000010
00001000
00000010
00000000
,
00000000
00000100
00000000
00000100
00000000
00000001
00000000
00000001
,
00000010
00000100
00001000
00000000
00000100
00010000
00011000
00000000
,
00001000
00001000
00010000
00010000
,
00001000
00100000
00010000
00000000
10000000
00100000
01000000
00000000
,
00100000
00000000
00100000
00000000
01000000
00010000
01000000
01010000
,
00000000
00000000
00000000
00000000
,
00001000
00010000
00001000
00000000
00010000
00000000
00000100
00000000
,
00000010
00000001
00000010
00000000
00000100
00000000
00001000
00000000
,
00000100
00010000
00000100
00000000
00010000
00000000
00001000
00000000
,
00101000
00110000
10100000
10010000
,
00010000
01000000
00010000
00000000
00100000
00000000
00001000
00000000
,
00010000
00001000
00010000
00000000
00000100
00000000
00000010
00000000
,
00000001
00001000
00000001
00000000
00000100
00000000
00000010
00000000
,
00000011
00000110
00010100
00011000
,
00001000
00000000
00001000
00000000
00001000
00010000
00100000
01000000
,
00100000
00000000
00100000
00000000
00100000
10000000
01000000
00100000
,
00010000
00000000
00010000
00000000
01000000
00001000
00100000
00001000
,
00010000
00001000
00000100
00000000
00000010
00000100
00000001
00000000
,
00001000
00000000
00001000
00000000
00001000
00000001
00000010
00000100
,
00000010
00000000
00000010
00000000
00000010
00000100
00001000
00010000
,
00100000
00000000
00010000
01000000
00010000
00100000
01000000
10000000
,
01000000
00010000
00001000
00000000
00010000
00000100
00001000
00000010
,
00000000
00000100
00000000
00000100
00000000
00000001
00000000
00000001
,
00000000
00000010
00000000
00000010
00000000
00000100
00010000
00000100
,
00000000
00010000
00000000
00010000
00000000
00001000
00000000
00001000
,
00000000
00100000
00000000
00100000
00000000
00010000
10000000
00010000
,
10010000
00000000
00100000
00000000
00100000
00000000
01000000
00010000
,
01000000
00000000
01000000
00000000
00001000
00100000
00001000
00000000
,
00001000
00000000
00010000
00001000
00010000
00000000
00001100
00000000
,
00000010
00000000
00000001
00000000
00000010
00000100
00010000
00001000
,
00010000
00000000
00000000
00000000
;

//---------------dance-double - ----------------
#NOTES:
     dance-double:
     EXPERT:
     Hard:
     13:
     0.000000,0.000000,0.000000,0.000000,0.000000,0.000000,0.000000,0.000000,0.000000,0.000000,0.000000,0.000000,0.000000,0.000000,0.000000,0.000000,0.000000,0.000000,0.000000,0.000000,0.000000,0.000000:
00000000
00000000
00000000
00000000
,
00000000
00000000
00000000
00000000
,
00000000
00000000
00000000
00000000
,
00000000
00000000
00000000
00000000
,
00010000
00100000
01000000
00100000
00010000
00000000
00100000
00000000
00001000
00000000
00010000
00000000
00000100
00000000
00010000
00000000
,
00000010
00000100
00001000
00000100
00000010
00000000
00000100
00000000
00001000
00000000
00010000
00000000
00100000
00000000
01000000
00000000
,
00010000
10000000
01000000
00010000
01000000
00000000
00100000
00000000
00010000
00000000
00001000
00000000
00000100
00000000
00000010
00000000
,
00000001
00000010
00000100
00000000
00000010
00000000
00000100
00000000
00001000
00000100
00000010
00000000
00000100
00000000
00010000
00000000
,
00011000
00000000
00000000
00001000
00001000
00000000
00000000
00010000
00010000
00000000
00001000
00000000
00100000
00000000
00010000
00000000
,
01010000
00000000
00000000
10000000
00100000
00000000
01000000
00000000
00010000
00000000
00000000
00010000
00100000
00000000
01000000
00000000
,
00100000
00000000
00001000
00000000
00010000
00000000
00001000
00000000
00000100
00000000
00000010
00000000
00001000
00000001
00001000
00000000
,
00000010
00000000
00000000
00000100
00000001
00000000
00000000
00001000
00000010
00000000
00000000
00010000
00001000
00010000
00001000
00000000
,
00100000
00000000
01000000
00000000
01100000
00000000
00000000
00000000
00010000
00010000
10000000
10000000
01000000
00000000
00100000
00000000
,
01000000
00010000
01000000
00000000
00010000
00000000
00001000
00000000
00010000
00001000
00010000
00000000
00010100
00000000
00000000
00000000
,
00000110
00000000
00000000
00000010
00001000
00000000
00000000
00000001
00000100
00000000
00000010
00000000
00001000
00000000
00000100
00000000
,
00000010
00000010
00000100
00000000
00010000
00010000
00001000
00000000
00100000
00001000
00010000
00001000
00100000
00000000
00011000
00000000
,
00011000
00000000
00000000
00000000
,
00100000
01000000
10000000
01000000
00100000
00000000
01000000
00000000
00010000
00000000
01000000
00000000
00100000
00000000
00001000
00000000
,
00010000
00000100
00000010
00000100
00010000
00000000
00000010
00000000
00001000
00000000
00000100
00000000
00000010
00000000
00000001
00000000
,
00001000
00000010
00000100
00000010
00001000
00000000
00000010
00000000
00010000
00000000
00000100
00010000
00001000
00010000
00000100
00000000
,
00011000
00000000
00000000
00001000
00001000
00000000
00000000
00100000
00100000
00000000
00000000
01000000
01000000
00000000
10000000
00000000
,
00100000
01000000
00100000
00010000
00100000
00000000
01000000
00000000
00010000
00000000
00100000
00000000
00001000
00000000
00010000
00000000
,
00001000
00010000
01000000
00010000
00001000
00000000
00010000
00000000
00000100
00000000
00000010
00000000
00000100
00000000
00001000
00000000
,
00000010
00000000
00000100
00000000
00000001
00001000
00000001
00000000
00000000
00000000
00001000
00000100
00010000
00000100
00001000
00000000
,
00011000
00000000
00000000
00100000
00100000
00000000
00000000
00001000
00001000
00000000
00000000
00010000
00010000
00000000
00100000
00000000
,
01000000
00000000
00100000
10000000
00000000
10000000
00100000
00000000
01000000
00000000
00010000
00000000
00100000
00000000
00001000
00000000
,
00010000
00000000
00000100
00010000
00000000
00010000
00000100
00000000
00001000
00000000
00000100
00000000
00000010
00000000
00000001
00000000
,
00001000
00000000
00000010
00000100
00000000
00000100
00000100
00000100
00000010
00000010
00001000
00001000
00000001
00000000
00000100
00000000
,
00000110
00010100
00011000
00101000
,
01000000
00000000
00010000
00100000
00000000
00100000
00010000
00000000
10000000
00000000
01000000
00000000
00100000
00000000
00001000
00000000
,
00010000
00000000
00001000
00100000
00000000
00100000
00001000
00000000
00010000
00000000
00000100
00000000
00000010
00000000
00000100
00000000
,
00010000
00000000
00000100
00001000
00000000
00001000
00001000
00001000
00000001
00000001
00000100
00000100
00000010
00000000
00001000
00000000
,
00011000
01001000
00011000
00010010
,
00001000
00000010
00000100
00001000
00010000
00000100
00001000
00000100
,
00000000
00000000
00010000
00000000
00001000
00000000
01000000
00000000
00100000
00000000
00010000
00000000
00001000
00000000
00010000
00001000
,
00100000
00010000
01000000
10000000
01000000
00100000
00000000
01000000
,
00010000
00000000
00100000
00000000
00001000
00000000
00000100
00000000
00000010
00000100
00000000
00000100
00000010
00000000
00001000
00000000
,
00001001
00000000
00000001
00000000
00000100
00000000
00000001
00000100
00000000
00000000
00000010
00000000
00000010
00000000
00001000
00000000
,
00000100
00000000
00010000
00000000
00001000
00000000
00010000
00001000
00000000
00000000
00010000
00001000
00010000
00000000
00001000
00000000
,
00100000
00000000
01000000
00000000
10000000
00000000
01000000
00100000
00000000
00100000
01000000
00000000
10000000
00010000
10000000
00000000
,
01100000
00000000
00010000
00000000
10000000
00000000
01000000
00100000
,
00001000
00000000
00000000
00000000
;

//---------------dance-double - ----------------
#NOTES:
     dance-double:
     BASIC:
     Easy:
     5:
     0.207209,0.251277,0.275792,0.000000,0.000000,142.000000,115.000000,27.000000,0.000000,0.000000,0.000000,0.207209,0.251277,0.275792,0.000000,0.000000,142.000000,115.000000,27.000000,0.000000,0.000000,0.000000:
// measure 0
00000000
00000000
00000000
00000000
,  // measure 1
00000000
00000000
00000000
00000000
,  // measure 2
00000000
00000000
00000000
00000000
,  // measure 3
00000000
00000000
00000000
00000000
,  // measure 4
00001000
00001000
00001000
00001000
,  // measure 5
00010000
00010000
00010000
00010000
,  // measure 6
00100000
00010000
00001000
00000100
,  // measure 7
00001000
00010000
00001000
00011000
,  // measure 8
01100000
01000000
01100000
00000000
,  // measure 9
00100000
10000000
01000000
00100000
,  // measure 10
00011000
00000000
00011000
00000000
,  // measure 11
00011000
00000000
00001000
00010000
,  // measure 12
00000100
00000100
00000110
00001001
,  // measure 13
00000110
00000000
00000010
00010000
,  // measure 14
00001000
00010000
00001000
00100000
,  // measure 15
00010000
10000000
10010000
01100000
,  // measure 16
10010000
00000000
00000000
00000000
,  // measure 17
00010000
00010000
00010000
00000000
,  // measure 18
00100000
00100000
00100000
00000000
,  // measure 19
00001000
00001000
00001000
00000000
,  // measure 20
00011000
00011000
00011000
00000000
,  // measure 21
00000100
00000100
00000100
00000000
,  // measure 22
00000010
00000010
00000010
00000000
,  // measure 23
00000001
00000001
00000001
00000000
,  // measure 24
00001010
00001010
00001010
00000000
,  // measure 25
00010000
00001000
00010000
00000000
,  // measure 26
00010000
01000000
00010000
00000000
,  // measure 27
00001000
00100000
00001000
00000000
,  // measure 28
00011000
00001100
00000110
00000000
,  // measure 29
00000100
00000010
00000100
00000000
,  // measure 30
00000010
00010000
00000010
00000000
,  // measure 31
00010000
00001000
00010000
00000000
,  // measure 32
00011000
00110000
01100000
00000000
,  // measure 33
00000000
10000000
00000000
10000000
00000000
10000000
00000000
10000000
,  // measure 34
00000000
00010000
00000000
00010000
00000000
00010000
00000000
00000000
,  // measure 35
00000000
00100000
00000000
00100000
00000000
00100000
00000000
00100000
,  // measure 36
00000000
00001000
00000000
00001000
00000000
00001000
00000000
00000000
,  // measure 37
00011000
00000000
00000000
00000000
,  // measure 38
00000010
00000010
00000010
00000000
,  // measure 39
00000100
00000100
00000100
00000000
,  // measure 40
00011000
00000000
00000000
00000000
,  // measure 41
01100000
00000000
00000000
00000000
;
