#VERSION:0.83;
#TITLE:腐斯偽堕日本;
#SUBTITLE:;
#ARTIST:Des-ROW・組コアスペ;
#TITLETRANSLIT:Fushigida Nippon;
#SUBTITLETRANSLIT:;
#ARTISTTRANSLIT:Des-ROW・UNION CORE SPECIAL;
#GENRE:MELODIC CORE;
#ORIGIN:;
#TAGS:;
#CREDIT:YonabearCWY;
#BANNER:Fushigida Nippon.png;
#BACKGROUND:Fushigida Nippon-bg.png;
#PREVIEWVID:;
#JACKET:Fushigida Nippon-jacket.png;
#CDIMAGE:;
#DISCIMAGE:;
#LYRICSPATH:;
#CDTITLE:GUITAR FREAKS & drummania.png;
#MUSIC:Fushigida Nippon.ogg;
#OFFSET:-6.576000;
#SAMPLESTART:91.552078;
#SAMPLELENGTH:15.000000;
#SELECTABLE:YES;
#BPMS:0.000000=175.000000
;
#STOPS:113.000000=1.020000
,115.000000=0.520000
,116.500000=0.350000
,118.500000=0.175000
;
#DELAYS:;
#WARPS:;
#TIMESIGNATURES:0.000000=4=4
;
#TICKCOUNTS:0.000000=4
;
#COMBOS:0.000000=1
;
#SPEEDS:0.000000=1.000000=0.000000=0
;
#SCROLLS:0.000000=1.000000
;
#FAKES:;
#LABELS:0.000000=Song Start
;
#BGCHANGES:-26.000=Fushigida Nippon.mp4=1.000=0=0=0=StretchNoLoop==CrossFade_Fastest==,
309.000=Fushigida Nippon-bg.png=1.000=0=0=1=====,
99999=-nosongbg-=1.000=0=0=0 // don't automatically add -songbackground-
;
#KEYSOUNDS:;
#ATTACKS:
;

//---------------dance-single - ----------------
#NOTEDATA:;
#CHARTNAME:BEGINNER;
#CHARTHASH:182568345;
#STEPSTYPE:dance-single;
#BANNER:;
#DESCRIPTION:;
#CHARTSTYLE:;
#DIFFICULTY:Beginner;
#METER:4;
#METERF:4.000000;
#LASTSECONDHINT:114.583855;
#RADARVALUES:0.167803,0.266881,0.103643,0.034548,0.000000,136.000000,124.000000,12.000000,4.000000,0.000000,0.000000,0.000000,0.000000,0.000000,0.167803,0.266881,0.103643,0.034548,0.000000,136.000000,124.000000,12.000000,4.000000,0.000000,0.000000,0.000000,0.000000,0.000000;
#CREDIT:YonabearCWY;
#NOTES:
0000
0000
0000
0000
,
0000
0000
0000
0000
,
0000
0000
0000
0000
,
0000
0000
0000
0000
,
1000
1000
0000
0000
,
1000
0000
1000
0000
,
0001
0001
0000
0000
,
0001
0000
0001
0000
,
0100
0100
0000
0000
,
0100
0000
0100
0000
,
0010
0010
0000
0000
,
0010
0000
0010
0000
,
0100
0100
0100
0000
,
0100
0000
0000
0000
,
0010
0010
0010
0000
,
0010
0000
0000
0000
,
1000
1000
1000
0000
,
1000
0000
0000
0000
,
0001
0001
0001
0000
,
0001
0000
0000
0000
,
1001
0000
0000
0000
,
0100
0100
0100
0000
,
1001
0000
0000
0000
,
0010
0010
0010
0000
,
0110
0000
0000
0000
,
1000
1000
1000
0000
,
0110
0000
0000
0000
,
0001
0001
0001
0001
,
2002
0000
0000
0000
,
0000
0000
0000
0000
0000
3003
0000
0000
,
0000
0000
0010
0000
,
0010
0000
0100
0000
,
0100
0000
0001
0000
,
1000
1000
1000
0000
,
0001
0000
1000
0000
,
0001
0001
1001
0000
,
0000
0000
0010
0000
,
0000
0000
0010
0000
,
0000
0000
0100
0000
,
0000
0000
0100
0000
,
0000
0000
0001
0000
,
0000
0000
0001
0000
,
0000
0000
1000
0000
,
0000
0000
1000
0000
,
0000
0000
0010
0010
,
0010
0000
0010
0000
,
0000
0000
0010
0010
,
0010
0000
0010
0000
,
0000
0000
0100
0100
,
0100
0000
0100
0000
,
0000
0000
0100
0100
,
0100
0000
0100
0000
,
0000
0000
0000
0001
,
0000
0001
0000
0001
,
0000
0000
0000
1000
,
0000
1000
0000
1000
,
0000
0000
0000
0010
,
0000
0010
0000
0010
,
0000
0000
0000
0100
,
0000
0100
0110
0000
,
0000
0000
0000
1000
,
1000
1000
1000
0000
,
0000
0000
0100
0000
,
0000
0000
0010
0000
,
0000
0000
0000
0001
,
0001
0001
0001
0000
,
0000
0000
0010
0000
,
0000
0000
0100
0000
,
0000
0000
1001
0000
,
0000
0000
0100
0000
,
0100
0000
0110
0000
,
0000
0000
0010
0000
,
0010
0000
0110
0000
,
0000
0000
1000
0000
,
1000
0000
1001
0000
,
0000
0000
0001
0000
,
0001
0000
2002
0000
,
0000
3003
0000
0000
;

//---------------dance-single - ----------------
#NOTEDATA:;
#CHARTNAME:BASIC;
#CHARTHASH:3433830066;
#STEPSTYPE:dance-single;
#BANNER:;
#DESCRIPTION:;
#CHARTSTYLE:;
#DIFFICULTY:Easy;
#METER:7;
#METERF:7.000000;
#LASTSECONDHINT:114.583855;
#RADARVALUES:0.281317,0.400321,0.224560,0.354114,0.004318,228.000000,202.000000,26.000000,41.000000,0.000000,0.000000,0.000000,0.000000,0.000000,0.281317,0.400321,0.224560,0.354114,0.004318,228.000000,202.000000,26.000000,41.000000,0.000000,0.000000,0.000000,0.000000,0.000000;
#CREDIT:YonabearCWY;
#NOTES:
0000
0000
0000
0000
,
0000
0000
0000
0000
,
0000
0000
0000
0000
,
0000
0000
0000
0000
,
1000
0000
1000
0000
0000
1000
0010
0000
,
0100
0000
0100
0000
,
0001
0000
0001
0000
0000
0001
0010
0000
,
0100
0000
0100
0000
,
1001
0000
0000
0100
,
0010
0000
0010
0100
,
1001
0000
0000
1000
,
0001
0000
1000
0000
,
0001
0100
0002
0000
,
0013
0001
0100
1000
,
0100
0010
0200
0000
,
0310
1000
0100
0010
,
0001
1000
0002
0000
,
1003
0010
2000
0000
,
3100
0010
0200
0000
,
0310
0011
1000
1010
,
0220
0000
0000
0330
,
1000
0010
0001
0010
,
2002
0000
0000
3003
,
0100
0010
0100
1000
,
0202
0000
0000
0303
,
0010
0001
0010
0100
,
2200
0000
0000
3300
,
0010
0010
0100
0100
,
2002
0000
0000
0000
,
0000
0000
0000
0000
0000
3003
0000
0000
,
0000
0010
0010
0100
,
0100
0010
0010
0100
,
0100
0001
0001
1000
,
1000
0001
0001
1000
,
1000
0110
1000
1000
,
0001
0000
0000
0000
0001
0000
0000
0000
1000
0000
0000
0001
0000
0000
1000
0000
,
0001
0110
2000
0000
,
0010
0100
0001
0000
,
0100
0010
3002
0000
,
0100
0010
1000
0000
,
0010
0100
2003
0000
,
0010
0001
3200
0000
,
1000
0001
0310
0010
,
0100
1000
1000
0001
,
0100
0100
2002
0000
,
0000
3003
0100
0000
,
0010
0000
0220
0000
,
0000
0330
1000
0001
,
1000
0001
2002
0000
,
0000
3003
0010
0000
,
0100
0000
0220
0000
,
0000
0330
1000
0100
,
0010
0000
0001
0000
0000
1000
0000
1000
,
0000
1000
0000
0000
0000
0001
0000
0001
,
0000
0001
0000
0000
0000
0100
0000
0100
,
0000
0100
0000
0010
0100
0000
0001
0000
,
1000
0001
0202
0000
,
0000
0303
1000
0010
,
0100
0001
2020
0000
,
0000
3030
0200
0000
,
0020
0330
0000
0001
,
0001
0001
0202
0303
,
1000
0000
0010
0000
,
0100
0000
0001
0000
,
0010
0000
0100
0100
,
0100
0100
2200
0000
,
3300
0000
0200
0010
,
0310
0000
0002
1000
,
1003
0000
0100
0001
,
0100
0000
1000
0000
,
1000
0000
0010
1000
,
0010
0000
0100
0100
,
0100
0100
1001
1001
,
1001
0000
0010
0000
,
0010
0000
0110
0110
,
0110
0000
1000
0000
,
0001
0000
2002
0000
,
0000
3003
0000
0000
;

//---------------dance-single - ----------------
#NOTEDATA:;
#CHARTNAME:DIFFICULT;
#CHARTHASH:3940294575;
#STEPSTYPE:dance-single;
#BANNER:;
#DESCRIPTION:;
#CHARTSTYLE:;
#DIFFICULTY:Medium;
#METER:10;
#METERF:10.000000;
#LASTSECONDHINT:114.583855;
#RADARVALUES:0.488603,0.567122,0.362751,0.336840,0.004318,396.000000,354.000000,42.000000,39.000000,0.000000,0.000000,0.000000,0.000000,0.000000,0.488603,0.567122,0.362751,0.336840,0.004318,396.000000,354.000000,42.000000,39.000000,0.000000,0.000000,0.000000,0.000000,0.000000;
#CREDIT:YonabearCWY;
#NOTES:
0000
0000
0000
0000
,
0000
0000
0000
0000
,
0000
0000
0000
0000
,
0000
0000
0000
0000
,
1000
0010
2000
0001
0000
0100
3100
0000
,
1010
1000
1001
0001
,
0001
0100
0002
0010
0000
1000
1003
0000
,
0001
0100
0010
0001
0010
0100
0010
0100
,
0001
1000
0200
0010
0000
0001
0301
0000
,
1010
0010
1100
0100
,
0001
1000
0010
0100
0010
1000
0100
0010
,
0002
1000
0010
0103
,
0001
0010
0001
0100
0000
0010
1000
0000
,
0100
0000
1000
0000
0010
1000
1100
0000
,
0100
0010
0001
0010
0000
0100
0001
0000
,
0100
0000
1000
0100
0001
0100
1000
0000
,
0010
0100
0001
0100
0000
0001
1000
0000
,
0010
0000
0001
0010
1000
0010
0001
0000
,
0010
0000
1000
0010
0100
0010
1000
0000
,
0001
0001
0011
0000
1000
1000
1010
0000
,
0120
0000
1000
1000
0000
0100
0130
0000
,
0010
0000
1000
0000
0100
0010
0001
0000
,
0201
0000
0010
0010
0000
1000
1300
0000
,
0100
0000
0010
0000
0001
0000
1000
0010
,
0120
0000
0001
0001
0000
1000
1030
0000
,
0010
0000
0100
0001
0100
0000
0001
0000
,
1200
0000
0001
0001
0000
0010
0310
0000
,
1000
0000
0100
0000
0010
0001
1000
0001
,
0100
0001
2002
0000
0000
3003
2200
0000
,
3300
0220
0000
0000
0330
2002
0000
0000
,
3003
0000
0110
0000
0010
1000
0100
0000
,
0010
0001
1000
0100
0020
0000
0000
0031
,
0010
0100
0010
0000
1001
0000
0100
0001
,
0010
0000
0100
0010
0100
1000
0100
0000
,
1000
0001
1000
0000
0100
0010
0001
1000
,
0001
0000
1000
0000
0010
0000
0000
0000
1100
0000
0000
0010
0000
0000
0100
0000
,
0001
0001
1001
0000
0021
0000
0000
1000
,
0000
0000
0001
0000
0100
0000
0000
1000
,
0000
0000
0031
0000
0210
0000
0000
0001
,
0000
0000
1000
0000
0001
0000
0000
0001
,
0000
0000
1300
0000
0100
0010
0200
0000
,
0001
0000
0310
0000
1000
0001
0020
0000
,
0100
0000
1030
0010
0001
0010
0100
1000
,
0001
1000
0100
0000
1002
0000
0000
0103
,
0210
0000
0301
1000
0120
0000
0100
0000
,
0000
0000
0100
0000
0000
0000
0130
0010
,
2000
0000
3100
0010
0002
0000
1000
0000
,
0010
1000
0013
0001
,
0100
1000
0210
0010
,
0000
0010
0000
0010
,
0000
0000
0310
0100
0002
0000
1003
0100
,
0020
0000
0130
1000
0001
0100
0101
0000
,
1000
0010
2020
0000
3030
0100
0000
0001
,
0000
0010
0000
0001
0000
0100
0000
0001
,
0000
1000
0010
1000
0000
0001
0000
0100
,
0000
0001
0000
0010
0000
0001
0000
1000
,
0100
0010
0001
0000
0110
0000
1010
0000
,
1000
0100
0001
0000
1100
0000
0001
0010
,
1000
0000
0011
0000
0100
0010
0100
0000
,
0001
1000
0001
0000
0120
0000
0000
0000
,
2000
0000
3030
0000
0000
0000
0001
0010
,
0001
0000
0100
0001
0100
0000
1000
0000
,
0100
0010
0100
0000
0001
0000
0001
0000
,
1000
1000
0100
0010
,
0100
0000
1001
0000
0100
1000
0100
0000
,
0010
0001
0010
0000
0100
0000
0001
0000
,
0100
0000
1000
0000
2001
0000
0000
0001
,
0001
0000
0000
0100
3200
0000
0000
1000
,
1000
0000
0000
0010
0310
0000
0101
0000
,
2000
0000
0010
0000
,
0001
0000
3001
1010
,
0200
0000
0001
1000
,
0301
0110
1000
1100
,
0010
0001
0100
0000
0001
0000
0011
0000
,
1000
0010
0100
0000
0011
0000
0110
0000
,
0100
1000
0100
0010
0100
0000
0010
0000
,
0001
1000
0001
0010
2002
0000
0000
0000
,
0000
3003
0000
0000
;

//---------------dance-single - ----------------
#NOTEDATA:;
#CHARTNAME:EXPERT;
#CHARTHASH:3076425731;
#STEPSTYPE:dance-single;
#BANNER:;
#DESCRIPTION:;
#CHARTSTYLE:;
#DIFFICULTY:Hard;
#METER:13;
#METERF:13.000000;
#LASTSECONDHINT:114.583855;
#RADARVALUES:0.655172,0.700562,0.414572,0.371388,0.220241,531.000000,483.000000,48.000000,43.000000,0.000000,0.000000,0.000000,0.000000,0.000000,0.655172,0.700562,0.414572,0.371388,0.220241,531.000000,483.000000,48.000000,43.000000,0.000000,0.000000,0.000000,0.000000,0.000000;
#CREDIT:YonabearCWY;
#NOTES:
0000
0000
0000
0000
,
0000
0000
0000
0000
,
0000
0000
0000
0000
,
0000
0000
0000
0000
,
1000
0010
0200
0001
0000
0310
0001
0010
,
0100
0002
0000
0010
0013
0100
0010
0000
,
0100
1000
0002
0100
0000
1003
0010
0001
,
0010
0200
0000
0010
0310
1000
0001
1000
,
1000
0100
0010
1001
0000
0100
0010
0001
,
0010
1100
0000
0020
0100
0100
0130
0000
,
0001
0100
0010
0101
0000
0010
1000
0100
,
0001
0000
1100
0000
1000
0000
0002
0000
1000
0000
1000
0000
1003
0001
0010
0001
,
0010
0100
1000
0001
0000
0100
0001
0000
,
0010
0000
0001
0010
1000
0001
0110
0000
,
1000
0100
0001
0100
1000
0000
0010
0100
,
1001
0000
0010
1000
1000
0100
0010
0001
,
0100
1000
0100
0010
0000
0100
1000
0000
,
0100
0000
0010
1000
0001
0010
1100
0000
,
0010
1000
0101
0000
0010
0001
1000
0010
,
1000
0000
0100
0000
2000
0100
0000
0000
3010
0000
0100
0000
0002
0100
0000
0000
,
2003
0000
0010
0010
0000
0100
0100
0000
,
3002
0000
0103
0020
1000
1000
1030
0010
,
0102
0000
0010
0010
0000
0100
0100
0000
,
1003
0000
0100
0000
0010
0000
0001
0000
0100
0000
0001
0000
1000
0000
0010
0100
,
0020
0000
0001
0001
0000
0100
0130
0010
,
2001
0000
3100
0020
0001
0001
0031
0010
,
1200
0000
0010
0010
0000
0001
0301
0000
,
0100
1000
0100
0010
0001
1000
0001
0100
,
0010
0010
1001
0100
0001
0010
0110
1000
,
0100
0011
1000
0001
0100
0120
0000
1030
,
0100
0000
0010
0000
0001
0000
0100
0001
0100
0000
0001
0000
0010
0000
0000
0000
,
0100
0010
0100
0000
1000
0000
0100
0000
1000
0000
0000
0000
0001
0100
0001
0000
,
0010
0001
1000
0010
1000
0100
0010
0000
,
0001
0000
0010
0000
1000
0000
0010
0000
0001
0000
0100
0000
0010
1000
0010
0000
,
1000
0100
0001
0100
1000
0001
0010
0100
,
0100
0000
0100
0000
0010
0000
0000
0000
1100
0000
0000
0101
0000
0000
0010
0000
,
0100
0100
1001
0000
0120
0000
1000
1000
,
0000
0100
1030
0000
2010
0000
0001
0001
,
0000
0010
3001
0000
0210
0000
1000
1000
,
0000
0001
0310
0000
0102
0000
1003
0100
,
0100
0000
0010
0000
0001
0000
1000
0010
2000
0000
0000
0000
0100
0000
0010
0000
,
0000
0001
3001
0000
0100
0010
0001
0010
,
0010
0100
1000
0100
0010
0200
0001
0000
,
1300
0100
0002
0000
1000
1003
0001
0100
,
0100
0001
1001
0000
0120
0000
1000
0000
,
0001
0000
1030
0100
0010
0000
0100
0010
,
0001
0000
0010
0100
0001
0100
0010
0001
,
0100
0000
1000
0000
0100
0000
0010
0100
0010
0000
1000
0000
0100
0000
0001
0000
,
0100
1000
0001
0100
2001
0000
0010
0000
,
0100
0000
3010
1000
0001
0000
1000
0010
,
0100
0000
0000
0000
0001
0000
1000
0000
0100
0000
0000
0000
0010
0000
0001
0100
,
0001
0010
0100
1000
0002
0010
0000
0100
,
0023
0000
0000
0000
0130
2100
0000
0010
,
0000
0100
0000
0001
0000
0100
0000
3001
,
0000
0000
1000
0001
0000
0001
0010
0000
0001
0000
0102
0000
0000
0000
1000
0000
,
0010
1000
0000
0010
0100
0010
0000
1003
,
0010
0000
0010
0000
0100
0000
0001
0000
0101
0000
0000
0000
1010
0000
0000
1000
,
0100
0000
0010
0000
0001
0000
0100
0000
0001
0000
0010
0000
0011
0000
0000
0001
,
1000
0000
0010
0000
0010
0000
1000
0000
0100
0000
1000
0000
1001
0000
0000
0100
,
0010
0010
0001
1000
2001
0000
0000
0000
,
0020
3030
0101
0110
,
1010
0000
0101
0000
0011
0000
0100
0001
,
1000
0100
0010
0001
0200
0000
0001
0010
,
0001
0000
1000
0010
1000
0000
0310
0100
,
0010
0001
0010
0000
1001
0000
0110
0000
,
0011
0000
1010
0000
0101
0000
0010
0100
,
1000
0001
1000
0000
0210
0000
0000
0001
,
0001
0000
0000
1300
1010
0000
0011
0000
,
0101
0000
0000
1100
0000
0000
1000
0010
1000
0020
0000
0000
,
0130
0001
0100
0002
0000
0000
0013
0100
0010
0200
0000
0000
,
1300
0001
1000
0001
0000
0001
0010
0000
0010
0100
0000
0100
,
1000
0000
1000
0010
0000
0010
0100
0000
0100
0001
0000
0001
,
1000
0100
1000
0200
0000
0000
1300
0010
1000
0001
0000
0200
,
0010
0000
0000
1000
0000
0000
0301
0100
0001
0010
0000
0100
,
1000
0100
0010
2000
0000
0000
3010
0000
0001
0010
0000
0020
,
0100
0000
0000
0001
0000
0031
0010
0000
0010
1000
0000
1000
,
0010
0001
0010
0100
0000
1000
2002
0000
0000
0000
0000
0000
,
0000
3003
0000
0000
;

//---------------dance-single - ----------------
#NOTEDATA:;
#CHARTNAME:CHALLENGE;
#CHARTHASH:1479838663;
#STEPSTYPE:dance-single;
#BANNER:;
#DESCRIPTION:;
#CHARTSTYLE:;
#DIFFICULTY:Challenge;
#METER:16;
#METERF:16.000000;
#LASTSECONDHINT:114.583855;
#RADARVALUES:0.778557,0.934083,0.224560,0.319566,0.708228,631.000000,605.000000,26.000000,37.000000,0.000000,0.000000,0.000000,0.000000,0.000000,0.778557,0.934083,0.224560,0.319566,0.708228,631.000000,605.000000,26.000000,37.000000,0.000000,0.000000,0.000000,0.000000,0.000000;
#CREDIT:YonabearCWY;
#NOTES:
// measure 0
0000
0000
0000
0000
,  // measure 1
0000
0000
0000
0000
,  // measure 2
0000
0000
0000
0000
,  // measure 3
0000
0000
0000
0000
,  // measure 4
1000
0010
1000
0001
0000
0010
0100
1000
0001
1000
0000
0100
,  // measure 5
0010
0000
0001
0000
0010
0000
0001
0000
0000
0000
0010
0000
0100
0000
0000
0000
0100
0000
1000
0000
0000
0001
0000
0000
,  // measure 6
0010
0100
0001
1000
0000
0010
0100
0010
0001
0010
0000
0001
,  // measure 7
1000
0100
1000
0001
1000
0100
0010
0000
1001
0000
0000
0000
,  // measure 8
0001
0100
0010
1000
0000
0100
0010
0000
0010
0001
1000
0001
,  // measure 9
1000
0000
0100
0010
0000
0010
0100
0000
0110
0000
0000
0000
,  // measure 10
0001
0100
0001
0010
0001
1000
0001
0000
0001
0100
0000
0100
,  // measure 11
0010
0000
0100
0000
1000
0000
0100
0000
0000
0000
0100
0000
0001
0000
0000
0000
1001
0000
0000
0000
0000
0010
0000
0000
,  // measure 12
1000
0010
0100
0002
0000
0013
0100
1000
,  // measure 13
0100
0000
0100
0010
0000
0010
0001
0000
1001
0000
0010
0000
,  // measure 14
0100
0001
0010
0200
0000
1300
0001
0100
,  // measure 15
0001
0000
0001
1000
0000
1000
0010
1000
0100
0010
0000
0010
,  // measure 16
0001
0100
0010
0002
0000
0013
0100
0010
,  // measure 17
1000
0000
0000
0000
0100
0000
0010
0000
0001
0000
0010
0000
0001
0000
0000
1000
0000
0000
0010
0000
0000
0000
0000
0000
,  // measure 18
0100
1000
0100
0020
0000
0130
0001
1000
,  // measure 19
0001
0010
0001
2000
0000
0000
3100
0010
0100
0002
0000
0000
,  // measure 20
0203
0000
1000
1000
0000
0001
0301
0000
,  // measure 21
1010
0000
0000
0000
0100
0000
0001
0010
0001
0000
1000
0000
0010
0000
0100
0000
,  // measure 22
0201
0000
0010
0010
0000
1000
1300
0100
,  // measure 23
0010
0000
0000
0000
0100
0000
0001
1000
0001
0000
0100
0000
0010
0000
1000
0001
,  // measure 24
2000
0000
0100
0100
0000
0001
3001
0000
,  // measure 25
0010
0001
0100
0010
1000
0100
0000
0010
,  // measure 26
0012
0000
1000
1000
0000
0100
0103
0000
,  // measure 27
0001
0000
1000
0010
1000
0010
0100
0010
0100
0000
0001
0000
0010
0000
0100
0000
,  // measure 28
1000
0001
1002
1003
0010
1000
2100
3001
,  // measure 29
0100
0201
0310
1000
0001
0120
0000
1030
,  // measure 30
0100
0000
0010
0000
0001
0000
0100
0001
0100
0000
0010
0000
0100
0000
0010
1000
,  // measure 31
0000
0000
0010
0100
0010
0000
0100
0000
0001
1000
0000
0000
0100
0000
0010
0000
,  // measure 32
0001
0000
0100
0010
0100
0000
0001
0000
0010
0000
0100
0000
1000
0001
1000
0000
,  // measure 33
0010
0000
0100
0001
1000
0000
0010
0000
1000
0100
0010
0000
0100
0000
0001
0000
,  // measure 34
0100
1000
0010
0000
0101
0000
0000
0000
0010
0100
0010
0100
1000
0000
0001
0000
,  // measure 35
0010
0000
0000
0100
0000
0000
0001
0000
0000
1000
0000
0000
0110
0000
0000
0000
0011
0000
0000
0000
0000
0001
0000
0000
,  // measure 36
1001
0000
1000
0010
1000
0000
1001
0000
0002
0000
0000
0000
0010
0000
1000
0000
,  // measure 37
0000
0100
0100
0000
2003
0000
0001
0010
,  // measure 38
0000
0100
0100
0000
3020
0000
0230
0001
,  // measure 39
0001
0001
0302
0000
2003
0000
3001
1000
,  // measure 40
0100
0000
0010
0000
0100
0000
0010
0001
2000
0000
0000
0000
0010
0000
0100
0000
,  // measure 41
0000
0001
3002
0000
0023
0000
0100
1000
,  // measure 42
0000
0000
0001
0000
0031
1000
0100
1000
0100
0000
1000
0000
0010
0000
1000
0000
,  // measure 43
0001
0100
0001
0000
0010
0000
0001
0000
0010
0000
0100
1000
0100
1000
0010
0100
,  // measure 44
0010
0000
0100
0000
0001
0000
0010
0000
2100
0000
0000
0000
3010
0000
1000
0010
,  // measure 45
0000
0010
1000
0000
0001
0000
0100
0000
0001
0000
0010
0000
0100
0000
1000
0001
,  // measure 46
1000
0001
0010
0000
0100
0000
0010
0000
0001
0100
0001
0000
0010
0000
0001
0000
,  // measure 47
0100
0001
0100
0000
0001
0000
1000
0001
0010
0000
1000
0000
0010
0000
0001
0000
,  // measure 48
0100
0000
0010
0000
0100
0010
0100
0000
0012
0000
0000
0000
1003
0000
0001
0010
,  // measure 49
0000
0010
0001
0000
0010
0000
0100
0000
1000
0000
0010
0000
0100
0000
0001
0100
,  // measure 50
0010
0100
0010
0000
1000
0000
0100
0000
0010
0100
0010
0000
0100
0000
1000
0000
,  // measure 51
0100
0010
0100
0000
0010
0000
0001
1000
0100
0000
1100
0000
0000
0000
0010
0000
,  // measure 52
0120
0000
0001
0000
1030
0010
0100
0001
,  // measure 53
0100
0000
1000
0000
0100
0000
0001
0000
0010
0000
1000
0000
0010
0001
0010
0000
,  // measure 54
0100
0000
0010
0000
0100
1000
0100
0000
1000
0000
0001
0000
0100
0000
0001
0000
,  // measure 55
0010
0000
1000
0000
0010
0000
0100
0000
0010
0000
0100
0000
1000
0001
1000
0000
,  // measure 56
0100
0000
0010
0000
0001
0100
0001
0100
0020
0000
0000
0000
1030
0000
0000
0100
,  // measure 57
0010
0001
1000
0001
0200
0000
0001
0001
,  // measure 58
0000
0000
1000
0000
1300
0000
0100
0010
0002
0000
0000
0000
0013
0000
0000
0100
,  // measure 59
0001
1000
0100
0010
0012
0000
1003
0000
,  // measure 60
2010
0000
3001
0000
0110
1000
0010
1000
,  // measure 61
0001
0000
0100
0000
0001
0000
0010
0000
1000
0000
0010
0000
0001
0000
1000
0100
,  // measure 62
1000
0001
0100
1000
0100
0001
0000
1000
,  // measure 63
0010
0001
0000
0100
0101
0000
0011
0000
,  // measure 64
0001
0000
1000
0000
0010
0000
1000
0100
0010
0000
0001
0000
0100
0000
0010
0000
,  // measure 65
1000
0000
0100
0000
0010
0000
0001
0000
0100
0000
0010
1000
0010
0000
0100
0000
,  // measure 66
0001
0010
0001
0000
0010
0100
1000
0000
0001
0000
0010
0000
0100
0010
1000
0010
,  // measure 67
0100
0010
0100
0000
1000
0001
1000
0001
0100
0010
0100
0010
0001
0000
0010
0100
,  // measure 68
0010
0000
0000
0000
0000
0000
1000
0000
0000
0000
0000
0000
0001
0000
0000
0100
0000
0000
0001
0000
0000
1000
0000
0000
0001
0000
0000
0000
0010
0000
0000
0000
0100
0000
0000
0000
2000
0000
0000
0000
0000
0000
0000
0000
0000
0000
0000
0000
,  // measure 69
3010
1000
0100
0001
0100
1000
0001
0100
0001
0010
1000
0001
,  // measure 70
0100
1000
0010
0002
0000
0000
0013
0100
0010
0001
0000
0010
,  // measure 71
0100
0000
0100
1000
0100
0001
0100
0000
0100
0010
0000
0010
,  // measure 72
1000
0001
1000
0200
0000
0000
0310
0000
0010
0001
1000
0001
,  // measure 73
0100
0000
0010
1000
0000
1000
0100
0001
0100
0010
0000
0010
,  // measure 74
0100
1000
0001
0020
0000
0000
0031
0100
0001
0010
0000
0001
,  // measure 75
1000
0000
1000
0100
1000
0010
0100
0000
0010
1000
0000
0010
,  // measure 76
0100
0010
0001
0010
0100
1000
2002
0000
0000
0000
0000
0000
,  // measure 77
0000
3003
0000
0000
;
