#TITLE:Floor Basics;
#SUBTITLE:;
#ARTIST:Mint Royale;
#TITLETRANSLIT:;
#SUBTITLETRANSLIT:;
#ARTISTTRANSLIT:;
#GENRE:BIG BEAT;
#CREDIT:YonabearCWY;
#BANNER:Floor Basics.png;
#BACKGROUND:Floor Basics-bg.png;
#LYRICSPATH:;
#CDTITLE:cdtitle.png;
#MUSIC:Floor Basics.ogg;
#OFFSET:-10.920000;
#SAMPLESTART:55.924488;
#SAMPLELENGTH:15.000000;
#SELECTABLE:YES;
#BPMS:0.000000=128.009995
;
#STOPS:
;
#BGCHANGES:0.000=ring3.mp4=1.000=1=0=1===CrossFade==,
8.000=arrows1.mp4=1.000=0=0=1=====,
16.000=text27.mp4=1.000=0=0=1=====,
24.000=text26.mp4=1.000=0=0=1=====,
32.000=text27.mp4=1.000=0=1=1=StretchRewind====,
40.000=text26.mp4=1.000=0=1=1=StretchRewind====,
48.000=arrows2.mp4=1.000=0=0=1=====,
56.000=blackhole1.mp4=1.000=0=0=1=====,
64.000=arrows2.mp4=1.000=0=1=1=StretchRewind====,
72.000=blackhole1.mp4=1.000=0=1=1=StretchRewind====,
80.000=ring10.mp4=1.000=0=0=1=====,
88.000=smoke1.mp4=1.000=0=0=1=====,
96.000=ring1.mp4=1.000=0=0=1=====,
104.000=stairs1.mp4=1.000=0=0=1=====,
112.000=square4.mp4=1.000=0=0=1=====,
128.000=planet2.mp4=1.000=0=0=1=====,
144.000=tunnel8maxx.mp4=1.000=0=0=1=====,
152.000=arrows1.mp4=1.000=0=1=1=StretchRewind====,
160.000=tunnel8maxx.mp4=1.000=0=1=1=StretchRewind====,
168.000=arrows2.mp4=1.000=0=1=1=StretchRewind====,
176.000=Floor Basics-bg.png=1.000=0=0=1=====,
99999=-nosongbg-=1.000=0=0=0 // don't automatically add -songbackground-
;
#KEYSOUNDS:;
#ATTACKS:;

//---------------dance-single - ----------------
#NOTES:
     dance-single:
     BASIC:
     Easy:
     6:
     0.224555,0.259784,0.178837,0.141187,0.000000,167.000000,148.000000,19.000000,15.000000,0.000000,0.000000,0.224555,0.259784,0.178837,0.141187,0.000000,167.000000,148.000000,19.000000,15.000000,0.000000,0.000000:
1000
1000
0000
0110
,
0001
0001
0000
0010
,
1000
1000
0000
0110
,
0002
2003
3002
2003
,
3100
0000
0100
0100
,
1000
0000
0010
0000
,
0100
0000
0001
0000
,
0010
0010
0001
1001
,
0100
0010
0000
0010
,
0010
0100
1000
0100
,
0010
0000
0001
0000
,
0001
0100
0001
1000
,
1001
0010
1001
0100
,
2002
3003
0100
0010
,
0100
1010
0100
0011
,
0220
0000
0330
0001
,
0100
0001
0100
0010
,
1000
0000
1000
0100
,
0010
0001
0100
0001
,
1000
0000
1000
0001
,
0010
0100
1000
0100
,
0010
0001
1000
0000
,
0001
0001
0010
0000
,
0100
0100
0010
0100
,
2002
0000
3003
0010
,
0200
0010
0010
0300
,
0022
0000
0033
1000
,
2020
0000
3030
0001
,
1001
0100
0001
0000
,
1001
0010
1000
0000
,
0010
0010
0100
0000
,
0100
0100
0001
0000
,
1000
0010
0011
0000
,
0001
0100
1100
0000
,
1000
1000
0001
0000
,
0001
0001
1000
0000
,
0010
1000
0100
0010
,
0001
0100
0010
1000
,
0001
0000
0001
0000
,
1000
0001
1000
0010
,
0100
1000
0100
0010
,
0100
0001
0100
0010
,
1000
0000
1000
0000
,
1000
0100
0010
0001
,
1001
0010
0010
0010
,
1001
0100
0100
0100
,
1001
0000
0000
0000
;

//---------------dance-single - ----------------
#NOTES:
     dance-single:
     DIFFICULT:
     Medium:
     8:
     0.342883,0.346379,0.254137,0.065887,0.004706,255.000000,228.000000,27.000000,7.000000,0.000000,0.000000,0.342883,0.346379,0.254137,0.065887,0.004706,255.000000,228.000000,27.000000,7.000000,0.000000,0.000000:
1000
1010
0000
1000
,
0001
0011
0000
0001
,
0100
0110
0000
0100
,
0010
1000
0010
0000
0100
0001
0100
0000
,
0010
0000
1000
0000
0010
0000
0000
0100
,
0001
0000
0010
0001
0010
0000
0001
0000
,
0100
0000
0001
0000
0010
0000
0000
0100
,
1000
0000
0000
0010
0000
0000
0100
0000
0001
0000
0000
0000
0110
0000
0000
0000
,
1000
0000
0100
1000
0100
0000
1000
0000
,
0001
0000
0010
0001
0010
0001
0010
0000
,
0001
0000
0100
0001
0100
0000
0010
0000
,
1000
0000
0100
1000
0100
1000
0100
0000
,
2001
0010
0100
3010
,
0000
1000
0010
1000
0010
0000
0101
0000
,
0012
1000
0100
0010
,
0103
0001
0100
0010
,
0120
1000
0001
1030
,
0000
0010
0100
0010
0100
0000
1010
0000
,
2100
0001
0100
0001
,
3010
0100
1000
0001
,
0100
0001
0100
0001
0100
0000
0010
0000
,
1000
0100
1000
0100
1000
0000
0010
0000
,
0100
0000
0001
0010
0000
0100
1000
0000
,
0010
0100
0001
0100
0001
0000
1001
0000
,
1020
0000
1000
1000
0000
0000
1030
0000
,
0100
0010
0100
0000
0010
0001
0010
0000
,
0201
0000
0001
0001
0000
0001
0301
0000
,
0120
1000
0001
0100
,
1030
0010
1000
0000
0001
0000
0101
0000
,
0010
0001
0010
0000
0100
0000
1100
0000
,
0010
0100
0010
0100
0001
0100
0001
0000
,
1000
0010
1000
0010
0100
0010
0100
0000
,
0001
0000
0010
0100
0001
0000
1100
0000
,
0010
0000
0100
0010
0001
0000
0110
0000
,
0001
0000
1000
0010
1000
0001
0100
0000
,
0001
0000
0010
0100
0000
1000
0001
0000
,
0100
0000
0010
1000
0100
0000
0011
0000
,
1000
0000
0001
0010
0100
0000
1010
0000
,
0001
0100
1001
0010
,
1000
0100
0010
0001
0100
0000
0010
0000
,
1000
0000
0100
0010
0001
0000
0110
0000
,
0001
0000
0100
0001
0010
0000
1001
0000
,
0100
0010
1000
0110
,
0001
0010
0100
1000
0100
0000
1000
0000
,
0110
0000
1000
0010
0000
0100
0001
0000
,
0110
0000
0001
0100
0001
1000
0100
0000
,
1001
0000
0000
0000
;

//---------------dance-single - ----------------
#NOTES:
     dance-single:
     EXPERT:
     Hard:
     11:
     0.435663,0.411325,0.160012,0.056475,0.131775,324.000000,307.000000,17.000000,6.000000,0.000000,0.000000,0.435663,0.411325,0.160012,0.056475,0.131775,324.000000,307.000000,17.000000,6.000000,0.000000,0.000000:
// measure 0
1000
0010
1000
0000
0001
0000
0100
0000
0000
0000
0000
0000
1001
0000
0000
0000
,  // measure 1
0100
0001
0100
0000
0001
0000
0010
0000
0000
0000
0000
0000
1100
0000
0000
0000
,  // measure 2
0100
0010
0100
0000
0001
0000
1000
0000
0000
0000
0000
0000
0101
0000
0000
0000
,  // measure 3
0001
0010
0100
1000
0010
0100
0001
1000
,  // measure 4
0010
0000
1000
0000
0100
1000
0100
0000
,  // measure 5
1000
0000
0000
0010
0000
0000
0100
0000
0001
0000
0000
0000
1010
0000
0000
0000
,  // measure 6
0100
0000
0010
0000
0001
1000
0001
0000
,  // measure 7
0100
0000
0000
0001
0000
0000
0010
0000
0200
0000
0000
0000
1300
0001
1000
0000
,  // measure 8
0001
0000
0010
0000
0100
0001
0100
0000
,  // measure 9
1000
0000
0000
0001
0000
0000
0010
0000
0100
0000
0010
0000
1001
0000
0000
0000
,  // measure 10
0100
0000
0010
0000
1000
0010
1000
0000
,  // measure 11
0001
0000
0000
0010
0000
0000
0100
0000
2000
0000
0000
0000
3001
0010
0001
0000
,  // measure 12
0100
0001
0100
0000
0010
1000
0010
0010
,  // measure 13
0000
1000
0100
0010
0001
0000
0110
0000
,  // measure 14
0001
0010
0010
0000
0100
1000
0100
0010
,  // measure 15
0000
0000
0001
0000
0010
0000
0100
0000
1000
0000
0000
0000
0010
0100
0010
0000
,  // measure 16
1000
0100
0100
0000
0010
0001
0010
0100
,  // measure 17
0000
1000
0100
0001
0100
0000
1001
0000
,  // measure 18
0010
0100
0100
0000
0001
0010
0100
0010
,  // measure 19
0000
0000
0001
0000
0010
0000
1000
0000
0010
0000
0000
0000
0001
1000
0001
0000
,  // measure 20
1000
0100
1000
0100
0010
0001
0001
0000
,  // measure 21
0100
0010
1000
0010
0100
0001
0001
0100
,  // measure 22
0010
0000
1000
0100
1000
0000
0010
0000
0010
0000
0000
0000
0100
0000
0001
0000
,  // measure 23
0010
0000
0001
1000
0001
0000
0010
0000
0100
0000
0000
0000
1000
0001
1000
0000
,  // measure 24
0120
0000
1000
1000
0000
0000
0031
0000
,  // measure 25
0210
0000
0001
0001
0000
0000
1300
0000
,  // measure 26
0012
0000
1003
0010
0000
0010
0101
0000
,  // measure 27
0010
0000
0100
0000
1000
0000
0001
0000
0100
0000
0010
0000
0000
1000
0100
0000
,  // measure 28
0011
0000
0000
0000
0010
0000
0000
1000
0100
0000
1000
0000
0001
0000
0000
0000
,  // measure 29
0010
0000
0000
0000
0100
0000
0000
0010
0001
0000
0010
0000
0100
0000
0000
0000
,  // measure 30
1000
0001
0010
0001
0100
0001
1000
0001
,  // measure 31
0000
0000
0010
0000
0100
0000
0000
0000
1000
0000
1000
0000
0010
0100
0010
0000
,  // measure 32
1000
0000
0000
0000
0010
0000
0000
1000
0100
0000
0010
0000
0001
0000
0000
0000
,  // measure 33
0100
0000
0000
0000
0001
0000
0000
0010
0100
0000
1000
0000
0001
0000
0000
0000
,  // measure 34
0100
0001
0001
0000
0010
0100
1000
0100
,  // measure 35
0000
0000
1000
0000
0010
0000
0001
0000
0010
0000
0000
0000
1000
0001
1000
0000
,  // measure 36
0001
0010
0100
0010
0100
1000
1000
0001
,  // measure 37
0010
0100
0010
0001
0010
0100
0100
0010
,  // measure 38
1001
0000
0000
0000
0100
0000
0001
1000
0001
0000
0000
0000
0010
0000
0100
0001
,  // measure 39
0100
0000
1000
0000
0100
0000
0010
0000
0001
0000
0000
0000
0100
0010
0100
0000
,  // measure 40
0001
1000
0100
0010
0100
0010
0010
1000
,  // measure 41
0001
0100
1000
0100
0001
0100
0100
0010
,  // measure 42
1001
0000
0000
0000
0010
0000
0100
1000
0100
0000
0000
0000
1000
0000
0100
0010
,  // measure 43
0100
0000
0010
0000
0001
0000
0010
0000
0100
0000
0000
0000
1000
0001
1000
0000
,  // measure 44
0120
0000
1000
1000
0000
0100
0130
0000
,  // measure 45
0001
0010
0001
0000
0010
0000
0100
0000
1000
0000
1000
0000
0110
0000
0000
0000
,  // measure 46
1001
0000
0000
0000
;

//---------------dance-single - ----------------
#NOTES:
     dance-single:
     BEGINNER:
     Beginner:
     3:
     0.138498,0.173190,0.112950,0.075300,0.000000,103.000000,91.000000,12.000000,8.000000,0.000000,0.000000,0.138498,0.173190,0.112950,0.075300,0.000000,103.000000,91.000000,12.000000,8.000000,0.000000,0.000000:
0000
1000
0000
1000
,
0000
0001
0000
0001
,
0000
0100
0000
0100
,
0220
0000
0000
0330
,
1000
1000
0000
0000
,
0000
1000
0000
1000
,
0000
0001
0000
0001
,
0000
0010
0010
0010
,
0100
0100
0000
0100
,
0000
1000
0000
1000
,
0000
0001
0000
0001
,
0000
0100
0100
0100
,
1001
0000
0001
0000
,
0002
0000
0003
0000
,
1001
0000
1000
0000
,
2000
0000
3000
0000
,
0110
0000
0010
0000
,
0020
0000
0030
0000
,
0110
0000
0100
0000
,
0200
0000
0300
0000
,
0001
0001
0001
0000
,
0001
0001
0001
0000
,
1000
0000
0000
0000
,
1000
0000
0000
0000
,
1001
0000
0000
0000
,
0010
0000
0000
0000
,
0010
0010
0010
0000
,
0010
0010
0010
0000
,
1001
0000
0000
0000
,
0100
0000
0000
0000
,
0100
0100
0100
0000
,
0100
0100
0100
0000
,
0110
0000
0000
0000
,
1000
0000
0000
0000
,
0001
0001
0001
0000
,
0001
0001
0001
0000
,
1000
0000
1000
0000
,
1000
0000
1000
0000
,
1001
0000
0000
0000
,
0001
0001
0001
0000
,
0001
0000
0001
0000
,
0001
0000
0001
0000
,
1001
0000
0000
0000
,
1000
1000
1000
0000
,
0220
0000
0330
0000
,
1000
1000
1000
0000
,
1001
0000
0000
0000
;

//---------------dance-double - ----------------
#NOTES:
     dance-double:
     BASIC:
     Easy:
     6:
     0.205730,0.238136,0.207074,0.207074,0.000000,153.000000,131.000000,22.000000,22.000000,0.000000,0.000000,0.205730,0.238136,0.207074,0.207074,0.000000,153.000000,131.000000,22.000000,22.000000,0.000000,0.000000:
00000000
10000000
00000000
10000000
,
01000000
00010000
00000000
00000100
,
00001000
00000010
00000000
00000100
,
00002002
00000000
00000000
00003003
,
00000010
00000010
00000010
00001000
,
00000010
00000000
00000010
00001000
,
00010000
00010000
00010000
01000000
,
00010000
00000000
10000000
01000000
,
00101000
00101000
00002000
00003000
,
00010000
00000100
00000010
00000001
,
00001001
00001001
00000200
00000300
,
00000010
00010000
00000100
00010000
,
00011000
00000000
00011000
00000000
,
02002000
00000000
03003000
00000000
,
00011000
00000000
00011000
00000000
,
00020020
00000000
00030030
00000000
,
00001000
00001000
00100000
00001000
,
00100000
01000000
10000000
01010000
,
00010000
00010000
00001000
00010000
,
00000100
00000010
00000001
00001010
,
00010000
00010000
00010000
00000000
,
00010000
00010000
00010000
00000000
,
00001000
00001000
00001000
00000000
,
00001000
00001000
00001000
00000000
,
20020000
00000000
30030000
00000000
,
02200000
00000000
03300000
00000000
,
00100000
00000000
00100000
00001000
,
00010000
00000000
00010000
00001000
,
00020200
00000000
00030300
00000000
,
00002020
00000000
00003030
00000000
,
00000001
00000001
00000001
00000000
,
00001000
00001000
00001000
00000000
,
00020020
00000000
00030030
00000000
,
00202000
00000000
00303000
00000000
,
01000000
01000000
01000000
00000000
,
00100000
00100000
00100000
00000000
,
10000000
01000000
00100000
00010000
,
01000000
00001000
01000000
00010000
,
00100000
00001000
00010000
00001000
,
00000100
00000000
00000100
00000010
,
00001000
00000001
00000010
00000100
,
00010000
01000000
00100000
00010000
,
01000000
10000000
01000000
00010000
,
20020000
00000000
00000000
30030000
,
00100000
00100000
00100000
01100000
,
00000000
00100000
00010000
00001000
,
00001100
00000000
00000000
00000000
;

//---------------dance-double - ----------------
#NOTES:
     dance-double:
     DIFFICULT:
     Medium:
     8:
     0.325403,0.324730,0.225899,0.225899,0.009412,242.000000,218.000000,24.000000,24.000000,0.000000,0.000000,0.325403,0.324730,0.225899,0.225899,0.009412,242.000000,218.000000,24.000000,24.000000,0.000000,0.000000:
00010000
00000000
10100000
00000000
00000000
10000000
00100000
00000000
,
01000000
00000000
00010000
01000000
00010000
00000000
00100000
00000000
,
00010000
00000000
00011000
00000000
00000000
00001000
00000100
00000000
,
00001000
00000100
00001000
00000100
00000010
00000001
00000010
00000001
,
00001000
00000000
00001000
00000100
,
00010000
00100000
01000000
10010000
,
00100000
00000000
00100000
10000000
,
01000000
00000000
00100000
00000000
00010000
00000000
00100000
00001000
,
00010000
00000000
00000100
00010000
00001000
00000000
00000100
00000000
,
00000010
00000000
00000001
00000000
00001000
00000010
00001000
00000000
,
00000010
00010000
00001000
00000000
00010000
00000000
00000100
00000000
,
00001000
00000000
00010000
00000000
00100000
01000000
10000000
00000000
,
02200000
03300000
20020000
30030000
,
00000000
10000000
01000000
00100000
00010000
00000000
01000000
00000000
,
00001000
00001000
00010000
00010000
,
00000100
00010000
00001000
00000100
00000010
00000000
00000110
00000000
,
00002002
00003003
00000220
00000330
,
00000000
00000001
00000010
00000100
00001000
00000000
00000010
00000000
,
00010000
00010000
00001000
00001000
,
00100000
00010000
00001000
00000100
00011000
00000000
01000000
00000000
,
00010000
00000000
10000000
00100000
20200000
00000000
30300000
00000000
,
01000000
00000000
00001000
00100000
00202000
00000000
00303000
00000000
,
00000100
00011000
00000100
00000011
,
00000100
00000010
00000100
00001000
00010000
00000000
00001000
00000000
,
01000000
00100000
20020000
30030000
,
00010000
01000000
00202000
00303000
,
00010000
00000000
00000100
00010000
00000000
00000100
00010000
00000000
,
00001000
00000100
00000010
00001000
00000001
00000010
00000100
00000010
,
00000100
00000000
00010000
00000000
00001000
00000000
00100000
00010000
,
00100000
00000000
01000000
00000000
10000000
00000000
00010000
10000000
,
00010000
00000000
00000000
01000000
00000000
00000000
01000000
00000000
01000000
00000000
00000000
00000000
10010000
00000000
00000000
00000000
,
00100000
00001000
00100000
00000000
00001000
00001000
00001000
00000000
,
00010000
00000000
00000100
00000000
00000010
00000000
00000001
00001000
,
00000001
00000000
00000010
00000000
00000100
00000000
00010000
00000100
,
00010000
00000000
00000000
00001000
00000000
00000000
00100000
00000000
00100000
00000000
00000000
00000000
10010000
00000000
00000000
00000000
,
00100000
01000000
10000000
01000000
00100000
00000000
10010000
00000000
,
01000000
01000000
02200000
03300000
,
00100000
00001000
00010000
00001000
00000100
00000010
00001000
00000000
,
00000100
00000000
00000100
00000000
00002002
00000000
00000000
00003003
,
00000000
00000010
00000001
00000100
00001000
00000100
00000010
00000000
,
00000100
00000100
00020020
00030030
,
00010000
00000100
00010000
00001000
00100000
01000000
10000000
00000000
,
01000000
00000000
01000000
00000000
20020000
00000000
00000000
30030000
,
00000000
01000000
10000000
01000000
00100000
01000000
00010000
00000000
,
01100000
00010000
01000000
00001000
,
00100000
00001000
00100000
00000000
00001000
00010000
00001000
00000000
,
00010100
00000000
00000000
00000000
;

//---------------dance-double - ----------------
#NOTES:
     dance-double:
     EXPERT:
     Hard:
     10:
     0.449109,0.411325,0.263549,0.160012,0.075300,334.000000,306.000000,28.000000,17.000000,0.000000,0.000000,0.449109,0.411325,0.263549,0.160012,0.075300,334.000000,306.000000,28.000000,17.000000,0.000000,0.000000:
00100000
10000000
01000000
00100000
00000000
01000000
00101000
00000000
,
00010000
00001000
00000100
00000010
00001000
00000000
00000001
00000000
,
00000010
00000100
00001000
00000001
00000000
00000010
00010100
00000000
,
00001000
00100000
00100000
00010000
01000000
10000000
10000000
01000000
,
00010000
00000000
00000000
00100000
00000000
00000000
00001000
00000000
00010000
00000000
00001000
00000000
00000100
00000000
00000000
00000000
,
00000010
00000000
00000000
00000110
00000000
00000000
00000001
00000000
00001020
00000000
00000000
00000000
00000130
00000000
00000000
00000000
,
00000001
00000000
00000000
00001000
00000000
00000000
00000100
00000000
00000010
00000000
00000100
00000000
00001000
00000000
00000000
00000000
,
00010000
00100000
01000000
10000000
00100000
01000000
01100000
00000000
,
00010000
00000000
00000000
10000000
00000000
00000000
00100000
00000000
01000000
00000000
00010000
00000000
01000000
00000000
00000000
00000000
,
00001000
00000000
00000000
00110000
00000000
00000000
00100000
00000000
00021000
00000000
00000000
00000000
00030100
00000000
00000000
00000000
,
00001000
00000000
00000000
00000010
00000000
00000000
00000100
00000000
00000001
00000000
00000010
00000000
00000100
00000000
00000000
00000000
,
00001000
00010000
00100000
01000000
00100000
00010000
10000000
00100000
,
01000000
00100000
00100000
00000000
01000000
10000000
01000000
00200000
,
00000000
01300000
00010000
00001000
00000100
00000010
00001001
00000000
,
00000010
00000100
00000100
00000000
00001000
00000100
00010000
00002000
,
00000000
00103000
00001000
00010000
00100000
01000000
10010000
00000000
,
00100000
10000000
00100000
00000000
10000000
01000000
10000000
00000000
,
02000000
00100000
00100000
03100000
00010000
01000000
00001000
00010000
,
00001000
00000100
00001000
00000000
00000100
00000010
00000100
00000000
,
00000020
00001000
00001000
00001030
00000100
00010000
00001000
00100000
,
01000000
10000000
01000000
00100000
00010000
01000000
00100000
00000000
,
01000000
00001000
00100000
00001000
00010000
00001000
00000100
00000010
,
00001000
00000010
00000100
00000000
00000001
00000100
00000010
00000000
,
00002000
00000000
00000100
00000000
00000100
00000000
00003100
00000000
00010000
00000000
00100000
00000000
01000000
00100000
01000000
00000000
,
10010000
00000000
00000000
00000000
00100000
00000000
00000000
10000000
01000000
00000000
00100000
00000000
00010000
00000000
00000000
00000000
,
01000000
00000000
00000000
00000000
00101000
00000000
00000000
00001000
00010000
00000000
00000100
00000000
00000000
00000000
00001000
00000000
,
00000010
00000001
00000010
00001000
00000010
00000100
00000010
00000000
,
00000100
00000001
00000010
00000100
00001000
00000100
00010000
00000010
,
00010000
00001000
00100000
00020000
01000000
01000000
01030000
00000000
,
00010000
00100000
01000000
20000000
00100000
00100000
30100000
00000000
,
01000000
00000000
00010000
00100000
00010000
00000000
01000000
00000000
00100000
00000000
00010000
00000000
00011000
00000000
00000000
00000000
,
00000200
00001000
00002300
00000000
00000010
00003010
00000110
00000000
,
00000010
00000001
00001000
00000100
00000010
00000100
00001000
00000100
,
00010000
00001000
00010000
00001000
00100000
01000000
10000000
01000000
,
00100000
00000000
00000000
00010000
00000000
00000000
01000000
00000000
10000000
00000000
01000000
00000000
00210000
00000000
00000000
00000000
,
00302000
00100000
00100000
00103000
00001000
00010000
00001000
00000100
,
00000011
00000000
00001100
00000000
00000010
00000010
00000100
00001000
,
00011000
00000000
01100000
00000000
10000000
01000000
00100000
00010000
,
01100000
00000000
00000000
00000000
00101000
00000000
00010000
00002000
00020000
00000000
00000000
00000000
00000000
00000000
00033000
00000000
,
00000000
00000000
00000100
00000000
00010000
00000000
00001000
00000000
00000100
00000000
00000010
00000000
00000100
00000010
00000100
00000000
,
00001010
00000000
00000101
00000000
00000010
00010000
00001000
00000100
,
00011000
00000000
10100000
00000000
00010000
01000000
00100000
10000000
,
00110000
00000000
00000000
00000000
01001000
00000000
00100000
00002000
00200000
00000000
00000000
00000000
00000000
00000000
00303000
00000000
,
00000000
00000000
00010000
00000000
00001000
00000000
00010000
00000000
00100000
00000000
01000000
00000000
10000000
00010000
10000000
00000000
,
01100000
00000000
00010000
00000000
01000000
01000000
01000000
00000000
,
00001000
00000000
00000000
00100000
00000000
00000000
00010000
00000000
00001000
00000000
00000100
00000000
00000010
00000000
00000000
00000000
,
00001001
00000000
00000000
00000000
;
