#TITLE:Far Side Of The Tracks;
#SUBTITLE:;
#ARTIST:VECTOR LOVERS;
#TITLETRANSLIT:;
#SUBTITLETRANSLIT:;
#ARTISTTRANSLIT:;
#GENRE:AMBIENT TECHNO;
#CREDIT:YonabearCWY;
#BANNER:Far Side Of The Tracks.png;
#BACKGROUND:Far Side Of The Tracks-bg.png;
#LYRICSPATH:;
#CDTITLE:cdtitle.png;
#MUSIC:Far Side of the Tracks.ogg;
#OFFSET:-12.300000;
#SAMPLESTART:38.498478;
#SAMPLELENGTH:15.000000;
#SELECTABLE:YES;
#BPMS:0.000000=125.999992
;
#STOPS:
;
#BGCHANGES:0.000=bracelet1.mp4=1.000=1=0=1===CrossFade==,
12.000=cube3.mp4=1.000=0=0=1=====,
16.000=cube3r.mp4=1.000=0=0=1=====,
20.000=cube3.mp4=1.000=0=1=1=StretchRewind====,
24.000=cube3r.mp4=1.000=0=1=1=StretchRewind====,
28.000=bracelet1.mp4=1.000=0=1=1=StretchRewind====,
44.000=crystal1.mp4=1.000=0=0=1=====,
51.000=light5.mp4=0.500=0=0=1=====,
54.000=light5.mp4=1.000=0=0=1=====,
55.000=lines4.mp4=0.700=0=0=1=====,
63.000=bubble2.mp4=1.000=0=0=1=====,
71.000=light5.mp4=1.000=0=1=1=StretchRewind====,
79.000=bubble1.mp4=1.000=0=0=1=====,
85.000=crystal1.mp4=1.000=0=1=1=StretchRewind====,
87.000=egg8.mp4=1.000=0=0=1=====,
95.000=kaliedoscope7.mp4=1.000=0=0=1=====,
103.000=egg9.mp4=1.000=0=0=1=====,
111.000=lines4.mp4=0.700=0=1=1=StretchRewind====,
119.000=bubble2.mp4=1.000=0=1=1=StretchRewind====,
127.000=bubble1.mp4=1.000=0=1=1=StretchRewind====,
135.000=light5.mp4=1.000=0=1=1=StretchRewind====,
143.000=bracelet1.mp4=1.000=0=1=1=StretchRewind====,
151.000=cube3.mp4=1.000=0=1=1=StretchRewind====,
155.000=cube3r.mp4=1.000=0=1=1=StretchRewind====,
159.000=cube3.mp4=1.000=0=1=1=StretchRewind====,
163.000=cube3r.mp4=1.000=0=1=1=StretchRewind====,
167.000=crystal1.mp4=1.000=0=1=1=StretchRewind====,
175.000=egg8.mp4=1.000=0=1=1=StretchRewind====,
183.000=kaliedoscope7.mp4=1.000=0=1=1=StretchRewind====,
191.000=bubble2.mp4=1.000=0=1=1=StretchRewind====,
199.000=bubble1.mp4=1.000=0=1=1=StretchRewind====,
211.000=Far Side Of The Tracks-bg.png=1.000=0=0=1=====,
99999=-nosongbg-=1.000=0=0=0 // don't automatically add -songbackground-
;
#KEYSOUNDS:;
#ATTACKS:;

//---------------dance-double - ----------------
#NOTES:
     dance-double:
     EXPERT:
     Hard:
     13:
     0.000000,0.000000,0.000000,0.000000,0.000000,0.000000,0.000000,0.000000,0.000000,0.000000,0.000000,0.000000,0.000000,0.000000,0.000000,0.000000,0.000000,0.000000,0.000000,0.000000,0.000000,0.000000:
00000100
00001000
00000100
00001000
00000000
00000000
00010000
01000000
00010000
01000000
00000000
00000000
00000000
00000000
10000000
00000000
,
00100000
01000000
00100000
01000000
00000000
00000000
00001000
00100000
00001000
00100000
00000000
00010000
00000000
00000000
00001000
00000000
,
00000100
00000010
00000100
00000010
00000000
00000000
00000001
00001000
00000000
00000000
00000010
00000000
00000100
00000000
00000000
00000000
,
00010000
00000000
00000000
01000000
00000000
00000000
00100000
00000000
00000000
01000000
00010000
00000000
10000000
00000000
00000000
00000000
,
01000000
00000000
00000000
00010000
00000000
00000000
00001000
00000000
00000000
00000010
00000001
00000000
00000100
00000000
00000000
00000000
,
00000010
00000000
00000000
00001000
00000000
00000000
00000100
00010000
00000100
00010000
00001000
00010000
00001000
00000000
00000000
00000000
,
00100000
00000000
00000000
01000000
00000000
00000000
00010000
00000000
00000000
00000000
01000000
00000000
10000000
00000000
00000000
00000000
,
00100000
00000000
00000000
01000000
00000000
00000000
00001000
00000000
00000000
00010000
00000100
00010000
00000100
00000000
00000000
00000000
,
00000010
00000000
00000000
00000100
00000000
00000000
00010000
00000000
00000000
00000000
00000100
00000000
00001000
00000000
00000000
00000000
,
00000100
00000000
00000000
00010000
00000000
00000000
00001000
00000000
00000000
00100000
00000000
00010000
01000000
00000000
00000000
00000000
,
00100000
00000000
00000000
10000000
00000000
00000000
01000000
00000000
00000000
00000000
00100000
00000000
00001000
00000000
00000000
00000000
,
00000000
00010000
00000000
00000100
00001000
00000000
00001000
00000010
00001000
00000100
00000000
00001000
00000000
00000001
00000010
00000001
,
00000000
00000100
00000000
00000010
00001000
00000000
00000100
00010000
00001000
00000000
00010000
00000000
00012000
00000000
00000000
00000000
,
00000000
00000000
00000000
00000000
00000000
00000000
00000000
00000000
00013000
00001000
00010000
00001000
00100000
00000000
00010000
00000000
,
01000000
00000000
10000000
00000000
01000000
00000000
00010000
01000000
00000000
00000000
00100000
00000000
10000000
00000000
01000000
00000000
,
00100000
00000000
00010000
00000000
00100000
00000000
00001000
00000000
00010000
00001000
00010000
00000000
00000100
00000000
00001000
00000000
,
00000010
00000000
00000001
00000000
00000010
00000000
00001000
00000100
00000000
00000000
00000100
00010000
00000000
00000000
00010000
00001000
,
00000000
00000000
00001000
01000000
00000000
00000000
01000000
00100000
01000000
00100000
10000000
00000000
01000000
00000000
00100000
00000000
,
00001000
00000000
00010000
00001000
00000000
00000000
00100000
00000000
00001000
00000000
00100000
00000000
01000000
00000000
00100000
00000000
,
00010000
00000000
00001000
00010000
00001000
00000000
00010000
00000000
00000100
00000000
00000010
00000000
00000100
00000000
00000001
00001000
,
00000001
00000000
00000100
00000010
00000100
00000000
00000001
00000000
00000010
00000100
00001000
00000100
00002000
00000000
00000000
00000000
,
00000000
00000000
00000000
00000000
00003100
00010000
00001000
00100000
,
01000000
00000000
10000000
00200000
00000000
00000000
00000000
00000000
01300000
00000000
00010000
00000000
00210000
00000000
00000000
00000000
,
00301000
00000000
00010000
00000100
00010000
00001000
00010000
00001000
00020000
00000000
00000000
00000000
00030010
00000000
00001000
00000000
,
00000100
00000000
00000010
00000001
00000000
00000001
00001000
00000000
00000100
00000000
00010000
00000000
00012000
00000000
00000000
00000000
,
00103000
00000000
00010000
00000000
10000000
01000000
10000000
01000000
00100000
00010000
00100000
00010000
01000000
00000000
00010000
00000000
,
10000000
00000000
00010000
01000000
00000000
00000000
00100000
00000000
01000000
00000000
00100000
00000000
00010000
00000000
00001000
00000000
,
00010000
00000100
00010000
00000000
00000010
00000000
00001000
00000000
00000001
00000100
00000001
00000000
00000010
00000000
00000100
00000000
,
00001000
00000000
00000001
00000010
00000001
00000000
00000100
00000000
00000010
00000000
00001000
00000000
00000100
00000000
00010000
00001000
,
00010000
00000000
00000100
00000000
00001000
00000000
00010000
00000000
00100000
01000000
00100000
01000000
10000000
00000000
00010000
00000000
,
01000000
00000000
00100000
00010000
00100000
00000000
01000000
00000000
00001000
00100000
00001000
00000000
00010000
00000000
00000100
00010000
,
00000100
00000000
00010000
00000000
00001000
00000100
00001000
00000000
00010000
00000000
00000010
00000000
00000100
00000000
00001000
00000000
,
00000100
00000000
00000001
00001000
00000000
00000000
00001000
00000010
00000100
00000000
00000010
00000000
00000010
00000000
00000000
00000000
,
00001000
00000100
00010000
00000100
00010000
00000000
00001000
00000000
00001000
00000000
00100000
00000000
01000000
00000000
10000000
00000000
,
00100000
00000000
20000000
00000000
00000000
00000000
30010000
01000000
00010000
00000000
00200000
00000000
00000000
00000000
00301000
00000000
,
01000000
00000000
00020000
00000000
00000000
00000000
00130000
00001000
00010000
00000000
00000100
00000000
00001000
00000000
00000100
00000000
,
00000010
00000000
00000200
00000000
00000000
00000000
00001300
00000001
00001000
00000000
00000020
00000000
00000000
00000000
00000130
00000000
,
00000001
00000000
00000010
00000000
00000100
00001000
00000100
00000000
00010000
00000010
00010000
00000000
00001000
00000000
00100000
00000000
,
01000000
00000000
10000000
00000000
01000000
00100000
00000000
00100000
00020000
00000000
00000000
00000000
01030000
00000000
00001000
00000000
,
00100000
00000000
00010000
00000000
00100000
00000000
00001000
00000000
00010000
00001000
00000000
00001000
00000100
00000000
00001000
00000000
,
00010000
00000100
00010000
00001000
00000010
00000100
00001000
00000002
,
00000000
00000000
00000013
00000100
00000010
00000100
00000001
00000000
00000100
00000000
00001000
00000000
00010000
00000000
00100000
02000000
,
00000000
00000000
00010000
00000000
00000000
00000000
10000000
00000000
13000000
00000000
00000000
00000000
00100000
00000000
00000000
01000000
,
00000000
00000000
00001000
00000000
00000000
00100000
00001000
00000000
00010000
00000100
00010000
00000100
00002000
00000000
00000010
00000000
,
00000010
00000000
00000000
00000001
00000000
00000000
00003100
00000000
00001000
00000000
00000000
00000000
00010200
00000000
00000000
00000000
,
00000000
00010000
00000000
00001000
00001300
00000000
00012000
00000000
,
00000000
00100000
00000000
01000000
01003000
00000000
00100000
10000000
,
01000000
00000000
00000000
10000000
00000000
00010000
01000000
00000000
00001000
00000000
00000000
00100000
00010000
00000000
00001000
00000000
,
00000100
00000000
00000000
00001000
00000000
00000010
00000100
00000000
00000001
00000000
00000000
00001000
00000010
00000000
00000100
00000000
,
00000000
00001200
00000000
00010000
00010300
00000000
00100000
00010000
,
00000000
02010000
00000000
00001000
03001000
00000000
00220000
00000000
,
00000000
00030000
00000000
00301000
00010000
00000000
00002020
00000000
,
00000000
00003000
00000000
00010030
00001000
00000000
00022000
00000000
,
00000000
00000000
00000000
00033000
;

//---------------dance-single - ----------------
#NOTES:
     dance-single:
     BEGINNER:
     Beginner:
     2:
     0.000000,0.000000,0.000000,0.000000,0.000000,0.000000,0.000000,0.000000,0.000000,0.000000,0.000000,0.000000,0.000000,0.000000,0.000000,0.000000,0.000000,0.000000,0.000000,0.000000,0.000000,0.000000:
0100
0000
0000
0000
,
0010
0000
0000
0000
,
0100
0000
0000
0000
,
0010
0000
0000
0000
,
0001
0000
0000
0000
,
1000
0000
0000
0000
,
0001
0000
0000
0000
,
1000
0000
0000
0000
,
0100
0000
0000
0000
,
0010
0000
0000
0000
,
0100
0000
0000
0000
,
0220
0000
0000
0000
,
0000
0000
0000
0000
,
0330
0000
0000
0001
,
0000
0001
0000
0001
,
0000
0000
0000
1000
,
0000
1000
0000
1000
,
0000
0000
0000
0010
,
0000
0010
0000
0010
,
0000
0100
0000
0100
,
0000
0100
0000
0001
,
0000
2002
0000
3003
,
0010
0000
0010
0000
,
0010
0000
0100
0000
,
0100
0000
0100
0000
,
0000
1001
0000
1000
,
0000
1000
0000
1000
,
0000
0001
0001
0000
,
0001
0000
0001
0100
,
0000
0100
0000
0100
,
0100
0010
0000
0010
,
0100
0001
1000
0001
,
0000
0001
0000
1000
,
0000
1000
0001
0101
,
0000
0000
0000
1000
,
1000
1000
0000
0000
,
0110
0000
0000
0010
,
0010
0010
0000
0000
,
0100
0000
0100
0000
,
0100
0000
0000
0000
,
0010
0000
0010
0000
,
0010
0000
0000
1001
,
0000
0000
0000
0100
,
0000
0000
0000
0010
,
0000
0000
0000
0100
,
0000
0000
0000
0110
,
0000
0000
0000
0001
,
0000
0000
0000
1000
,
0000
0000
0000
0001
,
0000
0000
0000
0100
,
0000
0000
0000
0010
,
0000
0000
0000
0100
,
0000
0000
0000
0110
;

//---------------dance-single - ----------------
#NOTES:
     dance-single:
     BASIC:
     Easy:
     6:
     0.000000,0.000000,0.000000,0.000000,0.000000,0.000000,0.000000,0.000000,0.000000,0.000000,0.000000,0.000000,0.000000,0.000000,0.000000,0.000000,0.000000,0.000000,0.000000,0.000000,0.000000,0.000000:
1000
0000
0000
0000
0000
0001
0000
0000
,
1000
0000
0000
0000
0000
0001
0000
0000
,
0010
0000
0000
0000
0000
0100
0000
0000
,
0010
0000
0000
0000
0000
0100
0000
0000
,
1000
0000
0000
0000
0000
0000
0000
0001
0000
0000
0001
0000
0000
0000
0000
0000
,
1000
0000
0000
0000
0000
0001
0000
0000
,
0010
0000
0000
0000
0000
0000
0000
0100
0000
0000
0100
0000
0000
0000
0000
0000
,
0010
0000
0000
0000
0000
0001
0010
0000
,
1001
0000
0000
0000
0000
0100
0000
0000
,
1010
0000
0000
0000
0000
0100
0001
0000
,
0110
0000
0000
0000
0000
0001
0000
0000
,
2002
0000
0000
0000
,
0000
0000
0000
0000
,
3003
0000
0000
1000
,
0000
1000
1000
0010
,
0100
0000
0010
0000
,
0100
0001
0010
0100
,
1000
0010
0100
0001
,
0000
0001
0001
1000
,
0010
0000
0100
0001
,
0010
0100
0010
0001
,
1000
0000
0110
0000
0002
2000
0000
0000
,
0000
0000
3003
0020
,
0100
0000
0130
0001
,
2000
0000
3010
1000
,
0001
0120
0000
1030
,
0001
0001
1000
0001
,
1000
1000
0001
0100
,
0010
0010
0100
0010
,
0100
0100
0010
0100
,
0001
0000
0010
0001
,
1000
0000
0010
1000
,
0010
0000
0100
0001
,
0100
0000
0000
0001
,
1000
0001
0000
1000
0000
1000
0001
0000
,
0010
0100
1000
0010
,
0100
0010
0000
0010
0000
0100
0010
0000
,
0100
0001
0010
0100
,
1000
0001
1000
0120
,
0000
0000
0000
1000
0000
0000
1030
0000
0000
0000
0000
0000
0210
0000
0000
0000
,
0000
0000
0000
0301
0000
0000
1002
0000
,
0000
0000
0000
0010
0000
0000
0013
0000
0000
0000
0000
0000
2002
0000
0000
0000
,
0000
0000
0000
3003
0000
0000
0220
0000
,
0000
0000
0000
0330
0000
0000
1000
0000
,
0010
0000
0100
0001
0000
0000
0010
0000
,
0001
0000
0000
1000
0000
0000
0010
0000
,
0100
0000
0001
1000
0000
0000
0100
0000
,
0010
0000
0000
1000
0000
0000
0011
0000
,
1000
1000
0000
1100
,
0001
0001
0000
0220
,
0000
0000
0000
0330
0000
0000
0202
0000
,
0000
0000
0000
0303
0000
0000
2020
0000
,
0000
0000
0000
3030
0000
0000
2002
0000
,
0000
0000
0000
3003
;

//---------------dance-single - ----------------
#NOTES:
     dance-single:
     DIFFICULT:
     Medium:
     9:
     0.000000,0.000000,0.000000,0.000000,0.000000,0.000000,0.000000,0.000000,0.000000,0.000000,0.000000,0.000000,0.000000,0.000000,0.000000,0.000000,0.000000,0.000000,0.000000,0.000000,0.000000,0.000000:
2010
0000
0000
0000
0000
0000
0000
0001
0000
0000
0100
0000
3100
0000
0000
0000
,
0012
0000
0000
0000
0100
0103
0000
0000
,
2002
0000
0000
0000
0000
0000
0000
3000
0000
0000
0003
0000
0000
0000
0000
0000
,
0220
0000
0000
0000
0030
0300
0000
0000
,
0022
0000
0000
0000
0000
0000
0000
0030
0000
0000
0003
0000
0000
0000
0000
0000
,
2020
0000
0000
0000
0030
3000
0000
0000
,
0102
0000
0000
0000
0000
0000
0000
1000
0000
0000
0013
0000
0000
0000
0000
0000
,
0210
0000
0000
0301
0000
1000
0001
0000
,
0120
0000
0000
0000
0000
0000
0000
1000
0000
0000
0130
0000
0000
0000
0000
0000
,
2100
0000
0000
3001
0000
0100
0010
0000
,
1002
0000
0000
0000
0000
0000
0000
0010
0000
0000
0103
0000
0000
0000
0001
0000
,
0220
0000
0000
0000
,
0000
0000
0000
0330
,
0000
0000
0000
0000
0001
1000
0001
0100
,
0000
0010
0000
1000
0100
1000
0000
0010
,
0000
0100
0000
0010
0001
0010
0000
0100
,
0000
0011
0000
1000
0000
1010
0000
0001
,
0000
0100
0000
0010
1000
0010
0100
0001
,
0000
1000
0000
0100
0010
0100
0000
1000
,
0000
0010
0100
0010
0000
0001
0000
0110
,
0000
1000
0010
0100
0001
0001
2020
0000
,
0030
0000
3001
0000
0100
0002
0000
0000
0000
0000
0013
0000
0200
0000
0000
0000
,
0001
0000
1000
0000
0310
0100
2000
0000
,
0010
0000
0001
0000
3100
1000
0002
0000
,
0010
0000
0100
0000
0013
0001
0100
0000
,
0010
0000
2002
0000
0000
3003
0000
0100
,
0000
0010
0000
1000
0010
0100
0000
0001
,
0000
0010
0000
0100
0010
0001
0000
0010
,
0000
0100
0000
1000
0100
0001
0000
0100
,
0000
1000
0010
0001
0010
1000
0010
0100
,
0000
0001
0000
0010
0001
0010
1000
0010
,
0100
0010
0000
0001
0100
0010
0000
1000
,
0000
0100
1000
0010
1000
0001
0000
0010
,
0000
0001
0100
0010
1000
0010
0100
0100
,
0020
0000
0000
1000
0000
0000
1000
0000
1030
0000
0000
0000
0200
0000
0000
0000
,
0001
1000
0301
0020
,
0100
0000
0000
0001
0000
0000
0100
0000
0130
0000
0000
0000
0002
0000
0000
0000
,
1000
0100
1000
0023
,
0001
0001
0000
0100
0000
1000
1030
0000
,
0010
0001
0100
0000
0010
1000
0200
0000
,
1000
1000
0000
0010
0000
0001
0301
0000
,
0100
1000
0010
0001
0010
0000
2001
0000
,
0000
0000
0000
0010
0000
0000
0100
0000
3100
0000
0000
0000
2002
0000
0000
0000
,
0000
3000
0000
0013
0000
0000
0210
0000
,
0000
0000
0000
0001
0000
0000
1300
0000
0000
0000
0000
0000
0120
0000
0000
0000
,
0000
0000
0000
0031
0000
0000
2020
0000
,
0000
0000
0000
3000
0000
0000
0030
0000
0000
0000
0000
0000
0202
0000
0000
0000
,
0000
0000
0000
0303
0000
0000
0022
0000
,
0000
0000
0000
0030
0000
0000
0003
0000
0000
0000
0000
0000
1002
0000
0000
0000
,
0000
0000
0000
0100
0000
0000
0010
0000
0013
0000
0000
0000
2010
0000
0000
0000
,
0000
0000
0000
0100
0000
0000
0010
0000
0010
0000
0000
0000
0001
0000
0000
0000
,
0100
0100
0000
0001
3001
0000
0012
0000
,
1000
0000
0000
1000
0000
0000
0010
0000
0013
0000
0000
0000
2002
0000
0000
0000
,
0000
0000
0000
3003
;

//---------------dance-single - ----------------
#NOTES:
     dance-single:
     EXPERT:
     Hard:
     13:
     0.470238,0.604688,0.100000,0.266667,0.491667,395.000000,383.000000,12.000000,32.000000,0.000000,0.000000,0.470238,0.604688,0.100000,0.266667,0.491667,395.000000,383.000000,12.000000,32.000000,0.000000,0.000000:
// measure 0
0002
0000
0000
0010
0000
0000
0000
1003
0000
0000
0010
0000
0001
0000
0000
0000
,  // measure 1
2000
0000
0000
0010
0000
0000
3001
0000
0000
0000
0010
0000
0100
0000
0000
0000
,  // measure 2
2001
0000
0000
0000
0000
0000
0000
0100
0000
0000
3001
0000
1000
0000
0000
0000
,  // measure 3
0120
0000
0000
0000
0000
1030
0100
0000
,  // measure 4
0201
0000
0000
0000
0000
0000
0000
0001
0000
0000
0301
0000
1000
0000
0000
0000
,  // measure 5
0022
0000
0000
0000
0000
0033
0000
0000
,  // measure 6
1020
0000
0000
0000
0000
0000
0000
0100
0000
0000
1030
0000
0001
0000
0010
0000
,  // measure 7
2200
0000
0000
0000
0000
3300
0000
0000
,  // measure 8
0210
0000
0000
0000
0000
0000
0000
1000
0000
0000
0310
0000
0100
0000
0001
0000
,  // measure 9
0202
0000
0000
0000
0000
0303
0000
0000
,  // measure 10
1002
0000
0000
0010
0000
0000
0000
0100
0000
0000
1003
0000
0010
0000
0100
0000
,  // measure 11
0000
0100
0000
0001
1000
0000
0000
0010
0000
1000
0001
0000
0100
0001
0100
0001
,  // measure 12
1000
0000
0010
0000
0100
0000
0001
0000
0100
0010
0100
0010
0002
0000
0000
0000
,  // measure 13
0000
0000
0000
0000
0003
0000
0000
0000
1000
0001
1000
0001
1000
0000
0001
0000
,  // measure 14
0100
0000
0001
0010
0000
0000
0100
1000
0000
0000
0010
0000
0000
0000
0100
0000
,  // measure 15
0001
0000
1000
0010
0000
0000
0100
0000
0001
0000
1010
0000
0100
0000
0010
0000
,  // measure 16
0001
0000
0010
0100
0000
0100
0010
0000
0000
1000
0001
0000
0000
0010
0100
0000
,  // measure 17
0000
1000
0010
0000
0100
0000
0001
0000
0010
0000
0100
0000
1000
0000
0001
0000
,  // measure 18
0010
0000
0001
0100
0001
0000
0010
0000
0100
0000
0011
0000
0000
0000
1001
0000
,  // measure 19
0000
0000
1000
0010
1000
0000
0010
0000
0100
0001
0100
0000
0010
0000
1000
0001
,  // measure 20
0200
0000
0000
0000
0310
0000
0100
0001
1000
0000
0010
0000
0100
0010
0100
0010
,  // measure 21
1000
0100
1000
0200
0000
0000
0000
0000
0000
0000
1300
0000
0002
0000
0000
0000
,  // measure 22
0013
0000
0100
1000
0000
1000
0001
0000
0100
0000
0010
0000
0200
0000
0000
0000
,  // measure 23
0301
0000
0010
0100
0010
0000
0100
1000
0001
0000
1000
0010
2000
0000
0000
0000
,  // measure 24
3001
0000
0100
0010
0000
0010
0001
0000
0010
0000
0100
0000
0020
0000
0000
0000
,  // measure 25
1030
0000
0100
0010
0100
0010
0001
0000
1000
0000
0010
0000
0100
0000
1000
0000
,  // measure 26
0001
0000
0010
0100
0000
0000
0001
1000
0000
0000
0100
0000
0010
0000
0000
0000
,  // measure 27
0001
0100
0001
0100
0001
0000
1000
0010
1000
0010
1000
0000
0100
0000
0010
0000
,  // measure 28
0100
0000
0001
0200
0000
0000
1300
0000
0100
0000
0010
0001
0000
1000
0010
1000
,  // measure 29
0000
0001
0100
0000
0010
1000
0010
1000
0010
0000
0100
0000
0001
0000
1000
0010
,  // measure 30
1000
0010
1000
0000
0001
0000
0010
0001
0010
0000
0100
0000
0010
0001
0000
0001
,  // measure 31
1000
0000
0100
0010
0100
0010
0001
0000
0010
0100
0000
0100
1000
0000
0010
0000
,  // measure 32
0000
0000
0100
0001
0000
0000
1000
0010
0100
0000
0001
0000
0010
0100
1000
0000
,  // measure 33
0000
0010
0100
0001
0100
0000
0001
0000
0020
0000
0000
0000
0230
0000
0000
0000
,  // measure 34
1000
1000
0000
0001
0001
0000
1000
0000
,  // measure 35
0001
0000
0301
0000
0000
1000
0100
0010
0100
0000
0010
0000
0002
0000
0000
0000
,  // measure 36
1000
1000
0000
0010
0010
0000
0100
0000
,  // measure 37
0010
0000
0013
0000
0000
0001
0010
0100
0010
0000
0100
0000
1000
0010
0000
0010
,  // measure 38
0100
0000
0100
0001
0000
0000
0010
0100
0010
0100
0000
1000
0100
0010
0000
0010
,  // measure 39
0001
0000
0001
0100
0000
0000
0010
1000
0010
1000
0000
0001
0100
0001
0100
0010
,  // measure 40
0100
0010
1000
0010
1000
0000
0100
0000
0010
0000
0001
0000
1000
0010
1000
0010
,  // measure 41
1000
0000
0100
0010
0100
0010
0100
0000
0010
0001
0010
0002
0020
0000
0000
0000
,  // measure 42
0000
0000
0000
0000
0003
0000
0032
1000
,  // measure 43
1000
0000
0000
0100
0000
0000
1000
0000
1000
0000
0000
0000
0203
0000
0010
0000
,  // measure 44
0010
0000
0000
0001
0000
0000
1000
0000
1000
0000
0000
0000
0320
0000
0100
0000
,  // measure 45
0100
0000
0000
0001
0000
0000
1000
0000
1030
0000
0000
0100
0010
0000
0100
0000
,  // measure 46
0001
0000
0000
0100
0000
1000
0010
0000
0100
0000
0000
0001
0010
0001
0010
0000
,  // measure 47
0100
0000
0000
0010
0000
0100
1000
0000
0010
0000
0000
0100
0001
0000
0010
0000
,  // measure 48
0100
0000
0000
1000
0000
0100
0010
0000
0001
0000
0000
1000
0010
0000
0100
0000
,  // measure 49
0001
0000
0000
0010
0000
0100
1000
0001
1000
0000
0000
0100
0020
0000
0000
0000
,  // measure 50
0000
0000
0000
1000
0000
0000
0001
0000
0001
0000
0000
0000
0001
0000
0000
0000
,  // measure 51
0000
0000
0000
1000
0000
0000
1000
0000
,  // measure 52
0000
0000
0000
0001
0000
0000
1000
0000
1000
0000
0000
0000
0200
0000
0000
0000
,  // measure 53
0000
0000
0000
0330
;
