#TITLE:FUNKY MODELLING;
#SUBTITLE:;
#ARTIST:SPARKER;
#TITLETRANSLIT:;
#SUBTITLETRANSLIT:;
#ARTISTTRANSLIT:;
#GENRE:BREAKBEATS;
#CREDIT:YonabearCWY;
#BANNER:FUNKY MODELLING.png;
#BACKGROUND:FUNKY MODELLING-bg.png;
#LYRICSPATH:;
#CDTITLE:Dance ManiaX.png;
#MUSIC:FUNKY MODELLING.ogg;
#OFFSET:-6.955000;
#SAMPLESTART:27.504427;
#SAMPLELENGTH:15.000000;
#SELECTABLE:YES;
#BPMS:0.000000=140.000000
;
#STOPS:
;
#BGCHANGES:0.000=circle13.avi=1.400=1=0=1===CrossFade==,
16.000=cube2.mp4=2.000=0=0=1=====,
32.000=circle7.mp4=1.200=0=0=1=====,
37.000=circle7r.mp4=1.200=0=0=1=====,
42.000=circle7.mp4=1.200=0=1=1=StretchRewind====,
48.000=orange2.avi=1.600=0=0=1=====,
56.000=orange2r.avi=1.600=0=0=1=====,
64.000=cube5.mp4=1.600=0=0=1=====,
80.000=pentagon2.avi=1.600=0=0=1=====,
92.000=pentagon2a.mp4=1.600=0=0=1=====,
96.000=tunnel6a.mp4=1.400=0=0=1=====,
100.000=tunnel7a.mp4=1.400=0=0=1=====,
104.000=tunnel6b.mp4=1.400=0=0=1=====,
108.000=tunnel7b.mp4=1.400=0=0=1=====,
112.000=bubble1.mp4=1.200=0=0=1=====,
128.000=cube2.mp4=2.000=0=1=1=StretchRewind====,
144.000=cube4.mp4=1.600=0=0=1=====,
148.000=cube4.mp4=1.600=0=1=1=StretchRewind====,
152.000=cube4.mp4=1.600=0=1=1=StretchRewind====,
156.000=cube4.mp4=1.600=0=1=1=StretchRewind====,
158.000=cube4a.jpg=1.000=0=0=1=====,
159.000=cube4b.jpg=1.000=0=0=1=====,
159.500=cube4c.jpg=1.000=0=0=1=====,
160.000=circle7r.mp4=1.200=0=1=1=StretchRewind====,
164.000=orange2.avi=1.600=0=1=1=StretchRewind====,
172.000=orange2r.avi=1.600=0=1=1=StretchRewind====,
180.000=pentagon2.avi=0.700=0=1=1=StretchRewind====,
188.000=pentagon2.avi=1.000=0=1=1=StretchRewind====,
194.000=pentagon2.avi=2.000=0=1=1=StretchRewind====,
196.000=FUNKY MODELLING-bg.png=1.000=0=0=1=====,
99999=-nosongbg-=1.000=0=0=0 // don't automatically add -songbackground-
;
#KEYSOUNDS:;
#ATTACKS:;

//---------------dance-single - ----------------
#NOTES:
     dance-single:
     BEGINNER:
     Beginner:
     4:
     0.000000,0.000000,0.000000,0.000000,0.000000,0.000000,0.000000,0.000000,0.000000,0.000000,0.000000,0.000000,0.000000,0.000000,0.000000,0.000000,0.000000,0.000000,0.000000,0.000000,0.000000,0.000000:
1000
1000
1000
0000
,
1000
1000
1000
0000
,
0001
0001
0001
0000
,
0001
0001
0001
0000
,
1000
0000
0000
0000
,
1000
0000
0000
0000
,
0001
0000
0000
0000
,
0001
0000
0000
0000
,
0100
0000
0000
0000
,
0100
0000
0000
0000
,
0010
0000
0000
0000
,
0010
0010
0010
0010
,
0110
0000
0000
0000
,
0110
0000
0000
0000
,
1001
0000
0000
0000
,
1001
0000
0000
0000
,
0100
0100
0100
0000
,
0100
0100
0100
0000
,
0010
0010
0010
0000
,
0010
0010
0010
0000
,
1001
0000
0000
0000
,
1001
0000
0000
0000
,
0110
0000
0000
0000
,
0110
0000
0000
0000
,
1000
0000
1000
0000
,
1000
0000
0001
0000
,
0001
0000
0001
0000
,
0100
0000
0200
0000
,
0300
0000
0000
0000
,
0000
0000
0000
0000
,
0010
0000
0010
0000
,
0020
0000
0000
0030
,
1000
1000
1000
0000
,
2000
0000
3000
0000
,
0001
0001
0001
0000
,
0002
0000
0003
0000
,
1001
0000
0000
0000
,
1001
0000
0000
0000
,
0110
0000
0000
0000
,
0220
0000
0000
0000
0000
0000
0300
0030
,
0000
0000
0000
0000
,
1000
0000
1000
1000
,
1000
0000
0001
0001
,
0001
0000
0010
0010
,
0010
0000
0100
0100
,
2002
0000
0000
3003
,
0010
0000
0010
0000
,
0100
0000
0100
0000
,
0001
0000
0001
0000
,
2002
0000
0000
0000
,
3003
0000
0000
0000
;

//---------------dance-single - ----------------
#NOTES:
     dance-single:
     BASIC:
     Easy:
     6:
     0.000000,0.000000,0.000000,0.000000,0.000000,0.000000,0.000000,0.000000,0.000000,0.000000,0.000000,0.000000,0.000000,0.000000,0.000000,0.000000,0.000000,0.000000,0.000000,0.000000,0.000000,0.000000:
1000
1000
1000
0000
,
1000
1000
1000
0000
,
0001
0001
0001
0000
,
0001
0001
2002
3003
,
0100
0100
0100
0010
,
0100
0100
0100
0000
,
0010
0010
0010
1000
,
0010
0010
0010
0000
,
1000
1000
1000
0001
,
1000
1000
1000
0000
,
0001
0001
0001
1000
,
0220
0000
0000
0330
,
1000
0000
0100
1000
,
1001
0000
0001
0010
,
0011
0000
0100
0010
,
1010
0000
0010
0100
,
0101
0000
0001
0010
,
0100
0100
1000
0010
,
0100
0100
0001
0010
,
0001
1000
1000
0010
,
2002
0000
0000
3003
,
0220
0000
0000
0330
,
2020
0000
0000
3030
,
0202
0000
0000
0303
,
0010
0000
0000
0000
0010
0000
0000
0000
0010
0000
0000
0010
0000
0000
0000
0000
,
0100
0000
0000
0000
0100
0000
0000
0000
0100
0000
0000
0100
0000
0000
0000
0000
,
0001
0000
0000
0000
0001
0000
0000
0000
0001
0000
0000
0001
0000
0000
0000
0000
,
1000
0000
0000
0000
1000
0000
0000
0000
1000
0000
0000
1001
0000
0000
0000
0000
,
0000
0000
0000
0000
,
0000
0000
0000
0000
,
0020
1000
1030
0000
,
0200
0001
0301
0000
,
0110
0010
0010
0000
,
0100
0100
0100
0000
,
1001
1000
1000
0000
,
0001
0001
0001
0000
,
2002
0000
3003
0000
,
0220
0000
0330
0000
,
2020
0000
3030
0000
,
0202
0000
0000
0000
0000
0000
0300
0003
,
0000
0000
0000
0000
,
1000
1000
0100
1000
,
0010
0010
0100
0001
,
0100
0100
0001
0010
,
0100
0100
1000
0010
,
2002
0000
0000
3003
,
0200
0000
0000
0300
,
0020
1000
0001
1030
,
0200
0001
0010
1300
,
2002
0000
0000
0000
,
3003
0000
0000
0000
;

//---------------dance-single - ----------------
#NOTES:
     dance-single:
     DIFFICULT:
     Medium:
     8:
     0.000000,0.000000,0.000000,0.000000,0.000000,0.000000,0.000000,0.000000,0.000000,0.000000,0.000000,0.000000,0.000000,0.000000,0.000000,0.000000,0.000000,0.000000,0.000000,0.000000,0.000000,0.000000:
1000
0000
1000
0000
1000
0000
0001
0100
,
0010
0000
0010
0000
0010
0000
1000
0010
,
0100
0000
0100
0000
0100
0000
0001
0010
,
0100
1000
0001
0000
0220
0000
0330
0000
,
1000
0000
0010
0000
0001
0000
0010
1000
,
0001
0000
0100
0000
1000
0000
0100
0001
,
0010
0000
0001
0000
0100
0000
0010
1000
,
0001
0000
1000
0000
0100
0010
0001
0010
,
0100
0000
1000
0000
0010
0000
0100
1000
,
0100
0000
0010
0000
0100
0000
0010
0001
,
0010
0000
0100
0000
0001
0000
1000
0001
,
1001
0010
0220
0330
,
1000
0010
1000
0000
0010
0010
0010
0000
,
0100
0001
0100
0000
0010
0010
0010
0000
,
0100
1000
0100
0000
0011
0000
0101
0000
,
0010
0001
0010
0000
1100
0000
1001
0000
,
0100
0001
0100
0000
0010
0010
0010
0000
,
1000
0001
1000
0000
0010
0010
0010
0000
,
0100
1000
0100
0000
0110
0000
1001
0000
,
0010
0001
0010
0000
0110
0000
1001
0000
,
0200
0000
0000
0300
,
0020
0000
0000
0030
,
2200
0000
0000
3300
,
0202
0000
0000
0303
,
0010
0000
0010
0000
0010
0000
1000
0010
,
0001
0000
0010
0000
0010
0000
0100
0001
,
1000
0000
1000
0000
1000
0000
0001
0100
,
1000
0000
0100
0000
0100
0000
0001
2002
,
0000
0000
0000
0000
,
3003
0000
0000
0000
,
1000
0000
0000
0010
0000
0000
0100
0000
0001
0000
0000
0000
0011
0000
0000
0000
,
0001
0000
0000
0010
0000
0000
0100
0000
1000
0000
0000
0000
0010
0000
0000
0000
,
0200
0000
0010
0000
0310
0000
0100
0001
,
2000
0000
0000
0000
0001
0000
0000
0000
3001
0000
0000
0000
1000
0000
0000
0010
,
0000
0100
0002
0000
0010
0000
0013
0001
,
2000
0000
0100
0000
3100
0000
1000
0010
,
0220
0000
0330
0000
,
2002
0000
3003
0000
,
0022
0000
0033
0000
,
2200
0000
0300
0000
3020
0000
2030
3002
,
0013
0000
0000
0000
,
0001
0000
0001
0000
0100
0001
0100
0000
,
0010
0000
0010
0000
1000
0010
1000
0000
,
0100
0000
0100
0000
1000
0001
1000
0000
,
0010
0000
0010
0000
0100
0001
0100
0000
,
0022
0000
0000
0003
,
0200
0000
0000
0030
,
2300
0010
0100
0001
,
3020
1000
0001
1030
,
2002
0000
0000
0000
,
3003
0000
0000
0000
;

//---------------dance-single - ----------------
#NOTES:
     dance-single:
     EXPERT:
     Hard:
     11:
     0.000000,0.000000,0.000000,0.000000,0.000000,0.000000,0.000000,0.000000,0.000000,0.000000,0.000000,0.000000,0.000000,0.000000,0.000000,0.000000,0.000000,0.000000,0.000000,0.000000,0.000000,0.000000:
1000
0000
0000
0000
1000
0000
0000
0000
1000
0000
0000
0001
0010
0000
0100
0000
,
0010
0000
0000
0000
0010
0000
0000
0000
0010
0000
0000
0100
1000
0000
0001
0000
,
0100
0000
0000
0000
0100
0000
0000
0000
0100
0000
0000
0001
1000
0000
0100
0000
,
0010
0100
1010
0000
0100
0001
0010
0100
,
0010
0000
0001
0000
1000
0000
0010
0000
0001
0000
0010
0000
1000
0000
0000
0010
,
0100
1000
0100
0001
0100
0010
0001
0010
,
1000
0000
0001
0000
0100
0000
0010
0000
1000
0000
0100
0000
0010
0000
0000
0100
,
1000
0001
0010
0100
0001
1000
0100
0010
,
0001
0100
1000
0100
0001
0010
0001
0000
,
1000
0000
0010
0000
0100
0000
0010
0000
0001
0000
0010
0000
0100
0000
0000
0010
,
1000
0100
0001
0100
0010
0100
1000
0000
,
0110
0000
1000
0000
0001
0000
0000
0010
0000
0000
0001
0000
0100
0000
0000
0000
,
0010
0000
1000
0000
0100
0000
0000
1000
0000
0001
0010
0000
0001
0000
0000
0000
,
0100
0000
0010
0000
0001
0000
0000
0010
0000
0100
0010
0000
0100
0000
0001
0000
,
0010
0000
0100
0000
1000
0000
0000
0010
0000
0100
0001
0000
1000
0000
0000
0000
,
0001
0000
0100
0000
0010
0000
0000
1000
0000
0010
1000
0000
0001
0000
0010
0000
,
0100
0000
1000
0000
0100
0000
0000
0010
0000
0000
0001
0000
0100
0000
1000
0000
,
0100
0000
0010
0000
0100
0000
0000
0001
0000
0000
1000
0000
0010
0000
0001
0000
,
0010
0000
0100
0000
0010
0000
0000
1000
0000
0000
0100
0000
0010
0000
0100
0000
,
1000
0100
0001
0100
1000
0001
0010
1000
,
0011
0000
0000
0000
1010
0000
0000
0000
0100
0000
0000
0010
0000
0001
0010
0000
,
1100
0000
0000
0000
0101
0000
0000
0000
0010
0000
0000
1000
0001
0000
1000
0000
,
0110
0000
0000
0000
0011
0000
0000
0000
0100
0000
0000
1000
0000
0010
0100
0000
,
1010
0000
0000
0000
0110
0000
0000
0000
0100
0000
0000
0001
0010
0000
0100
0000
,
0010
0001
1000
0100
0001
0010
1000
0010
,
0001
0010
1000
0100
0010
1000
0010
0001
,
0100
1000
0100
0001
0010
1000
0100
0001
,
0010
0000
0001
0000
0100
0000
0010
0000
1000
0000
0100
0000
0010
0100
0020
0200
,
0000
0000
0000
0000
,
0000
0000
0000
0330
,
2000
0000
0000
0010
0000
0000
0100
0000
3100
0000
0000
0000
0010
0000
0100
0000
,
0002
0000
0000
0010
0000
0000
1000
0000
1003
0000
0000
0010
0000
0100
0000
0001
,
0010
0000
0101
0000
1001
0000
1000
0010
,
0100
0000
0000
0000
0110
0000
0000
0000
0010
0000
1000
0000
0001
0000
0000
0100
,
0000
0010
0011
0000
1001
0000
0100
0010
,
1000
0000
1100
0000
0101
0000
0010
0100
,
1002
0000
0100
0100
0000
0000
0100
0000
,
0023
0000
0001
0001
0000
0000
0001
0000
,
0230
0000
0010
0010
0000
0000
1000
0000
,
2300
0000
0010
0000
3200
1000
2300
3002
,
0003
0000
0000
0000
,
0100
0000
0010
0000
0001
0000
0000
1000
0010
0000
0010
0000
0010
0000
0000
0000
,
0100
0000
0010
0000
1000
0000
0000
0001
0010
0000
0010
0000
0010
0000
0000
0000
,
0100
0000
1000
0000
0010
0000
0000
0100
0000
0100
0001
0000
0100
0000
0000
0000
,
0010
0000
0100
0000
0001
0000
0000
1000
0000
1000
0001
0000
1000
0000
0000
0000
,
0210
0000
0000
0000
1000
0000
0000
0001
0000
0000
1000
0000
1300
0000
0000
0000
,
0120
0000
0000
0000
0031
0000
0001
0010
0000
0000
0100
0000
1000
0000
0001
0000
,
2010
0000
0000
0000
3100
0000
0010
0000
0001
0000
0100
0010
1000
0000
0100
0000
,
0001
0000
0010
0000
1000
0000
0100
0000
0001
0000
0010
1000
0100
0000
1000
0000
,
2002
0000
0000
0000
,
3003
0000
0000
0000
;

//---------------dance-single - ----------------
#NOTES:
     dance-single:
     CHALLENGE:
     Challenge:
     13:
     0.595044,0.657403,0.052592,0.136740,0.562737,396.000000,391.000000,5.000000,13.000000,0.000000,0.000000,0.595044,0.657403,0.052592,0.136740,0.562737,396.000000,391.000000,5.000000,13.000000,0.000000,0.000000:
// measure 0
1000
0010
0000
0000
0100
0001
0000
0000
0010
0000
0001
1000
0000
0000
0100
0000
,  // measure 1
0010
0001
0000
0000
0100
0010
0000
0000
1000
0000
0001
0100
0000
0010
0000
0000
,  // measure 2
0100
0000
0001
0000
0100
0000
0000
0000
0010
0000
1000
0001
0000
0000
0100
0000
,  // measure 3
0001
0000
0010
0000
0001
0000
0000
0000
1000
0010
1000
0010
0000
0000
0001
0000
,  // measure 4
0100
0000
1000
0000
0100
0000
0001
0000
0100
0000
1000
0000
0100
0000
0000
0001
,  // measure 5
1000
0010
0001
0010
1000
0010
0100
0001
,  // measure 6
1000
0000
0010
0000
0001
0000
0010
0000
1000
0000
0010
0000
0100
0000
0000
0001
,  // measure 7
0010
1000
0010
0001
0100
0010
1000
0000
,  // measure 8
0001
0000
1000
0000
0010
0000
0100
0000
0010
0000
0001
0000
0010
0000
0000
0100
,  // measure 9
0001
1000
0100
0010
0100
1000
0100
0010
,  // measure 10
0001
0100
1000
0100
0010
0100
0010
0001
,  // measure 11
0110
0000
0000
0001
1000
0000
0000
0100
0010
0000
0000
0001
0100
0000
0010
0000
,  // measure 12
1000
0100
1000
0100
0000
0000
0000
0010
0001
0000
1000
0000
1000
0000
0000
0000
,  // measure 13
0001
0100
0001
0100
0000
0000
0000
0010
1000
0000
0001
0000
0001
0000
0000
0000
,  // measure 14
0100
0010
0100
0010
0000
0000
0000
0001
1000
0000
0100
0000
0100
0000
0000
0000
,  // measure 15
0010
0100
0010
0100
0000
0000
0000
1000
0001
0000
0010
0000
0010
0000
0000
0000
,  // measure 16
0001
0000
0100
0000
1000
0000
0000
0100
0001
0000
0010
0000
0010
0000
0000
0000
,  // measure 17
0100
0000
1000
0000
0001
0000
0000
1000
0010
0000
0100
0000
0100
0000
0000
0000
,  // measure 18
0001
0000
0010
0000
1000
0000
0000
0010
0001
0000
1000
0000
1000
0000
0000
0000
,  // measure 19
0110
0000
0000
1000
0010
0000
0000
0100
0001
0000
0000
0010
0100
0000
1000
0000
,  // measure 20
0001
0000
0001
0000
1000
0000
1000
0000
0100
1000
0100
1000
0100
1000
0100
1000
,  // measure 21
0100
0000
0100
0000
0010
0000
0010
0000
0001
1000
0001
1000
0001
1000
0001
1000
,  // measure 22
0001
0000
0001
0000
0010
0000
0010
0000
0100
0010
0100
0010
0100
0010
0100
0010
,  // measure 23
0100
0000
0100
0000
1000
0000
1000
0000
0010
0100
0010
0100
0010
0100
0010
0100
,  // measure 24
0010
0000
1000
0000
0001
0000
1000
0000
0010
0000
0000
0100
0000
1000
0001
0000
,  // measure 25
0010
0000
0001
0000
0100
0000
0001
0000
0010
0000
0000
0001
0000
1000
0010
0000
,  // measure 26
1000
0000
0100
0000
1000
0000
0010
0000
0100
0000
0000
0010
0000
0001
0100
0000
,  // measure 27
1000
0000
0100
0000
0010
0000
0001
0000
0010
0000
0000
0100
0000
0001
2000
0002
,  // measure 28
0000
0000
0000
3003
,  // measure 29
2000
0010
0100
0010
,  // measure 30
3002
0000
0000
0010
0000
0000
0100
0000
0100
0000
0000
0000
2003
0000
0000
0000
,  // measure 31
3001
0000
0000
0000
0110
0000
0000
0000
0001
1000
0001
1000
0000
0000
0010
0000
,  // measure 32
0001
0000
0010
0000
0100
0000
0010
0000
0100
0000
1000
0001
0000
1000
0000
0000
,  // measure 33
0001
0000
0100
0000
0001
0000
1000
0000
0010
0000
1000
0100
0000
0100
0010
0000
,  // measure 34
0001
0000
1000
0000
0001
0000
0100
0000
0001
0000
0010
0001
0000
1000
0000
0000
,  // measure 35
0100
1000
0100
0001
0100
0010
0001
1000
,  // measure 36
0020
0000
0000
0000
1000
0000
1030
0010
0000
0100
0000
0000
0001
0000
0010
0000
,  // measure 37
0200
0000
0000
0000
0010
0000
0310
0001
0000
1000
0000
0000
0001
0000
1000
0010
,  // measure 38
2000
0000
0000
0000
0001
0000
3001
0010
0000
0100
0000
0000
1000
0000
0001
0000
,  // measure 39
0010
0001
1000
0001
1200
0000
2300
3020
,  // measure 40
0130
0000
0000
0000
,  // measure 41
0001
1000
0001
0100
0000
0000
0010
1000
0000
1000
0100
0000
0010
0000
0000
0000
,  // measure 42
0100
0010
0001
0010
0000
0000
0001
0100
0000
0100
0010
0000
1000
0000
0000
0000
,  // measure 43
0100
1000
0001
1000
0000
0000
0100
0010
0000
0010
0001
0000
1000
0000
0000
0000
,  // measure 44
0001
1000
0010
1000
0000
0000
0100
0001
0000
0001
0010
0000
0100
0000
1000
0000
,  // measure 45
0001
1000
0010
1000
0100
0000
1000
0010
0000
0100
0000
0000
0001
0000
0010
0000
,  // measure 46
0100
0010
0001
0010
1000
0000
0010
0001
0000
0000
0100
0000
0010
0000
0000
0000
,  // measure 47
0100
1000
0100
0001
0100
0000
1000
0001
0000
0010
0000
0000
0001
0000
0100
0000
,  // measure 48
1001
0000
0000
0100
0010
0000
0000
0001
0100
0000
0010
1000
0000
0010
0000
2000
,  // measure 49
0002
0000
0000
0000
,  // measure 50
3003
0000
0000
0000
;

//---------------dance-double - ----------------
#NOTES:
     dance-double:
     BASIC:
     Easy:
     8:
     0.000000,0.000000,0.000000,0.000000,0.000000,0.000000,0.000000,0.000000,0.000000,0.000000,0.000000,0.000000,0.000000,0.000000,0.000000,0.000000,0.000000,0.000000,0.000000,0.000000,0.000000,0.000000:
00001000
00001000
00001000
00000000
,
00000001
00000001
00000001
00000000
,
00001000
00001000
00001000
00000000
,
00000010
00000010
00000110
00000000
,
00001000
00000000
00000100
00000000
00010000
00000000
00001000
00010000
,
00001000
00100000
00010000
10010000
,
00010000
00000000
01000000
00000000
00010000
00000000
00100000
00001000
,
00100000
00001000
00010000
00011000
,
00000100
00000000
00001000
00000000
00000100
00000000
00000010
00000001
,
00000010
00000100
00001000
00011000
,
00100000
00000000
00010000
00000000
01000000
00000000
00010000
10000000
,
00000000
00010000
00000000
00010000
00000000
10000000
00010000
00000000
,
00220000
00000000
00000000
00000000
00330000
00000000
00001000
00010000
,
00000200
00000000
00001000
00000000
00001300
00000000
00000010
00000100
,
00002002
00000000
00000000
00000000
00003003
00000000
00000010
00010000
,
00002000
00000000
00010000
00000000
00013000
00000000
00100000
00010000
,
02020000
00000000
00000000
00000000
03030000
00000000
00100000
10000000
,
02000000
00000000
10000000
00000000
13000000
00000000
01000000
00100000
,
00022000
00000000
00000000
00000000
00033000
00000000
00001000
00010000
,
00000200
00000000
00001000
00000000
00001300
00000000
00000010
00000100
,
00000102
00000000
00001000
00000000
00000010
00000000
00001003
00000010
,
00000200
00000000
00000010
00000000
00001000
00000000
00000310
00010000
,
00000100
00000000
00010000
00000000
00001000
00000000
00100000
00010000
,
01000000
00000000
00100000
00000000
10000000
00000000
01000000
00100000
,
00010000
00000000
00011000
00000000
00001100
00000000
00000100
00000010
,
00000001
00000000
00000110
00000000
00001010
00000000
00000010
00010000
,
00001000
00000000
00011000
00000000
01001000
00000000
00100000
00010000
,
10000000
00000000
01100000
00000000
10010000
00000000
00100000
01000000
,
00000000
00000000
00000000
00000000
,
00000000
00000000
00000000
00000000
,
00000002
00001000
00001003
00000000
,
00002000
00003010
00000220
00000330
,
00000010
00010000
00001000
00010000
,
00001000
01000000
00010000
01000000
,
00100000
10000000
01000000
00100000
,
00010000
00001000
00000100
00001000
,
00000220
00000000
00000000
00000330
,
00022000
00000000
00000000
00033000
,
20020000
00000000
00000000
30030000
,
00200000
00000000
10000000
00000000
20300000
00000000
30100000
01000000
,
00000000
00000000
00000000
00000000
,
00000100
00000000
00000100
00000000
00000100
00001000
00000010
00000000
,
00000100
00000000
00000100
00000000
00000100
00000001
00000010
00000000
,
00000001
00000000
00000001
00000000
00000001
00000010
00000100
00000000
,
00001000
00000000
00010000
00000000
00100000
01000000
10000000
00000000
,
02020000
00000000
00000000
03030000
,
00200000
00300000
02000000
03000000
,
00010000
00000000
00100000
00000000
00001000
00000000
00010000
00001000
,
00000100
00000000
00000010
00000000
00001000
00000000
00000010
00001000
,
00002020
00000000
00000000
00000000
,
00003030
00000000
00000000
00000000
;

//---------------dance-double - ----------------
#NOTES:
     dance-double:
     DIFFICULT:
     Medium:
     11:
     0.000000,0.000000,0.000000,0.000000,0.000000,0.000000,0.000000,0.000000,0.000000,0.000000,0.000000,0.000000,0.000000,0.000000,0.000000,0.000000,0.000000,0.000000,0.000000,0.000000,0.000000,0.000000:
00001000
00000000
00001000
00000000
00000001
00000000
00000010
00000100
,
00001000
00000000
00000100
00000000
00000100
00010000
00001000
00010000
,
00100000
00000000
00100000
00000000
01000000
00000000
10000000
01000000
,
00100000
00000000
00010000
00000000
00110000
00000000
00000000
00000000
00010000
00000000
10000000
00100000
00000000
01000000
00000000
00000000
,
00010000
00100000
00010000
00001000
00000100
00000010
00000100
00001000
,
00000001
00000000
00000100
00000000
00000010
00000000
00001000
00000000
00000100
00000000
00010000
00000000
00001000
00000000
00000000
00100000
,
00010000
10000000
01000000
00100000
00010000
00100000
01000000
00010000
,
00001000
00000000
00010000
00000000
00000100
00000000
00001000
00000000
00000010
00000000
00000100
00000000
00001001
00000000
00000000
00000010
,
00000001
00000100
00000010
00001000
00000010
00000001
00000010
00000100
,
00001000
00000000
00010000
00000000
00001000
00000000
00100000
00000000
00010000
00000000
01000000
00000000
00010000
00000000
00000000
10000000
,
01000000
00100000
00010000
00100000
01000000
00100000
00001000
00010000
,
00011000
00000000
00000000
00000100
00000010
00000000
00000000
00000001
00001000
00000000
00000000
00000000
00000010
00000000
00000100
00000000
,
00000001
00000000
00000010
00000000
00000001
00000000
00000000
00001000
00000000
00000010
00000100
00000000
00000010
00000000
00000000
00000000
,
00010000
00000000
00000100
00000000
00010000
00000000
00000000
00001000
00000000
00010000
00001000
00000000
01000000
00000000
00100000
00000000
,
00010000
00000000
00100000
00000000
10000000
00000000
00000000
01000000
00000000
10000000
00010000
00000000
01000000
00000000
00000000
00000000
,
00100000
00000000
01000000
00000000
00010000
00000000
00000000
00100000
00000000
00001000
00010000
00000000
00000100
00000000
00000010
00000000
,
00000100
00010000
00000100
00001000
00000010
00000100
00000011
00000000
,
00000100
00000010
00000100
00001000
00010000
00001000
00101000
00000000
,
00001000
00010000
00100000
01000000
00100000
00010000
10100000
00000000
,
01000000
00100000
00001000
00010000
00001000
00000100
00000010
00001000
,
00000102
00000000
00000000
00000000
00000010
00000000
00000000
00000000
00000103
00000000
00000000
00000010
00000000
00000001
00001000
00000000
,
00001200
00000000
00000010
00000000
00001300
00000100
00010000
00000000
,
00012000
00000000
00000000
00000000
00100000
00000000
00000000
00000000
00013000
00000000
00000000
00001000
00000000
00100000
00010000
00000000
,
02100000
00000000
00010000
00000000
03100000
10000000
01000000
00100000
,
00010000
00000000
00000000
00001000
00010000
00000000
00000000
00001000
00010000
00000000
00000100
00000000
00000010
00000000
00000100
00000000
,
00001000
00000000
00000000
00000001
00000100
00000000
00000000
00000001
00000100
00000000
00000010
00000000
00001000
00000000
00000010
00000000
,
00010000
00000000
00000000
00000100
00001000
00000000
00000000
00000100
00001000
00000000
00000100
00000000
00001000
00000000
00010000
00000000
,
00100000
00000000
00000000
00010000
10000000
00000000
00000000
00010000
10000000
00000000
01000000
00000000
00100000
00000000
00001000
00010000
,
00000000
00000000
00000000
00000000
,
00000000
00000000
00000000
00000000
,
00000001
00000000
00000000
00000001
00000000
00000000
00001000
00000000
00000010
00000000
00000000
00000000
00001100
00000000
00000000
00000000
,
00010000
00000000
00001000
00000000
00010000
00000000
00000000
00000000
00001000
00000000
00100000
00010000
00000000
00100000
00000000
00010000
,
01000000
00000000
10000000
00000000
01000000
00000000
00100000
01000000
,
00010000
00000000
00100000
00000000
00001000
00000000
00000100
00000010
,
00000001
00000000
00000010
00000000
00001000
00000000
00000100
00010000
,
00001000
00000000
00100000
00000000
00010000
00000000
01000000
10000000
,
20020000
00000000
00000000
30030000
,
00022000
00000000
00000000
00033000
,
00000220
00000000
00000000
00000330
,
00000011
00000000
00000000
00001000
00000010
00000000
00000000
00001000
00000100
00000000
00020000
00000000
00001000
00000000
00032000
00000000
,
00103000
00000000
00000000
00000000
,
10000000
00000000
00100000
00000000
10000000
00000000
00000000
00010000
00000000
01000000
00010000
00000000
00100000
00000000
00000000
00000000
,
00001000
00010000
00001000
00000000
00010000
00000100
00000010
00000001
,
00000100
00000000
00000010
00000000
00000100
00000000
00000000
00000001
00000000
00000010
00000100
00000000
00001000
00000000
00000000
00000000
,
00000010
00000100
00000010
00001000
00000100
00010000
00000100
00001000
,
00010000
00000000
00000000
00000000
00100000
00000000
00000000
00010000
00000000
10000000
00100000
00000000
01000000
00000000
00100000
00000000
,
00010000
00000000
00000000
00000000
00100000
00000000
00000000
01000000
00000000
00010000
00100000
00000000
00001000
00000000
00010000
00000000
,
00000100
00000000
00000000
00000000
00001000
00000000
00000000
00000100
00000000
00000010
00000001
00000000
00000100
00000000
00000010
00000000
,
00001000
00000000
00000000
00000000
00000100
00000000
00000000
00010000
00000000
00001000
00100000
00000000
00010000
00000000
01000000
00000000
,
22000000
00000000
00000000
00000000
,
33000000
00000000
00000000
00000000
;

//---------------dance-double - ----------------
#NOTES:
     dance-double:
     EXPERT:
     Hard:
     13:
     0.000000,0.000000,0.000000,0.000000,0.000000,0.000000,0.000000,0.000000,0.000000,0.000000,0.000000,0.000000,0.000000,0.000000,0.000000,0.000000,0.000000,0.000000,0.000000,0.000000,0.000000,0.000000:
00010000
10000000
00100000
10000000
01000000
00100000
00100000
00001000
,
00010000
00000100
00010000
00001000
00010000
00000100
00000100
00001000
,
00000100
00000010
00000001
00000100
00001000
00000100
00000100
00000010
,
00001000
00000000
00000100
00000000
00001100
00000000
00000000
00000000
00010000
00001000
00010000
00001000
00000000
00100000
00000000
00010000
,
01000000
10000000
01000000
00010000
10000000
01000000
00010000
01000000
,
10000000
00000000
00100000
00000000
01000000
00000000
00010000
00000000
01000000
00000000
00100000
00000000
00010000
00001000
00010000
00000000
,
00001000
00000100
00000010
00000100
00001000
00000010
00000100
00010000
,
00000100
00000000
00000010
00000000
00001000
00000000
00000010
00000000
00000001
00000000
00000010
00000000
00001000
00000001
00001000
00000001
,
00001000
00000000
00000100
00000000
00000010
00000000
00000100
00000000
00001000
00000000
00010000
00000000
00100000
00000000
00010000
10000000
,
00000000
10000000
00100000
00000000
01000000
00000000
00100000
00000000
10000000
00000000
01000000
00000000
00100000
00010000
00100000
00010000
,
00100000
00000000
00001000
00000000
00010000
00000000
00000100
00000000
00000010
00000000
00000100
00000000
00010000
00000000
00001000
00010000
,
00001000
00010000
00010000
00000100
00010000
00000100
00000100
00001000
,
00010000
00100000
00010000
00100000
00000000
00000000
01000000
10000000
00000000
01000000
00100000
00000000
00010000
00000000
00000000
00000000
,
00100000
00001000
00100000
00001000
00000000
00000000
00010000
00001000
00000000
00000100
00000010
00000000
00001000
00000000
00000000
00000000
,
00000010
00000100
00000010
00000100
00000000
00000000
00000001
00001000
00000000
00000100
00000010
00000000
00000100
00000000
00000000
00000000
,
00010000
00000100
00010000
00000100
00000000
00000000
00001000
00010000
00000000
00100000
01000000
00000000
10000000
00000000
00000000
00000000
,
01000000
00100000
01000000
00100000
00010000
00000000
00100000
00000000
00001000
00000000
00010000
00000000
00001000
00000000
00000100
00000000
,
00000010
00000100
00000010
00000100
00001000
00000000
00000100
00000000
00000001
00000000
00000100
00000000
00000010
00000000
00001000
00000100
,
00010000
00000100
00010000
00000000
00001000
00000000
00100000
00000000
01000000
00000000
00100000
00000000
10000000
00000000
00100000
00010000
,
00100000
00010000
01000000
00000000
00010000
00000000
00100000
00000000
00001000
00000000
00010000
00000000
00100000
00000000
00010000
00000000
,
00002000
00000000
00000000
00000000
00010000
00000000
00000000
00000000
00013000
00000000
00000100
00001000
00000000
00001000
00000010
00000000
,
00000200
00000000
00000000
00000000
00000010
00000000
00000000
00000000
00000310
00000000
00001000
00000100
00000000
00000100
00010000
00000000
,
00002000
00000000
00000000
00000000
00010000
00000000
00000000
00000000
00013000
00000000
00001000
00100000
00010000
00100000
00010000
00000000
,
02000000
00000000
00000000
00000000
00100000
00000000
00000000
00000000
03100000
00000000
10000000
00010000
10000000
00010000
00100000
00000000
,
01000000
00000000
00100000
00000000
00001000
00000000
00100000
00000000
01000000
00000000
00100000
00010000
00100000
00000000
00010000
00000000
,
00001000
00000000
00000100
00000000
00000010
00000000
00000100
00000000
00001000
00000000
00000001
00001000
00000001
00000100
00000001
00000000
,
00000100
00000000
00000010
00000000
00001000
00000000
00000010
00000000
00010000
00000000
00000100
00010000
00000100
00000000
00010000
00000000
,
00001000
00000000
00100000
00000000
01000000
00000000
00100000
00000000
00001000
00000000
00010000
00001000
00010000
00001000
00100000
00001000
,
00000000
00000000
00000000
00000000
,
00000000
00000000
00000000
00000000
,
02000000
00000000
00000000
10000000
00000000
00000000
13000000
00000000
00100000
00000000
00000000
00000000
01000000
00000000
00010000
00000000
,
00100000
00000000
00001000
00000000
00011000
00000000
00000000
00000000
00000010
00001000
00000010
00001000
00000000
00000100
00000000
00000010
,
00000001
00000000
00001000
00000000
00000010
00000000
00000000
00000000
00011000
00000000
00000000
00000100
00000000
00001000
00010000
00000000
,
00100000
00000000
00010000
00000000
10000000
00000000
00000000
00000000
01100000
00000000
10000000
00000000
01000000
00000000
00000000
00100000
,
00000000
00000000
00001000
00000000
00010000
00000000
00000000
00000000
00001100
00000000
00000000
00000010
00000000
00000100
00001000
00000000
,
00000010
00000100
00000001
00000000
00001000
00000010
00000100
00001000
,
00020000
00000000
00001000
00000000
00031000
00000000
00100000
00010000
,
02000000
00000000
00000000
00000000
00100000
00000000
00000000
00000000
03100000
00000000
00000000
00000000
10000000
00000000
01000000
00100000
,
00000000
00100000
00002000
00000000
00010000
00000000
00000000
00000000
00013000
00000000
00000000
00000000
00000100
00000000
00001000
00000000
,
00000020
00000000
00000100
00000000
00000130
00000002
00000023
00000130
,
00000000
00000000
00000000
00000000
,
00100000
00010000
00100000
00010000
00000000
00000000
10000000
01000000
10000000
01000000
10000000
00000000
01000000
00000000
00100000
00000000
,
00001000
00010000
00001000
00010000
00000000
00000000
00000010
00001000
00000010
00001000
00000010
00000000
00000100
00000000
00000001
00000000
,
00000010
00000100
00000010
00000100
00000000
00000000
00010000
00001000
00010000
00001000
00010000
00000000
00001000
00000000
00100000
00000000
,
01000000
10000000
01000000
10000000
00000000
00000000
00010000
01000000
00010000
01000000
00010000
00000000
00100000
00000000
00001000
00000000
,
00000100
00000000
00000010
00000000
00001000
00000000
00000000
00000100
00000000
00000010
00000001
00000000
00000100
00000000
00000010
00000000
,
00001000
00000000
00010000
00000000
00100000
00000000
00010000
01000000
00000000
01000000
00100000
00000000
20000000
00000000
00000000
00000000
,
31000000
10000000
00100000
00010000
00100000
10000000
00010000
01000000
,
00010000
00001000
00000100
00000010
00000100
00001000
00000001
00000010
,
00020200
00000000
00000000
00000000
,
00030300
00000000
00000000
00000000
;

//---------------dance-double - ----------------
#NOTES:
     dance-double:
     CHALLENGE:
     Challenge:
     15:
     0.000000,0.000000,0.000000,0.000000,0.000000,0.000000,0.000000,0.000000,0.000000,0.000000,0.000000,0.000000,0.000000,0.000000,0.000000,0.000000,0.000000,0.000000,0.000000,0.000000,0.000000,0.000000:
00010000
00000000
00000000
10000000
00100000
00000000
00000000
01000000
00010000
00000000
00100000
00000000
00010000
00000000
00001000
00000000
,
00000100
00000000
00000000
00001000
00000010
00000000
00000000
00000100
00000001
00000000
00000010
00000000
00000100
00000000
00001000
00000000
,
00000100
00000000
00000000
00010000
00001000
00000000
00000000
00100000
00010000
00000000
00100000
00000000
01000000
00000000
10000000
00000000
,
00010000
00000000
00100000
00000000
02100000
00000000
00000000
00000000
13000000
00010000
10000000
00010000
00000000
00100000
00000000
00010000
,
01000000
00000000
00100000
00000000
10000000
00000000
01000000
00100000
01000000
00100000
01000000
00000000
00100000
00000000
00001000
00010000
,
00000000
00010000
00000100
00000000
00001000
00000000
00000010
00000000
00000100
00000000
00001000
00000100
00001000
00000100
00000010
00000100
,
00000010
00000000
00000100
00000000
00000001
00000000
00000010
00000100
00000010
00000100
00000010
00000000
00000100
00000000
00001000
00000010
,
00000000
00000010
00010000
00000000
00000100
00000000
00010000
00000000
00001000
00000000
00100000
00001000
00100000
00001000
00010000
00001000
,
00010000
00000000
00001000
00000000
00100000
00000000
00010000
00000000
01000000
00000000
00100000
10000000
00100000
10000000
01000000
10000000
,
00000000
00010000
01000000
00000000
00100000
00000000
01000000
00010000
01000000
00010000
00100000
00000000
00001000
00000000
00010000
00001000
,
00000000
00001000
00000100
00000000
00000010
00000000
00001000
00000000
00000001
00000000
00000010
00000100
00000010
00000100
00000010
00000001
,
00000010
00000000
00000000
00000100
00001000
00000000
00000000
00010000
00100000
00000000
00000000
01000000
10000000
00000000
00010000
00000000
,
00100000
00010000
00100000
00010000
00000000
00000000
01000000
00100000
00000000
00100000
10000000
00000000
00010000
00000000
00000000
00000000
,
01000000
00010000
01000000
00010000
00000000
00000000
00100000
00001000
00000000
00001000
00010000
00000000
00000100
00000000
00000010
00000000
,
00000001
00001000
00000001
00001000
00000000
00000000
00000010
00001000
00000000
00001000
00000100
00000000
00010000
00000000
00000000
00000000
,
00001000
01000000
00001000
01000000
00000000
00000000
00100000
10000000
00000000
10000000
01000000
00000000
00100000
00000000
00000000
00000000
,
00010000
01000000
10000000
01000000
00010000
00000000
01000000
00100000
00000000
00100000
01000000
00000000
00010000
00000000
00100000
00000000
,
00001000
00100000
01000000
00100000
00001000
00000000
00010000
00001000
00000000
00001000
00010000
00000000
00000100
00000000
00001000
00000000
,
00000010
00001000
00010000
00001000
00000010
00000000
00000100
00000010
00000000
00000010
00001000
00000000
00000100
00000000
00000010
00000000
,
00000001
00000010
00001000
00000010
00000001
00000000
00000100
00000000
00000010
00000000
00001000
00000000
00000100
00000000
00010000
00000000
,
00011000
00000000
00001000
00000000
00010000
00000000
00010000
00000000
00001000
00100000
00001000
00100000
00010000
00100000
00010000
01000000
,
00010000
00000000
00010000
00000000
10000000
00000000
10000000
00000000
01000000
00100000
01000000
00100000
00001000
00100000
00001000
00010000
,
00001000
00000000
00001000
00000000
00010000
00000000
00010000
00000000
00000100
00010000
00000100
00010000
00001000
00010000
00001000
00000100
,
00000010
00001000
00000010
00000100
00000001
00001000
00000010
00001000
00000010
00010000
00000100
00010000
00000100
00010000
00001000
00010000
,
00001000
00100000
00001000
00000000
00100000
00010000
00100000
00000000
00010000
00000000
10000000
01000000
00000000
01000000
00100000
00000000
,
00001000
00010000
00001000
00000000
00010000
00000100
00010000
00000000
00000010
00000000
00001000
00000100
00000000
00000100
00000010
00000000
,
00000100
00000001
00000100
00000000
00000010
00001000
00000010
00000000
00000100
00000000
00010000
00001000
00000000
00001000
00100000
00000000
,
01000000
00100000
01000000
00000000
10000000
00010000
10000000
00000000
00010000
00100000
00010000
00100000
01000000
10000000
01000000
10000000
,
00000000
00000000
00000000
00000000
,
00000000
00000000
00000000
00000000
,
00000010
00000000
00000000
00000010
00000000
00000000
00001000
00000000
00000100
00000000
00000000
00000000
00000011
00000000
00000000
00000000
,
00000100
00000000
00010000
00000000
00011000
00000000
00000000
00000000
00001000
00100000
00001000
00100000
00000000
00010000
00000000
01000000
,
00100000
10000000
01000000
00010000
01000000
00100000
01000000
10000000
,
00010000
00000000
00100000
00000000
00001000
00000000
00100000
00000000
00010000
00000000
00001000
00000000
00000100
00000000
00001000
00000100
,
00000000
00000100
00000010
00000000
00000001
00000000
00000100
00000000
00001000
00000000
00000100
00000000
00000010
00000000
00000001
00000000
,
00000010
00000100
00000010
00001000
00010000
00100000
01000000
10000000
,
10010000
00000000
00100000
00000000
00010000
00000000
01000000
00010000
00000000
00100000
00000000
00000000
00101000
00000000
00000000
00000000
,
00001000
00000000
00010000
00000000
00000100
00000000
00000010
00000100
00000000
00001000
00000000
00000100
00000010
00000000
00000001
00000000
,
00000100
00000000
00001000
00000000
00000100
00000000
00000010
00001000
00000000
00000010
00000000
00000000
00001100
00000000
00000000
00000000
,
00000100
00010000
00100000
01000000
00100000
00200000
20300000
30020000
,
00130000
00000000
00000000
00000000
,
00000100
00001000
00000100
00001000
00000000
00000000
00000001
00000010
00000001
00000010
00000100
00000000
00001000
00000000
00000100
00000000
,
00010000
00001000
00010000
00001000
00000000
00000000
01000000
00100000
01000000
00100000
10000000
00000000
00010000
00000000
00100000
00000000
,
01000000
00100000
01000000
00100000
00000000
00000000
00001000
00010000
00001000
00010000
00000100
00000000
00000010
00000000
00000001
00000000
,
00001000
00000010
00001000
00000010
00000000
00000000
00010000
00000100
00010000
00000100
00001000
00000000
00010000
00000000
00100000
00000000
,
01000000
10000000
01000000
10000000
00100000
00000000
00000000
10000000
00000000
01000000
00100000
00010000
00100000
00000000
00001000
00000000
,
00010000
00000100
00010000
00000100
00001000
00000000
00000000
00000010
00000000
00001000
00000100
00000001
00000100
00000000
00001000
00000000
,
00000010
00000000
00000100
00000000
00001000
00000000
00010000
00000000
00100000
00010000
00100000
00010000
10000000
00100000
10000000
00100000
,
01000000
00000000
00010000
00000000
00001000
00000000
00000100
00000000
00000010
00000100
00000010
00000100
00001000
00000100
00001000
00010000
,
00200000
00000000
00000000
00000000
,
00300000
00000000
00000000
00000000
;
