#VERSION:0.83;
#TITLE:FREE KICKER;
#SUBTITLE:;
#ARTIST:NAPAKICK;
#TITLETRANSLIT:;
#SUBTITLETRANSLIT:;
#ARTISTTRANSLIT:;
#GENRE:ROCKET BEATS;
#ORIGIN:;
#TAGS:;
#CREDIT:YonabearCWY;
#BANNER:FREE KICKER.png;
#BACKGROUND:FREE KICKER-bg.png;
#PREVIEWVID:;
#JACKET:FREE KICKER-jacket.png;
#CDIMAGE:;
#DISCIMAGE:;
#LYRICSPATH:;
#CDTITLE:Beatmania.png;
#MUSIC:FREE KICKER.ogg;
#OFFSET:-7.500000;
#SAMPLESTART:44.411076;
#SAMPLELENGTH:15.000000;
#SELECTABLE:YES;
#BPMS:0.000000=130.000000
;
#STOPS:;
#DELAYS:;
#WARPS:;
#TIMESIGNATURES:0.000000=4=4
;
#TICKCOUNTS:0.000000=4
;
#COMBOS:0.000000=1
;
#SPEEDS:0.000000=1.000000=0.000000=0
;
#SCROLLS:0.000000=1.000000
;
#FAKES:;
#LABELS:0.000000=Song Start
;
#BGCHANGES:16.000=timer1.mp4=1.400=1=0=1===CrossFade==,
24.000=wheel2.mp4=1.000=0=0=1=====,
32.000=gun1.mp4=1.000=0=0=1=====,
40.000=rocket2.mp4=1.400=0=0=1=====,
44.000=heat1.mp4=1.000=0=0=1=====,
48.000=emi5.mp4=0.800=0=0=1=====,
52.000=blackhole1.mp4=1.400=0=0=1=====,
56.000=arrows1.mp4=1.000=0=0=1=====,
64.000=lava1.mp4=1.600=0=0=1=====,
68.000=lava1r.mp4=1.600=0=0=1=====,
72.000=lines4.mp4=1.400=0=0=1=====,
76.000=light10.mp4=0.900=0=0=1=====,
80.000=emi5.mp4=0.800=0=1=1=StretchRewind====,
88.000=emi6.mp4=0.900=0=0=1=====,
96.000=groove1.mp4=1.000=0=0=1=====,
104.000=light6.mp4=1.000=0=0=1=====,
112.000=timer1.mp4=1.400=0=1=1=StretchRewind====,
120.000=wheel2.mp4=1.000=0=1=1=StretchRewind====,
128.000=gun1.mp4=1.000=0=1=1=StretchRewind====,
136.000=rocket2.mp4=1.400=0=1=1=StretchRewind====,
140.000=emi6.mp4=0.900=0=1=1=StretchRewind====,
144.000=FREE KICKER-bg.png=1.000=0=0=1=====,
99999=-nosongbg-=1.000=0=0=0 // don't automatically add -songbackground-
;
#KEYSOUNDS:;
#ATTACKS:
;

//---------------dance-single - ----------------
#NOTEDATA:;
#CHARTNAME:BEGINNER;
#CHARTHASH:631728778;
#STEPSTYPE:dance-single;
#BANNER:;
#DESCRIPTION:;
#CHARTSTYLE:;
#DIFFICULTY:Beginner;
#METER:3;
#METERF:3.000000;
#LASTSECONDHINT:75.807693;
#RADARVALUES:0.147351,0.214673,0.051573,0.051573,0.000000,80.000000,76.000000,4.000000,4.000000,0.000000,0.000000,0.000000,0.000000,0.000000,0.147351,0.214673,0.051573,0.051573,0.000000,80.000000,76.000000,4.000000,4.000000,0.000000,0.000000,0.000000,0.000000,0.000000;
#CREDIT:YonabearCWY;
#NOTES:
1000
0000
0000
0000
,
1000
0000
0000
0000
,
0001
0000
0000
0000
,
0001
0000
0000
0000
,
1000
1000
1000
0000
,
1000
1000
1000
0000
,
0001
0001
0001
0000
,
0001
0001
0001
0000
,
0100
0100
0100
0000
,
0100
0100
0100
0000
,
0010
0010
0010
0000
,
0010
0010
0010
0000
,
1000
0000
0000
0000
,
0010
0000
0000
0000
,
0001
0000
0000
0000
,
0100
0000
0000
0000
,
1000
0000
0000
0000
,
0001
0000
0000
0000
,
0010
0000
0000
0000
,
2002
0000
0000
3003
,
0010
0010
0010
0000
,
0100
0000
0000
0000
,
1000
1000
1000
0000
,
0100
0100
0100
0100
,
1001
0000
0001
0000
,
1000
0000
0001
0000
,
0110
0000
0100
0000
,
0010
0000
0100
0000
,
0010
0000
0010
0000
,
0100
0000
0100
0000
,
0001
0000
0001
0000
,
1000
0000
1000
0000
,
0100
0100
0100
0000
,
0100
0100
0100
0000
,
0010
0010
0010
0000
,
0010
0010
0010
0000
,
2002
0000
0000
0000
,
3003
0000
0000
0000
;

//---------------dance-single - ----------------
#NOTEDATA:;
#CHARTNAME:EXPERT;
#CHARTHASH:66895414;
#STEPSTYPE:dance-single;
#BANNER:;
#DESCRIPTION:;
#CHARTSTYLE:;
#DIFFICULTY:Hard;
#METER:14;
#METERF:14.000000;
#LASTSECONDHINT:75.346153;
#RADARVALUES:0.624401,0.615975,0.064466,0.206292,0.715575,339.000000,334.000000,5.000000,16.000000,0.000000,0.000000,0.000000,0.000000,0.000000,0.624401,0.615975,0.064466,0.206292,0.715575,339.000000,334.000000,5.000000,16.000000,0.000000,0.000000,0.000000,0.000000,0.000000;
#CREDIT:YonabearCWY;
#NOTES:
// measure 0
2000
0000
0000
0010
0000
0000
0001
0000
3001
0000
0000
0000
0110
0000
0000
0000
,  // measure 1
0002
0000
0000
1000
0000
0000
0100
0000
0103
0000
0001
0000
0010
0000
0100
0000
,  // measure 2
2000
0000
0000
0100
0000
0000
0010
0000
3010
0000
1000
0000
0001
0000
0010
0000
,  // measure 3
0002
0000
0000
0100
0000
0000
0010
0000
0013
0000
0001
0000
1000
0000
0010
0000
,  // measure 4
1000
0100
0000
1000
0000
0010
1000
0000
0001
0000
1000
0000
0010
0000
0100
0000
,  // measure 5
0001
0010
0000
0100
0000
0010
0001
0000
0100
0000
0010
0000
1000
0000
0100
0000
,  // measure 6
0010
0100
0000
1000
0000
0100
0010
0000
0100
0000
0010
0000
0001
0000
1000
0000
,  // measure 7
0001
0100
0000
0010
0000
1000
0010
0000
0100
0000
0001
1000
0001
1000
0001
0000
,  // measure 8
0010
0001
0000
0100
0000
0001
1000
0000
0010
0000
0100
0000
0010
0000
0001
0000
,  // measure 9
0010
0100
0000
1000
0000
0100
0001
0000
0100
0000
1000
0000
0100
0000
0010
0000
,  // measure 10
0100
0001
0000
0010
0000
0001
0010
0000
0100
0000
1000
0000
0100
0000
0010
0000
,  // measure 11
0001
1000
0000
0010
0000
1000
0001
0000
0010
0000
0100
1000
0001
2000
0000
0000
,  // measure 12
3010
0000
0100
0000
0001
0000
0100
0010
0100
0000
0010
0000
1000
0010
0000
0010
,  // measure 13
0100
0000
0010
0000
0001
0000
0010
0100
0010
0000
1000
0001
1000
0002
0000
0000
,  // measure 14
0013
0000
0001
0000
1000
0000
0010
1000
0010
1000
0010
0000
0100
0000
0001
0000
,  // measure 15
0010
0000
0100
0000
1000
0000
0001
1000
0001
1000
0001
0000
0100
0010
0000
0010
,  // measure 16
1000
0000
0100
0000
0010
0000
0001
0010
1000
0010
0001
0000
0100
0000
0010
0000
,  // measure 17
0100
0000
1000
0000
0100
0000
0001
0100
1000
0100
0001
0000
0100
0010
0000
0010
,  // measure 18
0001
0000
0010
0000
0100
0000
0010
1000
0010
1000
0010
0000
1000
0000
0001
0000
,  // measure 19
2002
0000
0000
3003
,  // measure 20
1000
0010
1000
0010
0000
0100
0000
0001
0000
0010
0000
0000
0100
0000
1000
0000
,  // measure 21
0001
0010
0001
0010
0000
0001
1000
0000
0100
0000
0000
0000
1000
0010
0000
0010
,  // measure 22
0100
0000
0001
0000
0010
0001
0000
0001
1000
0000
0100
0000
0010
0100
0000
0100
,  // measure 23
1000
0000
0010
0000
0100
0000
0001
1000
0000
1000
0001
0000
0000
0110
0000
0000
,  // measure 24
1000
0100
1000
0100
0001
0100
0001
0100
1000
0000
0100
0000
0011
0000
0000
0000
,  // measure 25
0010
0001
0010
0001
0010
1000
0010
1000
0010
0000
0100
0000
1000
0002
0000
0000
,  // measure 26
0013
0001
0010
0000
0001
0010
0001
0000
1000
0000
0010
0000
1000
0200
0000
0000
,  // measure 27
1300
0001
1000
0000
0001
0000
0100
0010
0100
0000
0010
0000
0100
0000
0001
1000
,  // measure 28
0001
1000
0000
0000
0100
1000
0000
0000
0010
1000
0001
2000
0010
0000
0000
0000
,  // measure 29
3100
0010
0000
0000
0010
0001
0000
0000
1000
0010
1000
0002
1000
0000
0000
0000
,  // measure 30
0013
0100
0000
0000
0100
1000
0000
0000
0001
0100
0001
2000
0100
0000
0000
0000
,  // measure 31
3010
1000
0000
0000
1000
0001
0000
0001
0010
0000
0100
1000
0200
0010
0000
0000
,  // measure 32
0310
0001
0010
0000
0001
0000
1000
0001
1000
0000
0010
0000
0100
0000
0010
0000
,  // measure 33
0001
0010
0001
0000
0010
0000
0100
0010
0100
0000
0010
0000
1000
0000
0100
0000
,  // measure 34
0010
0100
0010
0000
0100
0000
1000
0001
1000
0000
0010
0000
0100
0000
0001
0000
,  // measure 35
0010
0001
0010
0000
0001
0000
1000
0001
1000
0000
0001
0100
1000
0100
0000
0000
,  // measure 36
2002
0000
0000
3003
;

//---------------dance-single - ----------------
#NOTEDATA:;
#CHARTNAME:BASIC;
#CHARTHASH:3162907178;
#STEPSTYPE:dance-single;
#BANNER:;
#DESCRIPTION:;
#CHARTSTYLE:;
#DIFFICULTY:Easy;
#METER:6;
#METERF:6.000000;
#LASTSECONDHINT:75.807693;
#RADARVALUES:0.256023,0.381640,0.206292,0.103146,0.000000,139.000000,123.000000,16.000000,8.000000,0.000000,0.000000,0.000000,0.000000,0.000000,0.256023,0.381640,0.206292,0.103146,0.000000,139.000000,123.000000,16.000000,8.000000,0.000000,0.000000,0.000000,0.000000,0.000000;
#CREDIT:YonabearCWY;
#NOTES:
1000
1000
1000
0000
,
1000
1000
1000
0000
,
0001
0001
0001
0000
,
0001
0001
0001
0000
,
1001
1001
0010
0000
,
1001
1001
0100
0000
,
0010
0010
0010
0000
,
0010
0010
0010
0000
,
0110
0110
1000
0000
,
0110
0110
0001
0000
,
0100
0100
0100
0000
,
0100
0100
0100
0100
,
0200
0000
0001
1000
,
0301
0000
1000
0100
,
0020
0000
1000
0001
,
1030
0000
0000
0001
0000
0000
0010
0000
,
0200
0001
1000
0001
,
1300
0000
0000
0010
0000
0000
0100
0000
,
0020
1000
0001
1030
,
0220
0000
0000
0330
,
0001
0000
1000
0000
0010
1000
0010
0000
,
1000
0000
0100
0000
0010
0001
0010
0000
,
0100
0000
0100
0000
,
0010
0010
0100
1001
,
1100
0000
1100
0000
1000
0001
1000
0000
,
0011
0000
0011
0000
0001
1000
0001
0000
,
0100
0100
0010
0010
,
1001
0000
0000
1000
0000
0000
0001
0000
,
1000
1000
1000
1000
,
0010
0010
0010
0010
,
0100
0100
0100
0100
,
0001
0001
0001
0001
,
0010
0000
0000
0010
0000
0000
0010
0000
,
0100
0000
0000
0100
0000
0000
0100
0000
,
1000
0000
0000
1000
0000
0000
0001
0000
,
1000
0000
0000
0001
0000
0000
1000
0000
,
2002
0000
0000
0000
,
3003
0000
0000
0000
;

//---------------dance-single - ----------------
#NOTEDATA:;
#CHARTNAME:DIFFICULT;
#CHARTHASH:2400602834;
#STEPSTYPE:dance-single;
#BANNER:;
#DESCRIPTION:;
#CHARTSTYLE:;
#DIFFICULTY:Medium;
#METER:9;
#METERF:9.000000;
#LASTSECONDHINT:75.807693;
#RADARVALUES:0.407058,0.405493,0.141826,0.232078,0.032233,221.000000,210.000000,11.000000,18.000000,0.000000,0.000000,0.000000,0.000000,0.000000,0.407058,0.405493,0.141826,0.232078,0.032233,221.000000,210.000000,11.000000,18.000000,0.000000,0.000000,0.000000,0.000000,0.000000;
#CREDIT:YonabearCWY;
#NOTES:
2010
0000
0000
0000
3001
0100
0001
0000
,
0021
0000
0000
0000
0130
0010
0100
0000
,
1002
0000
0000
0000
0013
1000
0010
0000
,
0201
0000
0000
0000
1300
0001
1000
0000
,
0001
0100
0010
0000
0001
0100
0010
0000
,
1000
0100
0010
0000
1000
0100
0010
0000
,
1000
0001
0010
1000
0010
0000
0100
0001
,
0100
1000
0001
0100
0010
0000
1001
0000
,
0100
1000
0010
0000
0100
1000
0010
0000
,
0100
0001
0010
0000
0100
0001
0010
0000
,
0001
0010
0100
1000
0100
0000
1000
0010
,
0001
0010
0100
1000
0100
0000
1001
0000
,
0020
0000
0000
0001
0000
0000
0001
0000
0001
0000
0000
0000
0130
0000
0000
0000
,
1000
0200
0001
0000
0301
0100
1000
0000
,
0020
0000
0000
1000
0000
0000
0100
0000
0100
0000
0000
0000
0031
0000
0000
0000
,
1000
0020
0001
0000
0031
0010
1000
0000
,
0001
0000
0000
1000
0000
0000
0010
0000
0100
0000
0010
0000
0001
0000
0000
0000
,
1010
0000
0100
0001
0100
0000
0011
0000
,
0100
0000
0000
0001
0000
0000
0010
0000
0100
0000
0000
0000
1000
0000
0000
0000
,
0220
0000
0000
0330
,
0001
1000
0100
0001
0100
1000
0000
0001
,
0010
1000
0010
0001
0100
0000
0010
1000
,
0100
0010
0001
1000
0010
1000
0001
0010
,
0100
0000
0010
0000
0001
0000
1000
0000
0010
0000
1000
0000
0000
0110
0000
0000
,
0002
0000
1000
0000
0010
0010
0013
0000
,
2000
0000
0100
0000
0001
3001
0000
1000
,
0002
0000
0013
0100
0000
0100
1000
0010
,
0200
0000
0301
2000
0000
3100
0020
0000
,
0031
0100
0001
0100
0001
0010
0001
0000
,
1000
0010
1000
0010
1000
0100
1000
0000
,
0010
0100
0010
0001
0010
0100
0010
0000
,
0100
1000
0100
0001
0100
1000
0100
0000
,
0001
1000
0010
1000
0000
0010
0100
0000
,
1000
0100
0010
0100
0000
0010
0001
0000
,
1000
0001
0010
0001
1000
0010
0100
0000
,
0001
0010
0001
1000
0100
0010
0100
0000
,
2002
0000
0000
0000
,
3003
0000
0000
0000
;

//---------------dance-double - ----------------
#NOTEDATA:;
#CHARTNAME:BASIC;
#CHARTHASH:3337056095;
#STEPSTYPE:dance-double;
#BANNER:;
#DESCRIPTION:;
#CHARTSTYLE:;
#DIFFICULTY:Easy;
#METER:6;
#METERF:6.000000;
#LASTSECONDHINT:73.961533;
#RADARVALUES:0.232078,0.255286,0.180505,0.051573,0.000000,126.000000,112.000000,14.000000,4.000000,0.000000,0.000000,0.000000,0.000000,0.000000,0.232078,0.255286,0.180505,0.051573,0.000000,126.000000,112.000000,14.000000,4.000000,0.000000,0.000000,0.000000,0.000000,0.000000;
#CREDIT:YonabearCWY;
#NOTES:
10000000
00000000
00000000
10000000
00000000
00000000
10000000
00000000
,
00100000
00100000
00100000
00000000
,
00001000
00000000
00000000
00001000
00000000
00000000
00001000
00000000
,
00010000
00010000
00010000
00000000
,
00000110
00000100
00000010
00000000
,
00001000
00000001
00001000
00000000
,
00000010
00000000
00000000
00000010
00000000
00000000
00000010
00000000
,
00001000
00000000
00000000
00000100
00000000
00010000
00001000
00000000
,
00010000
00001000
00011000
00000000
,
00100000
00001000
00100000
00000000
,
00001000
00000000
00000000
00001000
00000000
00000000
00001000
00000000
,
02200000
00000000
00000000
03300000
,
10010000
00000000
10000000
00000000
,
10000000
01000000
00010000
00001000
,
00000010
00000000
00000000
00000010
00000000
00000000
00000010
00000000
,
00000100
00000000
00000000
00001000
00000000
00000001
00000010
00000000
,
00000110
00000000
00000010
00000000
,
00000010
00001000
00000100
00010000
,
01000000
00000000
00000000
01000000
00000000
00000000
01000000
00000000
,
20020000
00000000
00000000
30030000
,
00100000
00100000
00100000
00000000
,
01000000
01000000
01000000
00000000
,
00010000
00001000
00010000
00000000
,
00000100
00001000
00000100
00000110
,
00001001
00000001
00000001
00000000
,
00001010
00001000
00001000
00000000
,
00110000
00100000
00100000
00000000
,
10010000
00000000
00000000
00010000
00000000
00000000
10010000
00000000
,
01100000
01000000
00100000
01000000
,
00100000
00001000
00010000
00001000
,
00010000
00000000
00000000
00000100
00000000
00000000
00001000
00000000
,
00000010
00000000
00000000
00001000
00000000
00000000
00000010
00000000
,
00000100
00000001
00000010
00000001
,
00001000
00000100
00010000
00000100
,
00010000
00000000
00000000
00001000
00000000
00000000
00100000
00000000
,
01000000
00000000
00000000
10000000
00000000
00000000
00010000
00000000
,
10010000
00000000
00000000
00000000
;

//---------------dance-double - ----------------
#NOTEDATA:;
#CHARTNAME:DIFFICULT;
#CHARTHASH:3644640048;
#STEPSTYPE:dance-double;
#BANNER:;
#DESCRIPTION:;
#CHARTSTYLE:;
#DIFFICULTY:Medium;
#METER:9;
#METERF:9.000000;
#LASTSECONDHINT:73.961533;
#RADARVALUES:0.375746,0.371325,0.206292,0.180505,0.032233,204.000000,188.000000,16.000000,14.000000,0.000000,0.000000,0.000000,0.000000,0.000000,0.375746,0.371325,0.206292,0.180505,0.032233,204.000000,188.000000,16.000000,14.000000,0.000000,0.000000,0.000000,0.000000,0.000000;
#CREDIT:YonabearCWY;
#NOTES:
20000000
00000000
00000000
30010000
01000000
00000000
00010000
00100000
,
00020000
00000000
00000000
00030010
00000100
00000000
00001001
00000000
,
00000020
00000000
00000000
00000130
00000001
00000000
00001000
00000010
,
00002000
00000000
00000000
00103000
01000000
00000000
10010000
00000000
,
01000000
00100000
00010000
00100000
00010000
10000000
00010000
00000000
,
01000000
00000000
00001000
00000000
00010000
00001000
00010000
00000000
,
00000100
00001000
00000100
00000001
00000100
00000010
00000100
00000000
,
00000010
00000001
00001000
00010010
,
00001000
00010000
00000100
00010000
00001000
00000000
00010000
00000000
,
00001000
00100000
00001000
01000000
00010000
00000000
00100000
00000000
,
00001000
00010000
00001000
00000100
00000010
00000000
00000100
00000000
,
00001002
00000000
00000000
00000100
00000000
00000000
00000103
00000000
00000010
00000000
00000000
00000000
00001000
00000000
00000100
00000000
,
00020000
00000000
00000000
00001000
00000000
00000000
00001000
00000000
00031000
00000000
00000000
00000000
01010000
00000000
00000000
00000000
,
00100000
00000000
01000000
00000000
00010000
00000000
00000000
00000000
01000000
00000000
10000000
00000000
00000000
01000000
00000000
00000000
,
00010000
00000000
10100000
00000000
01000000
00010000
00001000
00000000
,
00010000
00000000
00000100
00000000
00001000
00000000
00000000
00000000
00000010
00000000
00000100
00000000
00000000
00000001
00000000
00000000
,
00001000
00000001
00000010
00000001
00000100
00000001
00000010
00000000
,
00000100
00010000
00001000
01000000
,
00010000
00100000
00010000
01000000
00100000
00010000
00100000
00000000
,
20020000
00000000
00000000
30030000
,
01000000
00000000
00100000
00000000
01000000
01000000
00010000
00000000
,
00100000
00000000
00001000
00000000
00010000
00010000
00100000
00000000
,
00010000
00000100
00001000
00000000
00000100
00000010
00000001
00000000
,
00000100
00000000
00000010
00000000
00000100
00000000
00000010
00000000
00000010
00000000
00000100
00000000
00000000
00001001
00000000
00000000
,
00000220
00000000
00000300
00000000
00000130
00001000
00000010
00000000
,
00021000
00000000
00000000
00000100
00000000
00000000
00031000
00000000
,
00022000
00000000
00030000
00000000
00103000
00001000
01000000
00000000
,
02100000
00000000
03100000
10000000
00000000
10000000
01000000
00000000
,
00100000
00000000
00001000
00000000
00010000
00001000
00010000
00000000
,
00000100
00000000
00001000
00000000
00000010
00000100
00000010
00000000
,
00000100
00000000
00000001
00000010
00000000
00000010
00000100
00001000
,
00000100
00000000
00001000
00000100
00000000
00000100
00010000
00000000
,
00001000
00000000
00100000
00000000
00010000
10000000
10010000
00000000
,
01000000
00000000
00001000
00000000
00010000
00001000
00011000
00000000
,
00000100
00000000
00001000
00000000
00000001
00000100
00000101
00000000
,
00000010
00000001
00001000
00000001
00000000
00000010
00000100
00000000
,
00011000
00000000
00000000
00000000
;

//---------------dance-double - ----------------
#NOTEDATA:;
#CHARTNAME:EXPERT;
#CHARTHASH:299108587;
#STEPSTYPE:dance-double;
#BANNER:;
#DESCRIPTION:;
#CHARTSTYLE:;
#DIFFICULTY:Hard;
#METER:14;
#METERF:14.000000;
#LASTSECONDHINT:75.807693;
#RADARVALUES:0.617034,0.667870,0.025786,0.077359,0.625322,335.000000,333.000000,2.000000,6.000000,0.000000,0.000000,0.000000,0.000000,0.000000,0.617034,0.667870,0.025786,0.077359,0.625322,335.000000,333.000000,2.000000,6.000000,0.000000,0.000000,0.000000,0.000000,0.000000;
#CREDIT:YonabearCWY;
#NOTES:
00100000
10000000
01000000
00010000
01000000
00010000
00001000
00000000
,
00010000
00000010
00000100
00001000
00000100
00001000
00000100
00000001
,
00000100
00000010
00001000
00000010
00001000
00000100
00010000
00000000
,
00001000
00100000
00010000
00100000
00010000
01000000
10000000
00000000
,
01000000
00010000
00000000
00100000
00000000
00010000
01000000
00000000
00010000
00000000
00100000
00000000
00001000
00000000
00010000
00000000
,
00001000
00010000
00000000
00001000
00000000
00010000
00000100
00000000
00001000
00000000
00000010
00000000
00000001
00000000
00000010
00000000
,
00001000
00000100
00000000
00000010
00000000
00000100
00000001
00000000
00000100
00000000
00001000
00000000
00010000
00000000
00100000
00000000
,
00010000
10000000
00000000
00100000
00000000
10000000
00100000
00000000
01000000
00000000
00010000
00100000
00010000
00100000
00001000
00000000
,
00010000
00000100
00000000
00001000
00000000
00000010
00001000
00000000
00000001
00000000
00000100
00000000
00001000
00000000
00000100
00000000
,
00000001
00000100
00000000
00000010
00000000
00001000
00000100
00000000
00010000
00000000
00001000
00000000
00000100
00000000
00001000
00000000
,
00010000
00001000
00000000
00100000
00000000
00001000
00100000
00000000
00010000
00000000
01000000
00000000
10000000
00000000
01000000
00000000
,
00100000
01000000
00000000
00100000
00000000
10000000
00010000
00000000
01000000
00000000
00010000
01000000
00010000
01000000
00010000
01000000
,
00001000
00000000
00010000
00000000
00001000
00000000
00000000
00010000
00000000
00000100
00001000
00000000
00000100
00000000
00000010
00000000
,
00000001
00000000
00001000
00000000
00000010
00000000
00001000
00000100
00000000
00000000
00000010
00000000
00000100
00001000
00000100
00000000
,
00010000
00000000
00001000
00000000
00010000
00000000
00000000
00001000
00000000
00010000
01000000
00000000
00010000
00000000
01000000
00000000
,
10000000
01000000
10000000
00000000
00100000
00000000
01000000
00010000
01000000
00000000
00100000
00000000
01000000
00100000
01000000
00000000
,
00001000
00000000
00100000
00000000
00001000
00000000
00100000
00010000
00000000
00000000
00001000
00000000
00010000
00000000
00001000
00000000
,
00010000
00100000
00000000
00100000
01000000
00000000
00100000
00001000
00100000
00000000
00001000
00000000
00010000
00000000
00000010
00000000
,
00010000
00000000
00000100
00000000
00010000
00000000
00000100
00001000
00000000
00000000
00010000
00000000
00001000
00000000
00000010
00000200
,
00000020
00000000
00000000
00000330
,
00001000
00000010
00001000
00000010
00000000
00000100
00000000
00000001
00000000
00000010
00000000
00000000
00000100
00000000
00010000
00000000
,
00001000
00010000
00001000
00010000
00000000
00001000
00100000
00000000
01000000
00000000
00000000
00000000
00100000
01000000
00000000
01000000
,
10000000
00000000
00100000
00000000
01000000
00010000
01000000
00000000
00001000
00100000
00001000
00100000
00000000
00001000
00010000
00000000
,
00001000
00000000
00000100
00000000
00000010
00000000
00001000
00000001
00000000
00000001
00001000
00000000
00000000
00000110
00000000
00000000
,
00001000
00000010
00001000
00000000
00000010
00001000
00000010
00000000
00001000
00000000
00000100
00000000
00010000
00000000
00001000
00000000
,
00100000
00010000
00100000
00000000
00010000
00100000
00010000
00000000
01000000
00000000
00010000
00000000
00100000
00001000
00000000
00000000
,
00010000
00001000
00010000
00000000
00001000
00010000
00001000
00000000
00010000
00000000
00000010
00000000
00000100
00000000
00001000
00000000
,
00010000
00001000
00010000
00000000
00001000
00000000
00100000
00010000
00100000
00000000
00001000
00000000
00010000
00000000
00100000
01000000
,
00010000
00000000
01000000
00000000
10000000
00000000
01000000
00000000
00010000
01000000
10000000
02000000
00010000
00000000
00000000
00000000
,
03100000
00000000
01000000
00000000
00010000
00000000
00100000
00000000
00010000
00100000
00000000
00100000
00001000
00010000
00001000
00000000
,
00010000
00000000
00001000
00000000
00000100
00000000
00000010
00000000
00001000
00000001
00000010
00000002
00000100
00000000
00000000
00000000
,
00000013
00000000
00000001
00000000
00001000
00000000
00000010
00000000
00001000
00000100
00000000
00000100
00010000
00001000
00010000
00000000
,
00001000
00100000
00001000
00000000
00100000
00000000
01000000
10000000
01000000
00100000
00000000
00100000
00010000
00000000
01000000
00000000
,
00100000
00000000
01000000
00000000
00010000
00000000
00100000
00001000
00000000
00000000
00010000
00000000
00000100
00000000
00000010
00000000
,
00000001
00000100
00000001
00000000
00001000
00000000
00000010
00001000
00000100
00001000
00000000
00000100
00010000
00001000
00010000
00000000
,
00001000
00100000
00010000
00100000
00001000
00000000
01000000
00100000
00010000
00100000
01000000
00010000
10000000
00010000
10000000
00000000
,
02200000
00000000
00000000
00000000
,
03300000
00000000
00000000
00000000
;
