#TITLE:Everybody Heros;
#SUBTITLE:;
#ARTIST:JACKASS TEAM;
#TITLETRANSLIT:;
#SUBTITLETRANSLIT:;
#ARTISTTRANSLIT:;
#GENRE:PACHI HERO POP;
#CREDIT:YonabearCWY;
#BANNER:Everybody Heros.png;
#BACKGROUND:Everybody Heros-bg.png;
#LYRICSPATH:;
#CDTITLE:JACKASS.png;
#MUSIC:Everybody Heros.ogg;
#OFFSET:-9.040000;
#SAMPLESTART:46.346889;
#SAMPLELENGTH:15.000000;
#SELECTABLE:YES;
#BPMS:0.000000=135.000000
,119.000000=67.500000
,135.000000=135.000000
;
#STOPS:80.000000=0.450000,
135.000000=2.670000
;
#BGCHANGES:;
#KEYSOUNDS:;
#ATTACKS:;

//---------------dance-single - ----------------
#NOTES:
     dance-single:
     BASIC:
     Easy:
     5:
     0.211627,0.356362,0.134672,0.145031,0.005180,143.000000,130.000000,13.000000,14.000000,0.000000,0.000000,0.211627,0.356362,0.134672,0.145031,0.005180,143.000000,130.000000,13.000000,14.000000,0.000000,0.000000:
0000
1000
0000
1000
,
0001
0001
0000
0001
,
1000
1000
0000
0100
,
0010
0010
0000
0100
,
0210
0010
0310
0000
,
0100
0001
1000
0001
,
1002
1000
1003
0010
,
0100
0001
0010
0100
,
2100
0100
3100
0000
,
0010
0001
0100
0001
,
0012
0010
0013
0001
,
0100
0010
1000
0100
,
0120
0000
0001
0000
,
1000
0000
0031
0000
,
0210
0000
1000
0000
,
0001
0000
1300
0000
,
0001
0001
0100
0000
,
0010
0010
1000
0000
,
0100
0100
0010
0000
,
2002
0000
0000
0000
,
3003
0000
0110
0001
,
0001
0001
0000
1000
,
1000
1000
0000
0010
,
0010
0010
0000
0100
,
0100
0100
0000
0001
,
0001
0001
0000
1000
,
1000
1000
0000
0010
,
0010
0010
0000
0100
,
0100
0100
0100
0220
,
0000
0000
0330
0001
,
0010
0001
0010
0000
0001
0000
1000
0000
,
0010
1000
0010
0000
0100
0010
0110
0000
,
0001
0010
0011
0000
1000
0001
2002
0000
,
0000
0000
0000
0000
0000
0000
0000
0000
0000
0000
0000
0000
0000
0000
0000
0000
0000
0000
0000
0000
0000
0000
0000
0000
0000
0000
0000
0000
0000
0000
0000
0000
0000
0000
0000
0000
0000
0000
0000
0000
0000
0000
0000
0000
0000
0000
0000
0000
0000
0000
0000
0000
0000
0000
0000
0000
0000
0000
0000
0000
0000
0000
0000
0000
0000
0000
0000
0000
0000
0000
0000
0000
0000
0000
0000
0000
0000
0000
0000
0000
0000
0000
0000
0000
0000
0000
0000
0000
0000
0000
0000
0000
0000
0000
0000
0000
0000
0000
0000
0000
0000
0000
0000
0000
0000
0000
0000
0000
0000
0000
0000
0000
0000
0000
0000
0000
0000
0000
0000
0000
0000
0000
0000
0000
0000
0000
0000
0000
0000
0000
0000
0000
0000
0000
0000
0000
0000
0000
0000
0000
0000
0000
0000
0000
0000
3003
0000
0000
0000
0000
0000
0000
0000
0000
0000
0000
0000
0000
0000
0000
0000
0000
0000
0000
0000
0000
0000
0000
0000
0000
0000
0000
0000
0000
0000
0000
0000
0000
0000
0000
0000
0000
0000
0000
0000
0000
0000
0000
0000
0000
0000
0000
,
0000
0010
0010
0010
,
0000
0010
0000
0000
,
0100
0010
0010
0010
,
0000
0100
0000
0000
,
0001
1000
1000
1000
,
0001
0100
0000
0010
,
1000
0100
0100
0100
,
0010
0001
1000
0010
,
0100
2002
0000
0000
,
3003
0000
0000
0000
;

//---------------dance-single - ----------------
#NOTES:
     dance-single:
     DIFFICULT:
     Medium:
     9:
     0.405495,0.534543,0.383297,0.134672,0.072516,274.000000,237.000000,37.000000,13.000000,0.000000,0.000000,0.405495,0.534543,0.383297,0.134672,0.072516,274.000000,237.000000,37.000000,13.000000,0.000000,0.000000:
1000
0000
0001
0010
0001
0000
0100
0000
,
1000
0000
0100
0010
0100
0000
0001
0000
,
0110
0000
1000
0001
1000
0000
0100
0000
,
0110
0000
0001
1000
0001
0100
0100
0000
,
0011
1000
1100
0001
,
0100
0001
0100
0001
0010
0001
0010
0000
,
0100
1010
0010
0101
,
0010
1000
0010
0000
0100
0100
0100
0000
,
0001
0101
1000
1010
,
0100
0010
0100
0010
0001
1000
0001
0000
,
0110
1000
1001
0010
,
0100
1000
0100
0000
0001
0001
0001
0000
,
1200
0000
0301
0000
1200
0000
0301
0100
,
1000
0000
0110
0000
0001
1000
0001
0000
,
0201
0000
1300
0000
0201
0000
1300
0100
,
0001
0000
0110
0000
0001
1000
0100
0010
,
0001
0001
0001
0000
1000
1000
1000
0000
,
0101
0000
1010
0000
0100
0010
0001
1000
,
0010
0000
0100
0010
0100
0000
0001
1000
,
0001
1000
0000
0010
0000
0100
0000
0001
,
2000
0000
0000
3010
0110
0000
1001
0000
,
0101
0000
1010
0000
0100
0010
0001
1000
,
0001
0000
0100
0100
0100
0000
1010
0000
,
0110
0000
0101
0000
0010
0001
1000
0100
,
0010
0000
0100
0100
1001
0000
0010
0001
,
0010
0000
0000
0000
0101
0000
0000
0001
0000
0000
1000
0000
0010
0000
0000
0000
,
0100
0000
0100
0000
0100
0000
0000
0010
0000
0000
1000
0000
0001
0000
0000
0000
,
0110
0000
0001
1000
0001
0000
1000
0100
,
0010
0001
0100
0010
0010
0010
0220
0000
,
0000
0000
0000
0000
0000
0000
0000
0000
0330
0000
0000
0000
1001
0000
0000
0001
,
0010
0000
0001
0000
1000
0000
0100
0000
0010
0000
0001
0000
0110
0000
0000
1000
,
0001
0000
0000
0000
0010
0000
0100
0000
0010
0000
0000
0000
0100
0000
0000
0000
1000
0000
0000
0000
0001
0000
0000
0000
0010
0000
0000
0001
0000
0000
0010
0000
,
0100
0000
0000
0000
1000
0000
0001
0000
0010
0000
0000
0100
0000
0000
0010
0000
0001
0000
1000
0000
0010
0000
0000
0000
0220
0000
0000
0000
0000
0000
0000
0000
,
0000
0000
0000
0000
0000
0000
0000
0000
0000
0000
0000
0000
0000
0000
0000
0000
0000
0000
0000
0000
0000
0000
0000
0000
0330
0000
0000
0000
0000
0000
0000
0000
0000
0000
0000
0000
0000
0000
0000
0000
0000
0000
0000
0000
0000
0000
0000
0000
1000
0000
0000
0000
0000
0000
0000
0000
0000
0000
0000
0000
0000
0000
0000
0000
0000
0000
0000
0000
0000
0000
0000
0000
0100
0000
0000
0000
0000
0000
0000
0000
0000
0000
0000
0000
0000
0000
0000
0000
0000
0000
0000
0000
0000
0000
0000
0000
0010
0000
0000
0000
0000
0000
0000
0000
0000
0000
0000
0000
0000
0000
0000
0000
0000
0000
0000
0000
0000
0000
0000
0000
2002
0000
0000
0000
0000
0000
0000
0000
0000
0000
0000
0000
0000
0000
0000
0000
0000
0000
0000
0000
0000
0000
0000
0000
0000
3003
0000
0000
0000
0000
0000
0000
0000
0000
0000
0000
0000
0000
0000
0000
0000
0000
0000
0000
0000
0000
0000
0000
0000
0000
0000
0000
0000
0000
0000
0000
0000
0000
0000
0000
0000
0000
0000
0000
0000
0000
0000
0000
0000
0000
0000
0000
,
0000
0000
0000
0000
0010
0000
1000
0000
0100
0000
0000
0000
1010
0000
0000
0001
,
0000
0100
0001
0000
0010
0000
0100
0010
,
0001
0000
0110
0000
1000
0100
0010
0000
,
0100
0010
0001
0000
0010
0000
0100
0000
,
1000
0000
0000
0000
0001
0000
0100
0000
0010
0000
0000
0000
1100
0000
0000
0010
,
0000
0100
0001
0000
0100
1000
0010
0000
,
0100
0010
0001
0010
0100
0000
0010
1000
,
0001
0000
0100
0000
0010
0000
1000
0100
,
0010
2002
0000
0000
,
3003
0000
0000
0000
;

//---------------dance-single - ----------------
#NOTES:
     dance-single:
     EXPERT:
     Hard:
     11:
     0.483930,0.623634,0.300422,0.290062,0.378117,327.000000,298.000000,29.000000,28.000000,0.000000,0.000000,0.483930,0.623634,0.300422,0.290062,0.378117,327.000000,298.000000,29.000000,28.000000,0.000000,0.000000:
0101
0000
0000
0000
1000
0000
0001
0000
1000
0000
0000
0010
0000
0100
0000
0001
,
0000
0100
0000
0000
0010
0000
1000
0000
0010
0000
0000
1000
0000
0100
0000
0000
,
0011
0000
0000
0000
1000
0000
0010
0000
1000
0000
0000
0100
0000
0010
0000
0001
,
0000
0010
0000
0000
0001
0000
1000
0000
0001
0000
0110
0000
0110
0000
0000
0000
,
2001
0000
0000
0000
3100
0000
0000
0000
1002
0000
0000
0000
0013
0000
0000
0001
,
0000
0100
0000
0000
1000
0000
0100
0000
0001
0000
0100
0000
0010
0000
1000
0000
,
0120
0000
0000
0000
0031
0000
0000
0000
0210
0000
0000
0000
1300
0000
0000
0001
,
0000
0002
0000
0000
1003
0000
0100
0000
0010
0000
0001
0000
0100
0000
0010
0000
,
0201
0000
0000
0000
1300
0000
0000
0000
0120
0000
0000
0000
0031
0000
0000
1000
,
0000
0100
0000
0000
0001
0000
0100
0000
1000
0000
0100
0000
0010
0000
0100
0000
,
0021
0000
0000
0000
1030
0000
0000
0000
0210
0000
0000
0000
0301
0000
0000
1000
,
0000
2000
0000
0000
3010
0000
0100
0000
0001
0000
0001
0000
0001
0000
1000
0000
,
0020
0000
0000
0130
0002
0000
0000
0013
,
0200
0000
1000
0000
0001
0000
1300
0001
,
0020
0000
0001
0031
2000
0010
0000
3100
,
0010
0010
0020
0000
0031
1000
1000
0010
,
0200
0000
0301
0200
1000
0000
1300
0100
,
0002
0000
0013
0100
1000
0001
1000
0100
,
0021
0000
0130
0000
1200
0000
1300
0001
,
0000
0110
0000
0010
0000
1001
0000
0100
,
0020
0000
0000
0000
0030
0000
1001
0000
1001
0000
0000
0100
0010
0000
0001
0000
,
1000
0000
0010
0000
0100
0000
0000
0001
0000
0010
0000
0001
1000
0000
1000
0000
,
0001
0000
0001
0000
0010
0100
0000
0100
0010
0000
0100
0000
1000
0000
0001
0000
,
1000
0000
0010
0000
0100
0000
0000
0001
0000
0000
0010
0000
0100
0000
1000
0000
,
0001
0000
1000
0000
0010
1000
0000
1000
0100
0000
0000
0010
0001
0000
0010
0000
,
0100
0000
1000
0000
0001
0000
0000
0100
0000
0010
0000
1000
0010
0000
0010
0000
,
0100
0000
0100
0000
0001
1000
0000
1000
0001
0000
0010
0000
0100
0000
1000
0000
,
0001
0000
0010
0000
0100
0000
0000
0010
0000
0000
0100
0000
1000
0000
0001
0000
,
1000
0100
0001
0100
1000
0001
0220
0000
,
0000
0000
0000
0000
0000
0000
0000
0000
0330
0000
0000
0000
0000
0000
0000
0000
0000
0000
0000
0000
0000
0000
0000
0000
1000
0000
0000
1000
0000
0000
1000
0000
,
0010
0000
0100
0000
0001
0000
0100
0000
0000
0000
0010
0000
0000
0100
0000
0000
0001
0000
0000
0000
0010
0000
0100
0000
0010
0000
0000
0010
0000
0000
0010
0000
,
0001
0000
0000
0000
1000
0000
0010
0000
0000
0000
0100
0000
0000
0001
0000
0000
0000
0000
0010
0000
0100
1000
0000
0000
0100
0000
0000
0000
1000
0000
0001
0000
,
0000
0000
0010
0000
0100
0000
1000
0000
0000
0000
0001
0000
0000
0100
0000
0000
0001
0000
0000
0000
1000
0000
0010
0000
0100
0000
0000
0000
0001
0000
0010
0000
,
0001
0000
0000
0000
0000
0000
0000
0000
0000
0000
0000
0000
0100
0000
0000
0000
0000
0000
0000
0000
0000
0000
0000
0000
0010
0000
0000
0000
0000
0000
0100
0000
0000
0000
0000
0000
0000
0000
0000
0000
0000
0000
0100
0000
0000
0000
0000
0000
0010
0000
0000
0000
0000
0000
0000
0000
0000
0000
0000
0000
0000
0000
0000
0000
0000
0000
0000
0000
0000
0000
0000
0000
1010
0000
0000
0000
0000
0000
0000
0000
0000
0000
0000
0000
0000
0000
0000
0000
0000
0000
0000
0000
0000
0000
0000
0000
0101
0000
0000
0000
0000
0000
0000
0000
0000
0000
0000
0000
0000
0000
0000
0000
0000
0000
0000
0000
0000
0000
0000
0000
2002
0000
0000
0000
0000
0000
0000
0000
0000
0000
0000
0000
0000
0000
0000
0000
0000
0000
0000
0000
0000
0000
0000
0000
0000
3003
0000
0000
0000
0000
0000
0000
0000
0000
0000
0000
0000
0000
0000
0000
0000
0000
0000
0000
0000
0000
0000
0000
0000
0000
0000
0000
0000
0000
0000
0000
0000
0000
0000
0000
0000
0000
0000
0000
0000
0000
0000
0000
0000
0000
0000
0000
,
0010
0100
0010
0100
0010
0000
1000
0000
0100
0000
0000
0000
0011
0000
0000
1000
,
0000
0010
0000
0100
0001
0000
0001
0000
0010
0000
0010
0000
0100
0000
0010
0000
,
0001
0000
1000
0000
0010
0000
0100
0000
0001
0000
0000
0000
1100
0000
0000
0001
,
0000
0100
0000
0100
0010
0000
0010
0000
1000
0000
1000
0000
0001
0000
0100
0000
,
0010
0000
0000
0000
1100
0000
0000
0000
0101
0000
0000
0000
0010
0000
0100
0001
,
0000
0010
0000
0001
1000
0000
1000
0000
0100
0000
0100
0000
0010
0000
0001
0000
,
1000
0000
0001
0000
0011
0000
0000
0000
1010
0000
0000
0000
0100
0000
0001
1000
,
0000
0100
0000
1000
0010
0000
0010
0000
0100
0000
0100
0000
0001
0000
0010
0000
,
0100
1000
2002
0000
0000
0000
0000
0000
,
3003
0000
0000
0000
;

//---------------dance-single - ----------------
#NOTES:
     dance-single:
     BEGINNER:
     Beginner:
     2:
     0.122832,0.178181,0.134672,0.082875,0.005180,83.000000,70.000000,13.000000,8.000000,0.000000,0.000000,0.122832,0.178181,0.134672,0.082875,0.005180,83.000000,70.000000,13.000000,8.000000,0.000000,0.000000:
0000
1000
0000
0000
,
0000
1000
0000
0000
,
0000
0001
0000
0000
,
0000
0001
0001
0000
,
0000
0100
0100
0100
,
0000
0100
0000
0000
,
0010
0000
0010
0000
,
0100
0000
0100
0000
,
0000
0010
0010
0010
,
0000
0010
0000
0000
,
1000
0000
1000
0000
,
0001
0000
0001
0000
,
1001
0000
1001
0000
,
1001
0000
0000
0000
,
0110
0000
0110
0000
,
0110
0000
0000
0000
,
1001
0000
1001
0000
,
1001
0000
0000
0000
,
0010
0010
0010
0000
,
0220
0000
0000
0000
,
0330
0000
0000
1000
,
0000
1000
0000
1000
,
0000
0000
0000
0001
,
0000
0001
0000
0001
,
0000
0000
0000
0100
,
0000
0100
0000
0100
,
0000
0000
0000
0010
,
0000
0010
0000
0010
,
0000
0000
0000
2002
,
0000
0000
0000
3003
,
0010
0010
0000
0000
,
0100
0100
0000
0001
,
0001
0001
0000
1000
,
1000
0000
0000
0000
0000
0000
0000
0000
0000
0000
0000
0000
0000
0000
0000
0000
0000
0000
0000
0000
0000
0000
0000
0000
0000
0000
0000
0000
0000
0000
0000
0000
0000
0000
0000
0000
0000
0000
0000
0000
0000
0000
0000
0000
0000
0000
0000
0000
2002
0000
0000
0000
0000
0000
0000
0000
0000
0000
0000
0000
0000
0000
0000
0000
0000
0000
0000
0000
0000
0000
0000
0000
0000
0000
0000
0000
0000
0000
0000
0000
0000
0000
0000
0000
0000
0000
0000
0000
0000
0000
0000
0000
0000
0000
0000
0000
0000
0000
0000
0000
0000
0000
0000
0000
0000
0000
0000
0000
0000
0000
0000
0000
0000
0000
0000
0000
0000
0000
0000
0000
0000
0000
0000
0000
0000
0000
0000
0000
0000
0000
0000
0000
0000
0000
0000
0000
0000
0000
0000
0000
0000
0000
0000
0000
0000
3003
0000
0000
0000
0000
0000
0000
0000
0000
0000
0000
0000
0000
0000
0000
0000
0000
0000
0000
0000
0000
0000
0000
0000
0000
0000
0000
0000
0000
0000
0000
0000
0000
0000
0000
0000
0000
0000
0000
0000
0000
0000
0000
0000
0000
0000
0000
,
0000
0010
0010
0010
,
0000
0000
0000
0000
,
0000
0100
0100
0100
,
0000
0000
0000
0000
,
0000
0001
0001
0001
,
0000
0000
0000
0000
,
0000
1000
1000
1000
,
0000
0000
0000
0000
,
0000
2002
0000
0000
,
3003
0000
0000
0000
;

//---------------dance-double - ----------------
#NOTES:
     dance-double:
     DIFFICULT:
     Medium:
     8:
     0.328540,0.512271,0.310781,0.103594,0.056977,222.000000,192.000000,30.000000,10.000000,0.000000,0.000000,0.328540,0.512271,0.310781,0.103594,0.056977,222.000000,192.000000,30.000000,10.000000,0.000000,0.000000:
00000000
00001000
00001000
00000000
,
00010000
00010000
00001000
00100000
,
01000000
01000000
00000000
00100000
,
00100000
00000000
00001000
00000000
00010000
00001000
00001000
00000000
,
00010100
00001000
00001010
00000100
,
00000010
00000001
00000010
00000000
00000100
00001000
00000100
00000000
,
00010000
00001000
00100000
01000000
,
10000000
00010000
01000000
10000000
,
01000000
00110000
01000000
00101000
,
00010000
00000000
00001000
00010000
00001000
00000000
00010000
00000000
,
00000100
00000010
00000100
00000000
00001000
00000010
00001000
00000000
,
00000010
00000100
00000001
00000010
,
00001200
00000000
00010000
00000000
,
00010300
00000100
00001000
00010000
,
02100000
00000000
00010000
00000000
,
03010000
01000000
00100000
00010000
,
00001000
00000000
00010000
00001000
00010000
00000000
00001000
00010000
,
00001000
00010000
00000100
00000010
,
00000100
00000000
00001000
00000010
00001000
00000000
00000001
00000100
,
00000202
00000000
00000000
00000000
,
00000303
00000000
00000000
00010000
00001000
00000000
00110000
00000000
,
10010000
00000000
11000000
00000000
10000000
00010000
10000000
00000000
,
00100000
01000000
00001000
00010000
,
00001000
00001000
00010000
00010000
,
00000100
00000010
00000100
00001100
,
00000110
00000000
00000011
00000000
00001000
00000001
00001000
00000000
,
00000010
00010000
00000100
00010000
,
00001000
00100000
00010000
00000000
01000000
00010000
00100000
00000000
,
01000000
10000000
10010000
02200000
,
00000000
00000000
00000000
00000000
00000000
00000000
00000000
00000000
00000000
00000000
00000000
00000000
00000000
00000000
00000000
00000000
03300000
00000000
00000000
00000000
00000000
00000000
00000000
00000000
10000000
00000000
00000000
10000000
00000000
00000000
10000000
00000000
,
00100000
00000000
00000000
00000000
00100000
00000000
01000000
00000000
00010000
00000000
00000000
00000000
01000000
00000000
00000000
00000000
00001000
00000000
00000000
00000000
00010000
00000000
00000000
00000000
00001000
00000000
00000000
00001000
00000000
00000000
00001000
00000000
,
00010000
00000000
00000100
00001000
00000010
00000000
00000100
00000000
00000001
00000000
00001000
00000000
00001001
00000000
00000100
00000010
,
00000000
00000010
00001000
00000000
00000010
00001000
00000010
00000000
00010000
00001000
00010000
00000000
00001000
00000000
00100000
00000000
,
00010000
00000000
00000000
00000000
00000000
00000000
00000000
00000000
00000000
00000000
00000000
00000000
00000000
00000000
00000000
00000000
00000000
00000000
00000000
00000000
00000000
00000000
00000000
00000000
01000000
00000000
00000000
00000000
00000000
00000000
00000000
00000000
00000000
00000000
00000000
00000000
00000000
00000000
00000000
00000000
00000000
00000000
00000000
00000000
00000000
00000000
00000000
00000000
20020000
00000000
00000000
00000000
00000000
00000000
00000000
00000000
00000000
00000000
00000000
00000000
00000000
00000000
00000000
00000000
00000000
00000000
00000000
00000000
00000000
00000000
00000000
00000000
00000000
00000000
00000000
00000000
00000000
00000000
00000000
00000000
00000000
00000000
00000000
00000000
00000000
00000000
00000000
00000000
00000000
00000000
00000000
00000000
00000000
00000000
00000000
00000000
00000000
00000000
00000000
00000000
00000000
00000000
00000000
00000000
00000000
00000000
00000000
00000000
00000000
00000000
00000000
00000000
00000000
00000000
00000000
00000000
00000000
00000000
00000000
00000000
00000000
00000000
00000000
00000000
00000000
00000000
00000000
00000000
00000000
00000000
00000000
00000000
00000000
00000000
00000000
00000000
00000000
00000000
00000000
00000000
00000000
00000000
00000000
00000000
00000000
30030000
00000000
00000000
00000000
00000000
00000000
00000000
00000000
00000000
00000000
00000000
00000000
00000000
00000000
00000000
00000000
00000000
00000000
00000000
00000000
00000000
00000000
00000000
00000000
00000000
00000000
00000000
00000000
00000000
00000000
00000000
00000000
00000000
00000000
00000000
00000000
00000000
00000000
00000000
00000000
00000000
00000000
00000000
00000000
00000000
00000000
00000000
,
00000000
00011000
00001100
00001010
,
00000010
00000100
00000001
00000000
00001000
00000000
00000100
00000000
,
00000010
00001100
00010100
00011000
,
00001000
00100000
00010000
00000000
01000000
00000000
00100000
00000000
,
10000000
10010000
01100000
01001000
,
00100000
00001000
00010000
00000000
00000100
00000000
00010000
00000000
,
00001000
00000110
00010010
00010100
,
00000100
00010000
00001000
00000000
00010000
00000000
00001000
00000000
,
00100000
02200000
00000000
00000000
,
03300000
00000000
00000000
00000000
;

//---------------dance-double - ----------------
#NOTES:
     dance-double:
     EXPERT:
     Hard:
     10:
     0.454332,0.623634,0.341859,0.165750,0.222726,307.000000,274.000000,33.000000,16.000000,0.000000,0.000000,0.454332,0.623634,0.341859,0.165750,0.222726,307.000000,274.000000,33.000000,16.000000,0.000000,0.000000:
00011000
00000000
00000000
00000000
00100000
00000000
00010000
00000000
01000000
00000000
00000000
00100000
00000000
10000000
00000000
01000000
,
00000000
00100000
00000000
00000000
00001000
00000000
00010000
00000000
00001000
00000000
00000000
00000000
00000110
00000000
00000000
00000001
,
00000000
00001000
00000000
00000000
00000100
00000000
00000010
00000000
00000001
00000000
00000000
00000100
00000000
00000010
00000000
00001000
,
00000000
00000100
00000000
00000000
00010000
00000000
00001000
00000000
00010000
00000000
00001000
00000000
00001000
00000000
00000000
00000000
,
01100000
00010000
10100000
01000000
,
00100000
00001000
00010000
00000000
00000100
00010000
00001000
00000000
,
00010000
00000000
00000000
00000000
00000100
00000000
00000000
00000000
00000010
00000000
00000000
00000100
00000000
00010000
00000000
00001000
,
00000000
00000100
00000010
00000000
00001000
00000010
00000100
00000001
,
00000010
00000101
00001000
00000110
,
00000001
00000000
00000100
00000010
00010000
00000000
00000100
00010000
,
00001000
00000000
00000000
00000000
00010000
00000000
00000000
00000000
00001000
00000000
00000000
00100000
00000000
00010000
00000000
01000000
,
00000000
00100000
10000000
00000000
01000000
01000000
01000000
00000000
,
10020000
00100000
01000000
00130000
,
00001000
00100000
00010000
00001000
00000100
00001000
00000010
00000100
,
00000120
00001000
00000001
00001030
,
00000100
00000010
00001000
00000100
00010000
00001000
00010000
00000100
,
00001000
00010000
00200000
00000000
00310000
10000000
02000000
00000000
,
03100000
00001000
00010000
00000100
00001000
00000010
00000001
00000010
,
00002000
00000000
00003010
00010000
00000200
00000000
00010300
00000010
,
00000100
00001000
00000100
00000010
00010000
00001000
00100000
00010000
,
02000000
00000000
03000000
01100000
01100000
00000000
10010000
00000000
,
01010000
00000000
00000000
00000000
00101000
00000000
00000000
00100000
00000000
00001000
00000000
00010000
00000000
00000000
00000100
00000000
,
00010000
00000000
00001000
00001000
00001000
00000000
00000110
00000000
,
00000011
00000000
00001001
00000000
00000100
00000010
00010000
00000010
,
00000100
00000000
00001000
00000000
00010000
00001000
00000000
00010000
00001000
00000000
00000000
00000000
00110000
00000000
00000000
00000000
,
01100000
00000000
10010000
00000000
00100000
01000000
00010000
00100000
,
00001000
00010000
00001000
00000100
00010000
00000100
00000020
00000000
,
00001030
00000010
00000200
00000000
00000301
00000010
00000100
00001000
,
00000100
00010000
00001000
00100000
01000000
01000000
02200000
00000000
,
00000000
00000000
00000000
00000000
00000000
00000000
00000000
00000000
03300000
00000000
00000000
00000000
10010000
00000000
00010000
01000000
,
00100000
00000000
00010000
00000000
00000000
00100000
00000000
00000000
01000000
00000000
00001000
00000000
00100000
00000000
00000000
00000000
00001000
00000000
00001000
00000000
00001000
00000000
00000000
00000000
00011000
00000000
00000000
00000000
00010000
00000000
00000100
00000000
,
00000010
00000001
00001000
00000100
00000010
00000100
00001000
00000000
00000001
00000000
00000010
00000000
00001100
00000000
00010000
00000100
,
00000000
00010000
00001000
00000000
00100000
00100000
00100000
00000000
01010000
00000000
10100000
00000000
20020000
00000000
00000000
00000000
,
00000000
00000000
00000000
00000000
00000000
00000000
00000000
00000000
00000000
00000000
00000000
00000000
00000000
00000000
00000000
00000000
00000000
00000000
00000000
00000000
00000000
00000000
00000000
00000000
30030000
00000000
00000000
00000000
00000000
00000000
00000000
00000000
00000000
00000000
00000000
00000000
00000000
00000000
00000000
00000000
00000000
00000000
01000000
00000000
00000000
00000000
00000000
00000000
00100000
00000000
00000000
00000000
00000000
00000000
00000000
00000000
00000000
00000000
00000000
00000000
00000000
00000000
00000000
00000000
00000000
00000000
00100000
00000000
00000000
00000000
00000000
00000000
00010000
00000000
00000000
00000000
00000000
00000000
00000000
00000000
00000000
00000000
00000000
00000000
00000000
00000000
00000000
00000000
00000000
00000000
00001000
00000000
00000000
00000000
00000000
00000000
00010000
00000000
00000000
00000000
00000000
00000000
00000000
00000000
00000000
00000000
00000000
00000000
00000100
00000000
00000000
00000000
00000000
00000000
00000000
00000000
00000000
00000000
00000000
00000000
00001000
00000000
00000000
00000000
00000000
00000000
00000000
00000000
00000000
00000000
00000000
00000000
00000020
00000000
00000000
00000000
00000000
00000000
00000000
00000000
00000000
00000000
00000000
00000000
00000000
00000030
00000000
00000000
00000000
00000000
00000000
00000000
00000000
00000000
00000000
00000000
00000000
00000000
00000000
00000000
00000000
00000000
00000000
00000000
00000000
00000000
00000000
00000000
00000000
00000000
00000000
00000000
00000000
00000000
00000000
00000000
00000000
00000000
00000000
00000000
00000000
00000000
00000000
00000000
00000000
00000000
00000000
00000000
00000000
00000000
00000000
00000000
,
00000000
00000000
00000000
00000000
00011000
00000000
00000000
00000000
01100000
00000000
00000000
00000000
11000000
00000000
00000000
01000000
,
00000000
00010000
00000000
00000000
00100000
00000000
00000000
00000000
00001000
00000000
00010000
00000000
00000100
00000000
00000010
00000000
,
00000100
00000000
00001000
00000000
00001100
00000000
00000000
00000000
00010010
00000000
00000000
00000000
00001010
00000000
00000000
00000010
,
00000000
00000100
00000000
00000000
00000001
00000000
00000010
00000000
00000100
00000000
00001000
00000000
00000100
00000000
00010000
00000000
,
00001000
00000000
01000000
00010000
00100000
00000000
01000000
10000000
,
00010000
00100000
00100000
00010000
01000000
00010000
00100000
00001000
,
00100000
00001000
00010000
00000100
00000010
00000000
00000100
00001000
,
00001000
00000001
00000100
00000001
00000010
00000100
00001000
00000010
,
00001000
00022000
00000000
00000000
,
00033000
00000000
00000000
00000000
;

//---------------dance-double - ----------------
#NOTES:
     dance-double:
     BASIC:
     Easy:
     4:
     0.204228,0.311817,0.124312,0.082875,0.005180,138.000000,126.000000,12.000000,8.000000,0.000000,0.000000,0.204228,0.311817,0.124312,0.082875,0.005180,138.000000,126.000000,12.000000,8.000000,0.000000,0.000000:
// measure 0
00000000
00100000
00000000
00100000
,  // measure 1
00100000
00100000
00000000
01000000
,  // measure 2
01000000
01000000
00000000
00001000
,  // measure 3
00001000
00001000
00011000
00000000
,  // measure 4
00010000
00000000
00010000
00000000
,  // measure 5
00010000
00010000
00000010
00000010
,  // measure 6
00001000
00000000
00001000
00000000
,  // measure 7
00000001
00000000
00000001
00000000
,  // measure 8
00000100
00000000
00000010
00000010
,  // measure 9
00001000
00001000
00000100
00000000
,  // measure 10
00010000
00000000
00010000
00000000
,  // measure 11
00001000
00000000
00001000
00000000
,  // measure 12
00011000
00000000
00100000
01000000
,  // measure 13
11000000
00000000
00010000
01000000
,  // measure 14
01001000
00000000
00010000
00001000
,  // measure 15
00010000
00000000
00000100
00010000
,  // measure 16
00000100
00000000
00001000
00000000
,  // measure 17
00000010
00000000
00000100
00000000
,  // measure 18
00000001
00000010
00000100
00001000
,  // measure 19
00022000
00000000
00000000
00000000
,  // measure 20
00033000
00000000
00000000
00100000
,  // measure 21
00100000
01000000
01000000
00010000
,  // measure 22
00000000
10000000
00000000
00010000
,  // measure 23
00010000
00100000
00100000
00001000
,  // measure 24
00001000
00010000
00000000
00010000
,  // measure 25
00010000
00001000
00001000
00010000
,  // measure 26
00000000
00000100
00000000
00001000
,  // measure 27
00001000
00000001
00000001
00000010
,  // measure 28
00000010
00000100
00000100
00022000
,  // measure 29
00000000
00000000
00033000
00100000
,  // measure 30
00100000
00000000
01000000
00000000
01000000
00000000
00010000
10000000
,  // measure 31
00010000
00000000
10000000
00010000
10000000
00000000
00010000
00100000
,  // measure 32
00001000
00000000
00010000
00000100
00001000
00000000
00000100
00000010
,  // measure 33
00002002
00000000
00000000
00000000
00000000
00000000
00000000
00000000
00000000
00000000
00000000
00000000
00000000
00000000
00000000
00000000
00000000
00000000
00000000
00000000
00000000
00000000
00000000
00000000
00000000
00000000
00000000
00000000
00000000
00000000
00000000
00000000
00000000
00000000
00000000
00000000
00000000
00000000
00000000
00000000
00000000
00000000
00000000
00000000
00000000
00000000
00000000
00000000
00000000
00000000
00000000
00000000
00000000
00000000
00000000
00000000
00000000
00000000
00000000
00000000
00000000
00000000
00000000
00000000
00000000
00000000
00000000
00000000
00000000
00000000
00000000
00000000
00000000
00000000
00000000
00000000
00000000
00000000
00000000
00000000
00000000
00000000
00000000
00000000
00000000
00000000
00000000
00000000
00000000
00000000
00000000
00000000
00000000
00000000
00000000
00000000
00000000
00000000
00000000
00000000
00000000
00000000
00000000
00000000
00000000
00000000
00000000
00000000
00000000
00000000
00000000
00000000
00000000
00000000
00000000
00000000
00000000
00000000
00000000
00000000
00000000
00000000
00000000
00000000
00000000
00000000
00000000
00000000
00000000
00000000
00000000
00000000
00000000
00000000
00000000
00000000
00000000
00000000
00000000
00000000
00000000
00000000
00000000
00000000
00000000
00003003
00000000
00000000
00000000
00000000
00000000
00000000
00000000
00000000
00000000
00000000
00000000
00000000
00000000
00000000
00000000
00000000
00000000
00000000
00000000
00000000
00000000
00000000
00000000
00000000
00000000
00000000
00000000
00000000
00000000
00000000
00000000
00000000
00000000
00000000
00000000
00000000
00000000
00000000
00000000
00000000
00000000
00000000
00000000
00000000
00000000
00000000
,  // measure 34
00000000
00110000
00100000
00100000
,  // measure 35
00000000
01000000
00100000
01000000
,  // measure 36
10000000
10010000
00010000
00010000
,  // measure 37
00000000
00100000
00001000
00010000
,  // measure 38
00000000
00001100
00000100
00000100
,  // measure 39
00000000
00000010
00000001
00001000
,  // measure 40
00000010
00010010
00010000
00010000
,  // measure 41
00000000
00001000
00010000
00001000
,  // measure 42
00000000
02200000
00000000
00000000
,  // measure 43
03300000
00000000
00000000
00000000
;
